osu file format v11

[General]
AudioFilename: 1.mp3
AudioLeadIn: 500
PreviewTime: 71306
Countdown: 0
SampleSet: Soft
StackLeniency: 0.5
Mode: 0
LetterboxInBreaks: 0

[Editor]
DistanceSpacing: 0.8
BeatDivisor: 4
GridSize: 4

[Metadata]
Title:God Knows...
TitleUnicode:God Knows...
Artist:KANAN
ArtistUnicode:KANAN
Creator:JauiPlaY
Version:God knows...
Source:Suzumiya Haruhi no Yuuutsu
Tags:hirano aya shinki
BeatmapID:179838
BeatmapSetID:60113

[Difficulty]
HPDrainRate:7
CircleSize:4
OverallDifficulty:7
ApproachRate:8
SliderMultiplier:2.4
SliderTickRate:2

[Events]
//Background and Video events
0,0,"e42c2d018f642016fbf1a233747386be.jpg"
//Break Periods
2,20108,23603
2,24553,28047
//Storyboard Layer 0 (Background)
//Storyboard Layer 1 (Fail)
//Storyboard Layer 2 (Pass)
//Storyboard Layer 3 (Foreground)
//Storyboard Sound Samples
//Background Colour Transformations
3,100,0,0,0

[TimingPoints]
2131,555.555555555556,4,2,1,35,1,0
24353,-100,4,2,1,55,0,0
32131,-200,4,2,1,55,0,0
35742,-200,4,2,2,35,0,0
37686,-100,4,2,1,55,0,0
37825,-100,4,2,2,50,0,0
42131,-100,4,2,1,50,0,0
42269,-100,4,2,2,50,0,0
46575,-100,4,2,1,50,0,0
46714,-100,4,2,2,50,0,0
51019,-100,4,2,1,50,0,0
51158,-100,4,2,2,50,0,0
55464,-100,4,2,1,55,0,1
55603,-100,4,2,1,55,0,0
73242,-100,4,2,1,75,0,1
73381,-100,4,2,2,75,0,1
82131,-100,4,2,1,75,0,1
82269,-100,4,2,2,75,0,1
84353,-133.333333333333,4,2,2,75,0,1
86992,-100,4,2,2,75,0,1
88519,-100,4,2,1,75,0,1
88658,-100,4,2,2,55,0,1
90881,-100,4,2,2,75,0,0
91019,-100,4,2,1,75,0,1
91158,-100,4,2,2,75,0,1
99908,-100,4,2,1,75,0,1
100047,-100,4,2,2,75,0,1
102131,-133.333333333333,4,2,2,75,0,1
104769,-100,4,2,2,75,0,1
106297,-100,4,2,1,75,0,1
106436,-100,4,2,2,75,0,1
108797,-100,4,2,1,75,0,1
108936,-100,4,2,1,5,0,1
113103,-100,4,2,1,5,0,0
113242,-100,4,2,1,5,0,1
113381,-100,4,2,1,5,0,0

[Colours]
Combo1 : 225,98,91
Combo2 : 111,57,147
Combo3 : 121,236,213
Combo4 : 142,64,99

[HitObjects]
256,192,2130,1,2,0:0:0
312,272,2408,2,0,B|352:320,1,60,0|8,0:0|0:0,0:0:0
392,236,2825,2,0,B|456:244,1,60,8|0,0:0|0:0,0:0:0
392,148,3242,2,0,B|456:140,1,60,0|8,0:0|0:0,0:0:0
312,112,3658,2,0,B|352:64,1,60,0|8,0:0|0:0,0:0:0
256,48,4075,1,8,0:0:0
256,192,4353,5,2,0:0:0
200,112,4631,2,0,B|160:64,1,60,0|8,0:0|0:0,0:0:0
120,148,5047,2,0,B|56:140,1,60,8|0,0:0|0:0,0:0:0
120,236,5464,2,0,B|56:244,1,60,0|8,0:0|0:0,0:0:0
200,272,5881,2,0,B|160:320,1,60,0|8,0:0|0:0,0:0:0
256,336,6297,1,8,0:0:0
256,192,6575,5,2,0:0:0
304,256,6853,1,0,0:0:0
312,272,6992,1,8,0:0:0
200,272,7269,1,8,0:0:0
208,256,7408,1,0,0:0:0
160,96,7686,1,0,0:0:0
200,64,7825,2,0,B|256:24|312:64,1,120,8|0,0:0|0:0,0:0:0
352,96,8242,1,8,0:0:0
256,144,8519,1,0,0:0:0
256,168,8658,1,8,0:0:0
256,192,8797,5,2,0:0:0
256,216,8936,1,8,0:0:0
344,248,9214,2,0,B|344:272|344:272|320:304,1,60,0|8,0:0|0:0,0:0:0
168,248,9630,2,0,B|168:272|168:272|192:304,1,60,0|8,0:0|0:0,0:0:0
344,136,10047,2,0,B|344:112|344:112|320:80,1,60,0|8,0:0|0:0,0:0:0
168,136,10464,2,0,B|168:112|168:112|192:80,1,60,0|8,0:0|0:0,0:0:0
256,24,10742,1,0,0:0:0
256,24,10880,1,8,0:0:0
80,80,11019,6,0,B|80:140,1,60,2|8,0:0|0:0,0:0:0
168,196,11436,2,0,B|168:136,1,60,0|8,0:0|0:0,0:0:0
256,192,11853,2,0,B|256:252,1,60,0|8,0:0|0:0,0:0:0
344,196,12269,2,0,B|344:136,1,60,0|8,0:0|0:0,0:0:0
432,80,12686,2,0,B|432:140,1,60,8|8,0:0|0:0,0:0:0
408,272,13103,1,0,0:0:0
408,272,13242,6,0,B|378:334|310:326,1,120,10|0,0:0|0:0,0:0:0
310,326,13658,1,8,0:0:0
202,326,13936,1,8,0:0:0
201,326,14075,2,0,B|133:334|104:272,1,120
104,272,14492,1,8,0:0:0
168,196,14769,1,0,0:0:0
168,196,14908,1,8,0:0:0
256,44,15186,1,8,0:0:0
344,196,15464,5,2,0:0:0
204,116,15742,2,0,B|188:100|188:100|156:84,1,60,0|8,0:0|0:0,0:0:0
308,116,16158,2,0,B|324:100|324:100|356:84,1,60,8|0,0:0|0:0,0:0:0
256,200,16575,1,0,0:0:0
256,220,16714,1,8,0:0:0
256,240,16853,1,0,0:0:0
256,260,16992,1,0,0:0:0
256,280,17130,2,0,B|256:344,1,60,8|8,0:0|0:0,0:0:0
320,182,17686,5,2,0:0:0
320,148,17825,1,0,0:0:0
341,120,17964,1,0,0:0:0
361,92,18103,1,8,0:0:0
328,82,18242,1,8,0:0:0
296,72,18381,1,8,0:0:0
276,44,18519,1,0,0:0:0
256,16,18658,1,0,0:0:0
236,44,18797,1,0,0:0:0
216,72,18936,1,0,0:0:0
184,82,19075,1,8,0:0:0
151,92,19214,1,0,0:0:0
171,120,19353,1,8,0:0:0
192,148,19492,1,0,0:0:0
192,182,19631,1,0,0:0:0
256,240,19908,5,4,0:0:0
256,216,24353,5,2,0:0:0
256,192,28797,5,2,0:0:0
256,192,31019,1,2,0:0:0
256,192,31853,1,0,0:0:0
308,272,32131,2,0,B|336:290|364:272,1,60
380,176,32686,2,0,B|413:175|426:145,1,60
372,68,33242,6,0,B|331:90|285:81,1,90,2|0,0:0|0:0,0:0:0
264,164,33797,2,0,B|208:180,1,60
80,312,34353,2,0,B|46:312|33:342,1,60,0|0,0:0|0:0,0:0:0
120,224,34908,1,0,0:0:0
192,288,35186,1,0,0:0:0
36,176,35742,5,4,0:0:0
188,56,36297,1,4,0:0:0
216,148,36575,1,0,0:0:0
296,200,36853,1,4,0:0:0
369,140,37131,1,0,0:0:0
407,151,37269,1,0,0:0:0
434,179,37408,1,4,0:0:0
447,218,37547,1,4,0:0:0
444,260,37686,6,0,B|438:328|371:345,1,120,4|0,0:0|0:0,0:0:0
300,284,38242,1,4,0:0:0
216,328,38519,2,0,B|232:357|265:354,1,60,0|4,0:0|0:0,0:0:0
140,280,38936,2,0,B|123:250|90:253,1,60,4|0,0:0|0:0,0:0:0
52,328,39353,1,4,0:0:0
240,316,39631,6,0,B|269:299|266:266,1,60,0|4,0:0|0:0,0:0:0
124,296,40047,2,0,B|94:312|97:345,1,60,4|0,0:0|0:0,0:0:0
46,239,40464,1,4,0:0:0
8,152,40742,1,0,0:0:0
5,56,41019,1,0,0:0:0
51,141,41297,1,0,0:0:0
62,235,41575,1,4,0:0:0
23,322,41853,1,0,0:0:0
32,336,41992,1,4,0:0:0
44,348,42131,6,0,B|88:324|88:324|160:324,1,120,2|0,0:0|0:0,0:0:0
252,352,42686,2,0,B|319:335|325:267,1,120,4|0,0:0|0:0,0:0:0
252,260,43103,2,0,B|185:243|179:175,1,120,4|4,0:0|0:0,0:0:0
236,128,43519,2,0,B|260:120|272:100|272:100|344:88,1,120,0|4,0:0|0:0,0:0:0
412,268,44075,6,0,B|415:301|385:317,1,60,0|4,0:0|0:0,0:0:0
360,208,44492,2,0,B|357:175|387:159,1,60,4|0,0:0|0:0,0:0:0
312,288,44908,2,0,B|244:296|213:234,1,120,4|0,0:0|0:0,0:0:0
208,220,45325,1,4,0:0:0
196,208,45464,1,0,0:0:0
112,240,45742,1,0,0:0:0
100,228,45881,1,4,0:0:0
16,260,46158,1,0,0:0:0
4,248,46297,1,4,0:0:0
16,152,46575,6,0,B|120:96,1,120,2|0,0:0|0:0,0:0:0
212,128,47131,1,4,0:0:0
348,208,47408,1,0,0:0:0
348,208,47547,2,0,B|406:243|392:311,1,120,4|4,0:0|0:0,0:0:0
300,132,47964,2,0,B|359:99|411:145,1,120,0|4,0:0|0:0,0:0:0
204,272,48519,5,0,0:0:0
204,272,48658,2,0,B|145:307|159:375,1,120,4|4,0:0|0:0,0:0:0
248,199,49075,2,0,B|186:169|136:217,1,120,0|4,0:0|0:0,0:0:0
236,348,49631,1,0,0:0:0
304,280,49908,1,0,0:0:0
332,188,50186,1,4,0:0:0
316,92,50464,1,4,0:0:0
230,133,50742,1,0,0:0:0
230,133,50881,1,4,0:0:0
230,133,51019,5,2,0:0:0
238,362,51436,1,4,0:0:0
430,241,51853,1,4,0:0:0
332,188,52131,1,0,0:0:0
234,247,52408,1,4,0:0:0
333,301,52686,1,4,0:0:0
230,133,52964,5,4,0:0:0
333,301,53519,1,4,0:0:0
230,133,54075,2,0,B|288:116,2,60,4|4|0,0:0|0:0|0:0,0:0:0
164,204,54631,1,4,0:0:0
76,168,54908,1,4,0:0:0
79,126,55047,1,4,0:0:0
98,89,55186,1,0,0:0:0
129,66,55325,1,4,0:0:0
168,61,55464,5,4,0:0:0
230,133,55742,1,0,0:0:0
260,224,56019,2,0,B|219:277|257:335,1,120,8|0,0:0|0:0,0:0:0
300,356,56436,2,0,B|360:364,1,60
240,280,56853,2,0,B|186:239|128:277,1,120,0|8,0:0|0:0,0:0:0
12,240,57408,2,0,B|72:232,1,60
72,160,57686,6,0,B|141:155|159:90,1,120,0|0,0:0|0:0,0:0:0
248,56,58242,1,8,0:0:0
340,76,58519,1,0,0:0:0
365,114,58658,1,8,0:0:0
410,101,58797,1,0,0:0:0
413,55,58936,1,8,0:0:0
368,38,59075,1,0,0:0:0
424,176,59353,1,8,0:0:0
460,264,59631,2,0,B|428:274|424:307,1,60
408,252,59908,6,0,B|410:319|345:344,1,120,0|0,0:0|0:0,0:0:0
156,300,60464,1,8,0:0:0
280,308,60742,2,0,B|224:332,1,60
32,292,61158,2,0,B|88:268,1,60
144,192,61575,1,8,0:0:0
280,308,61853,1,0,0:0:0
171,358,62131,6,0,B|156:300,1,60,0|0,0:0|0:0,0:0:0
231,290,62408,2,0,B|216:232,1,60,0|0,0:0|0:0,0:0:0
291,222,62686,2,0,B|276:164,1,60,8|0,0:0|0:0,0:0:0
308,92,62964,1,0,0:0:0
308,92,63103,2,0,B|336:104|348:132|348:132|368:212,1,120,8|8,0:0|0:0,0:0:0
428,236,63519,1,0,0:0:0
428,236,63658,2,0,B|410:303|465:341,1,120,8|0,0:0|0:0,0:0:0
364,332,64075,2,0,B|308:352,1,60,8|8,0:0|0:0,0:0:0
308,352,64353,5,4,0:0:0
75,305,64631,1,0,0:0:0
195,307,64908,2,0,B|217:244|164:198,1,120,8|0,0:0|0:0,0:0:0
155,118,65325,2,0,B|89:142|47:90,1,120,8|8,0:0|0:0,0:0:0
225,148,65742,2,0,B|237:79|303:69,1,120,0|8,0:0|0:0,0:0:0
362,145,66297,5,0,0:0:0
415,37,66575,1,0,0:0:0
269,222,66853,1,0,0:0:0
317,331,67131,2,0,B|268:283|205:314,1,120,8|0,0:0|0:0,0:0:0
129,291,67547,2,0,B|124:360|59:377,1,120,8|8,0:0|0:0,0:0:0
188,240,67964,2,0,B|129:199|147:135,1,120,0|8,0:0|0:0,0:0:0
73,75,68519,1,0,0:0:0
64,104,68658,1,8,0:0:0
56,132,68797,6,0,B|136:180|228:165,1,180,0|0,0:0|0:0,0:0:0
268,136,69353,2,0,B|288:192|288:192|288:256,1,120,8|0,0:0|0:0,0:0:0
368,184,69908,2,0,B|412:156|412:156|424:132,2,80,0|8|8,0:0|0:0|0:0,0:0:0
404,256,70464,2,0,B|360:284|360:284|348:308,2,80,8|8|8,0:0|0:0|0:0,0:0:0
404,256,71019,1,8,0:0:0
404,256,71575,6,0,B|368:184,3,80,8|8|8|0,0:0|0:0|0:0|0:0,0:0:0
340,92,72408,1,0,0:0:0
272,24,72686,2,0,B|244:16,4,30,10|0|0|0|2,0:0|0:0|0:0|0:0|0:0,0:0:0
256,120,73242,5,4,0:0:0
180,180,73519,2,0,B|153:244|86:240,1,120,2|8,0:0|0:0,0:0:0
36,160,74075,2,0,B|96:156,1,60,2|8,0:0|0:0,0:0:0
216,276,74492,2,0,B|276:280,1,60,8|2,0:0|0:0,0:0:0
348,220,74908,1,8,0:0:0
412,376,75186,1,2,0:0:0
328,352,75464,6,0,B|354:287|421:291,1,120,0|2,0:0|0:0,0:0:0
460,160,76019,1,8,0:0:0
340,56,76297,2,0,B|284:40,1,60,2|8,0:0|0:0,0:0:0
290,236,76714,2,0,B|348:220,1,60,8|2,0:0|0:0,0:0:0
304,140,77131,2,0,B|184:136,1,120,8|2,0:0|0:0,0:0:0
184,136,77547,1,0,0:0:0
184,136,77686,5,0,0:0:0
80,360,77964,1,2,0:0:0
17,252,78242,1,8,0:0:0
142,252,78519,1,2,0:0:0
142,252,78658,1,8,0:0:0
4,332,78936,1,8,0:0:0
4,332,79075,1,2,0:0:0
103,160,79353,1,8,0:0:0
202,332,79631,5,2,0:0:0
310,52,80186,1,2,0:0:0
240,303,80742,5,2,0:0:0
271,80,81297,1,2,0:0:0
278,275,81575,5,0,0:0:0
234,109,81853,1,2,0:0:0
256,192,82131,5,4,0:0:0
348,168,82408,2,0,B|384:165|417:148|417:148|401:165|405:193,1,120,2|8,0:0|0:0,0:0:0
420,288,82964,2,0,B|393:309|402:341,1,60,2|8,0:0|0:0,0:0:0
292,364,83381,2,0,B|318:342|309:310,1,60,8|2,0:0|0:0,0:0:0
278,275,83658,1,0,0:0:0
232,264,83797,2,0,B|172:280|112:264,1,120,8|2,0:0|0:0,0:0:0
88,172,84353,6,0,B|125:108|198:107,1,135.000005149841,0|2,0:0|0:0,0:0:0
223,26,84908,2,0,B|294:42|318:111,1,135.000005149841,8|2,0:0|0:0,0:0:0
403,109,85464,2,0,B|410:182|351:226,1,135.000005149841,0|2,0:0|0:0,0:0:0
380,306,86019,2,0,B|312:336|252:293,1,135.000005149841,8|2,0:0|0:0,0:0:0
185,345,86575,2,0,B|136:290|158:220,1,135.000005149841,0|2,0:0|0:0,0:0:0
124,184,87131,6,0,B|87:242|21:228,1,120,8|2,0:0|0:0,0:0:0
77,119,87547,2,0,B|113:60|179:74,1,120,8|8,0:0|0:0,0:0:0
240,24,87964,2,0,B|272:80,1,60,2|0,0:0|0:0,0:0:0
344,48,88242,2,0,B|376:104,1,60,10|0,0:0|0:0,0:0:0
452,92,88519,1,4,0:0:0
308,144,89075,5,8,0:0:0
203,290,89353,1,8,0:0:0
374,233,89631,1,8,0:0:0
202,179,89908,1,8,0:0:0
309,323,90186,2,8,B|329:363,3,40
232,376,90742,1,8,0:0:0
232,376,90881,1,8,0:0:0
232,376,91019,6,0,B|165:393|127:337,1,120,4|2,0:0|0:0,0:0:0
32,264,91575,2,0,B|99:281|137:225,1,120,8|2,0:0|0:0,0:0:0
108,188,91992,2,0,B|84:123|135:79,1,120,8|8,0:0|0:0,0:0:0
300,24,92408,2,0,B|323:88|271:132,1,120,2|8,0:0|0:0,0:0:0
188,148,92964,2,0,B|204:204,1,60,2|0,0:0|0:0,0:0:0
252,216,93242,6,0,B|298:266|361:240,1,120,0|2,0:0|0:0,0:0:0
400,152,93797,2,0,B|348:108|371:43,1,120,8|2,0:0|0:0,0:0:0
440,224,94214,2,0,B|491:267|468:332,1,120,8|8,0:0|0:0,0:0:0
392,312,94631,2,0,B|355:367|288:352,1,120,2|8,0:0|0:0,0:0:0
64,324,95186,2,0,B|124:324,1,60,2|0,0:0|0:0,0:0:0
200,360,95464,6,0,B|223:294|172:251,1,120,0|2,0:0|0:0,0:0:0
80,224,96019,1,8,0:0:0
194,38,96297,2,0,B|220:60|211:92,1,60,2|8,0:0|0:0,0:0:0
80,224,96714,2,0,B|54:202|63:170,1,60,8|2,0:0|0:0,0:0:0
110,86,97131,1,8,0:0:0
194,38,97408,5,2,0:0:0
307,126,97964,1,2,0:0:0
173,180,98519,1,2,0:0:0
194,38,99075,5,2,0:0:0
420,215,99353,1,0,0:0:0
153,322,99631,1,2,0:0:0
256,192,99908,5,4,0:0:0
312,269,100186,2,0,B|429:305,1,120,2|8,0:0|0:0,0:0:0
296,356,100742,2,0,B|238:338,1,60,2|8,0:0|0:0,0:0:0
16,340,101158,2,0,B|73:357,1,60,8|2,0:0|0:0,0:0:0
153,322,101436,1,0,0:0:0
153,322,101575,2,0,B|195:268|160:210,1,120,8|2,0:0|0:0,0:0:0
160,210,101992,1,0,0:0:0
161,211,102131,6,0,B|108:158|126:87,1,135.000005149841,0|2,0:0|0:0,0:0:0
208,107,102686,2,0,B|242:41|315:36,1,135.000005149841,8|2,0:0|0:0,0:0:0
321,120,103242,2,0,B|394:132|421:200,1,135.000005149841,0|2,0:0|0:0,0:0:0
344,232,103797,2,0,B|355:305|299:352,1,135.000005149841,8|2,0:0|0:0,0:0:0
244,288,104353,2,0,B|178:321|117:282,1,135.000005149841,0|2,0:0|0:0,0:0:0
44,192,104908,6,0,B|163:211,1,120,8|2,0:0|0:0,0:0:0
224,152,105325,2,0,B|248:208,2,60,8|0|8,0:0|0:0|0:0,0:0:0
296,108,105742,2,0,B|272:52,1,60,2|0,0:0|0:0,0:0:0
347,26,106019,2,0,B|397:72|372:136,1,120,8|4,0:0|0:0,0:0:0
244,288,106853,5,10,0:0:0
336,320,107131,2,0,B|360:256|309:210,1,120,8|2,0:0|0:0,0:0:0
164,340,107686,2,0,B|97:357|58:302,1,120,8|2,0:0|0:0,0:0:0
58,303,108103,1,8,0:0:0
116,228,108381,1,8,0:0:0
116,228,108519,2,0,B|62:183|83:120,1,120,2|4,0:0|0:0,0:0:0
256,192,108936,12,0,110742,0:0:0
256,192,110881,12,0,113242,0:0:0
