osu file format v14

[General]
AudioFilename: Silhouette.mp3
AudioLeadIn: 0
PreviewTime: 45630
Countdown: 0
SampleSet: Soft
StackLeniency: 0.7
Mode: 3
LetterboxInBreaks: 0
SpecialStyle: 0
WidescreenStoryboard: 0

[Editor]
DistanceSpacing: 1
BeatDivisor: 4
GridSize: 4
TimelineZoom: 1.3

[Metadata]
Title:Silhouette (TV Size)
TitleUnicode:シルエット (TV Size)
Artist:KANA-BOON
ArtistUnicode:KANA-BOON
Creator:[B l a n k]
Version:EZ
Source:Naruto Shippuuden
Tags:naruto opening
BeatmapID:556556
BeatmapSetID:240604

[Difficulty]
HPDrainRate:6
CircleSize:4
OverallDifficulty:6
ApproachRate:5
SliderMultiplier:1.4
SliderTickRate:1

[Events]
//Background and Video events
0,0,"trees moon silhouette naruto shippuden yondaime naruto uzumaki minato namikaze 1440x900 wallpape_www.wallpaperhi.com_56.jpg",0,0
//Break Periods
//Storyboard Layer 0 (Background)
//Storyboard Layer 1 (Fail)
//Storyboard Layer 2 (Pass)
//Storyboard Layer 3 (Foreground)
//Storyboard Sound Samples

[TimingPoints]
1020,327.868852459016,4,2,1,35,1,0
45610,-100,4,2,1,35,0,1
77085,-100,4,2,1,35,0,0

[HitObjects]
192,192,692,5,8,0:0:0:0:
320,192,692,1,8,0:0:0:0:
448,192,1020,1,0,0:0:0:0:
192,192,1347,1,0,0:0:0:0:
64,192,1675,1,0,0:0:0:0:
320,192,2003,1,0,0:0:0:0:
448,192,2331,1,0,0:0:0:0:
192,192,2659,1,0,0:0:0:0:
448,192,2987,128,0,3315:0:0:0:0:
64,192,2987,1,0,0:0:0:0:
320,192,3642,1,4,0:0:0:0:
64,192,3642,128,0,4954:0:0:0:0:
320,192,4954,128,0,6265:0:0:0:0:
192,192,4954,1,0,0:0:0:0:
64,192,6265,128,0,7577:0:0:0:0:
448,192,6265,1,0,0:0:0:0:
320,192,7577,128,0,8888:0:0:0:0:
192,192,7577,1,0,0:0:0:0:
192,192,8888,128,0,10200:0:0:0:0:
448,192,8888,1,0,0:0:0:0:
448,192,10200,128,0,11511:0:0:0:0:
64,192,10200,1,0,0:0:0:0:
64,192,11511,128,0,12823:0:0:0:0:
320,192,11511,1,0,0:0:0:0:
448,192,12823,128,0,13315:0:0:0:0:
192,192,12823,1,0,0:0:0:0:
192,192,13315,128,0,13806:0:0:0:0:
320,192,13806,1,0,0:0:0:0:
64,192,14134,128,0,14462:0:0:0:0:
192,192,14462,1,0,0:0:0:0:
448,192,14790,128,0,15118:0:0:0:0:
320,192,15118,1,0,0:0:0:0:
192,192,15446,128,0,15774:0:0:0:0:
64,192,15774,1,0,0:0:0:0:
320,192,16101,128,0,16429:0:0:0:0:
448,192,16429,1,0,0:0:0:0:
64,192,16757,128,0,17085:0:0:0:0:
192,192,17085,1,0,0:0:0:0:
448,192,17413,128,0,17741:0:0:0:0:
320,192,17741,1,0,0:0:0:0:
192,192,18069,128,0,18397:0:0:0:0:
320,192,18397,1,0,0:0:0:0:
448,192,18724,128,0,19052:0:0:0:0:
320,192,19052,1,0,0:0:0:0:
64,192,19380,128,0,19708:0:0:0:0:
192,192,19708,1,0,0:0:0:0:
448,192,20036,128,0,20364:0:0:0:0:
320,192,20036,1,0,0:0:0:0:
64,192,20364,128,0,20692:0:0:0:0:
320,192,20692,128,0,21019:0:0:0:0:
64,192,21347,128,0,21675:0:0:0:0:
448,192,21347,1,0,0:0:0:0:
448,192,21675,128,0,22003:0:0:0:0:
192,192,22003,128,0,22331:0:0:0:0:
448,192,22659,128,0,22987:0:0:0:0:
64,192,22659,1,0,0:0:0:0:
320,192,22987,1,0,0:0:0:0:
192,192,23315,128,0,23642:0:0:0:0:
64,192,23642,1,0,0:0:0:0:
320,192,23970,128,0,24298:0:0:0:0:
448,192,24298,1,0,0:0:0:0:
192,192,24626,128,0,24954:0:0:0:0:
64,192,24954,1,0,0:0:0:0:
448,192,25282,128,0,25610:0:0:0:0:
320,192,25610,1,0,0:0:0:0:
64,192,25938,128,0,26265:0:0:0:0:
192,192,26265,1,0,0:0:0:0:
448,192,26593,128,0,26921:0:0:0:0:
320,192,26921,1,0,0:0:0:0:
192,192,27249,128,0,27577:0:0:0:0:
64,192,27577,1,0,0:0:0:0:
320,192,27905,128,0,28233:0:0:0:0:
448,192,28233,1,0,0:0:0:0:
192,192,28560,128,0,28888:0:0:0:0:
320,192,28888,1,0,0:0:0:0:
64,192,29216,128,0,29544:0:0:0:0:
192,192,29544,1,0,0:0:0:0:
320,192,29872,128,0,30200:0:0:0:0:
448,192,30200,1,0,0:0:0:0:
192,192,30528,128,0,30856:0:0:0:0:
320,192,30856,128,0,31183:0:0:0:0:
64,192,31183,128,0,31511:0:0:0:0:
448,192,31511,1,0,0:0:0:0:
320,192,31839,128,0,32167:0:0:0:0:
192,192,32167,128,0,32495:0:0:0:0:
448,192,32495,128,0,32823:0:0:0:0:
64,192,32823,1,0,0:0:0:0:
64,192,33151,128,0,33806:0:0:0:0:
448,192,33479,1,0,0:0:0:0:
192,192,33806,128,0,34134:0:0:0:0:
320,192,34134,128,0,34462:0:0:0:0:
448,192,34462,128,0,34790:0:0:0:0:
192,192,34790,128,0,35118:0:0:0:0:
64,192,35118,1,4,0:0:0:0:
448,192,35118,1,4,0:0:0:0:
320,192,35446,1,0,0:0:0:0:
192,192,36101,1,0,0:0:0:0:
64,192,36429,1,4,0:0:0:0:
448,192,36429,1,4,0:0:0:0:
192,192,36757,1,0,0:0:0:0:
320,192,37413,1,0,0:0:0:0:
64,192,37741,1,4,0:0:0:0:
448,192,37741,1,4,0:0:0:0:
192,192,38069,1,0,0:0:0:0:
320,192,38233,128,0,38724:0:0:0:0:
192,192,38724,1,0,0:0:0:0:
64,192,39052,128,0,39380:0:0:0:0:
448,192,39052,1,4,0:0:0:0:
192,192,39380,1,0,0:0:0:0:
448,192,39708,128,0,40036:0:0:0:0:
320,192,40036,1,0,0:0:0:0:
192,192,40364,128,0,40692:0:0:0:0:
320,192,40692,1,0,0:0:0:0:
448,192,41019,128,0,41347:0:0:0:0:
320,192,41347,1,0,0:0:0:0:
64,192,41675,128,0,42003:0:0:0:0:
192,192,42003,1,0,0:0:0:0:
320,192,42331,128,0,42659:0:0:0:0:
448,192,42659,1,0,0:0:0:0:
192,192,42987,128,0,43315:0:0:0:0:
64,192,43315,1,0,0:0:0:0:
448,192,43642,128,0,43970:0:0:0:0:
320,192,43970,1,0,0:0:0:0:
64,192,44298,128,0,44626:0:0:0:0:
192,192,44626,128,0,44954:0:0:0:0:
320,192,44954,128,0,45282:0:0:0:0:
448,192,45282,128,0,45610:0:0:0:0:
320,192,45610,1,4,0:0:0:0:
64,192,45610,128,0,45938:0:0:0:0:
192,192,45938,1,0,0:0:0:0:
320,192,46265,128,0,46593:0:0:0:0:
448,192,46593,1,0,0:0:0:0:
192,192,46921,128,0,47249:0:0:0:0:
64,192,47249,1,0,0:0:0:0:
448,192,47577,128,0,47905:0:0:0:0:
320,192,47905,1,0,0:0:0:0:
64,192,48233,128,0,48560:0:0:0:0:
192,192,48560,1,0,0:0:0:0:
448,192,48888,128,0,49216:0:0:0:0:
320,192,49216,1,0,0:0:0:0:
64,192,49544,128,0,49872:0:0:0:0:
448,192,49872,128,0,50200:0:0:0:0:
192,192,50200,128,0,50528:0:0:0:0:
320,192,50528,128,0,50856:0:0:0:0:
192,192,50856,128,0,51183:0:0:0:0:
64,192,51511,128,0,51839:0:0:0:0:
448,192,51511,1,0,0:0:0:0:
192,192,51839,128,0,52167:0:0:0:0:
320,192,52167,128,0,52495:0:0:0:0:
448,192,52823,128,0,53151:0:0:0:0:
64,192,52823,1,0,0:0:0:0:
320,192,53151,128,0,53479:0:0:0:0:
192,192,53479,128,0,53806:0:0:0:0:
64,192,54134,128,0,54790:0:0:0:0:
448,192,54134,1,0,0:0:0:0:
448,192,54790,128,0,55118:0:0:0:0:
320,192,55118,128,0,55446:0:0:0:0:
64,192,55446,128,0,55774:0:0:0:0:
192,192,55774,128,0,56101:0:0:0:0:
448,192,56101,128,0,56429:0:0:0:0:
320,192,56429,1,0,0:0:0:0:
192,192,56757,128,0,57085:0:0:0:0:
64,192,57085,1,0,0:0:0:0:
320,192,57413,128,0,57741:0:0:0:0:
448,192,57741,1,0,0:0:0:0:
64,192,58069,128,0,58397:0:0:0:0:
192,192,58397,1,0,0:0:0:0:
448,192,58724,128,0,59052:0:0:0:0:
320,192,59052,1,0,0:0:0:0:
64,192,59380,128,0,59708:0:0:0:0:
192,192,59708,1,0,0:0:0:0:
320,192,60036,128,0,60364:0:0:0:0:
448,192,60364,1,0,0:0:0:0:
192,192,60692,128,0,61019:0:0:0:0:
320,192,61019,1,0,0:0:0:0:
448,192,61347,128,0,61675:0:0:0:0:
64,192,61347,128,0,61675:0:0:0:0:
320,192,62003,128,0,62331:0:0:0:0:
192,192,62331,128,0,62659:0:0:0:0:
64,192,62659,128,0,62987:0:0:0:0:
192,192,63315,128,0,63642:0:0:0:0:
320,192,63642,128,0,63970:0:0:0:0:
448,192,63970,128,0,64298:0:0:0:0:
192,192,64626,128,0,65282:0:0:0:0:
448,192,65282,128,0,65610:0:0:0:0:
320,192,65610,128,0,65938:0:0:0:0:
64,192,65938,128,0,66265:0:0:0:0:
192,192,66265,128,0,66429:0:0:0:0:
320,192,66593,128,0,66921:0:0:0:0:
448,192,66921,128,0,67249:0:0:0:0:
192,192,67249,128,0,67577:0:0:0:0:
64,192,67577,128,0,67905:0:0:0:0:
320,192,67905,128,0,68233:0:0:0:0:
448,192,68233,128,0,68560:0:0:0:0:
192,192,68560,128,0,68888:0:0:0:0:
320,192,68888,1,0,0:0:0:0:
64,192,69216,128,0,69544:0:0:0:0:
192,192,69544,128,0,69872:0:0:0:0:
448,192,69872,128,0,70200:0:0:0:0:
320,192,70200,128,0,70528:0:0:0:0:
192,192,70528,128,0,70856:0:0:0:0:
64,192,70856,128,0,71183:0:0:0:0:
320,192,71183,128,0,71511:0:0:0:0:
192,192,71511,128,0,71839:0:0:0:0:
64,192,71839,128,0,72167:0:0:0:0:
448,192,71839,128,0,72167:0:0:0:0:
192,192,72495,128,0,72823:0:0:0:0:
448,192,73151,128,0,73479:0:0:0:0:
320,192,73806,128,0,74134:0:0:0:0:
64,192,74462,128,0,74790:0:0:0:0:
320,192,75118,128,0,75774:0:0:0:0:
64,192,75774,128,0,76101:0:0:0:0:
448,192,76101,128,0,76429:0:0:0:0:
192,192,76429,128,0,76757:0:0:0:0:
320,192,76757,128,0,77085:0:0:0:0:
448,192,77085,1,4,0:0:0:0:
192,192,77413,128,0,78069:0:0:0:0:
64,192,77413,1,0,0:0:0:0:
64,192,78069,128,0,78397:0:0:0:0:
192,192,78397,1,4,0:0:0:0:
320,192,78724,128,0,79380:0:0:0:0:
448,192,78724,1,0,0:0:0:0:
448,192,79380,128,0,79708:0:0:0:0:
320,192,79708,1,4,0:0:0:0:
192,192,80036,128,0,80692:0:0:0:0:
64,192,80036,1,0,0:0:0:0:
64,192,80692,128,0,81019:0:0:0:0:
192,192,81019,1,4,0:0:0:0:
448,192,81347,1,0,0:0:0:0:
192,192,81675,128,0,82003:0:0:0:0:
64,192,82003,128,0,82331:0:0:0:0:
448,192,82331,128,0,82987:0:0:0:0:
64,192,82987,128,0,83642:0:0:0:0:
320,192,83642,128,0,83970:0:0:0:0:
448,192,83970,128,0,84298:0:0:0:0:
192,192,84298,128,0,84626:0:0:0:0:
64,192,84626,128,0,84954:0:0:0:0:
448,192,84954,128,0,87249:0:0:0:0:
64,192,87413,1,0,0:0:0:0:
192,192,87413,1,0,0:0:0:0:
