osu file format v14

[General]
AudioFilename: KANA-BOON - Silhouette.mp3
AudioLeadIn: 0
PreviewTime: 44757
Countdown: 0
SampleSet: Soft
StackLeniency: 0.7
Mode: 0
LetterboxInBreaks: 0
WidescreenStoryboard: 0

[Editor]
DistanceSpacing: 1
BeatDivisor: 4
GridSize: 4
TimelineZoom: 1

[Metadata]
Title:Silhouette
TitleUnicode:シルエット
Artist:KANA-BOON
ArtistUnicode:KANA-BOON
Creator:Kagetsu
Version:Kage
Source:NARUTO-ナルト-疾風伝
Tags:Mamayu pkhg fuyuyu- HappyRocket88 iYiyo Maguro Taniguchi Hayato Koga Yuma Iida Takahiro Koizumi Ki/oon Records Shippuden Nine Tails opening 16 tv size sirueqto
BeatmapID:869197
BeatmapSetID:399358

[Difficulty]
HPDrainRate:7
CircleSize:4
OverallDifficulty:8.5
ApproachRate:9.3
SliderMultiplier:1.8
SliderTickRate:1

[Events]
//Background and Video events
0,0,"BG12.jpg",0,0
Video,-280,"BG.avi"
//Break Periods
//Storyboard Layer 0 (Background)
//Storyboard Layer 1 (Fail)
//Storyboard Layer 2 (Pass)
//Storyboard Layer 3 (Foreground)
//Storyboard Sound Samples

[TimingPoints]
823,327.868113723346,4,2,1,70,1,0
13937,-100,4,2,1,60,0,0
34921,-133.333333333333,4,2,1,70,0,0
40167,-100,4,2,1,70,0,0
45413,-100,4,2,1,80,0,1
76888,-100,4,2,1,70,0,0

[Colours]
Combo1 : 234,104,172
Combo2 : 32,106,230
Combo3 : 235,158,44

[HitObjects]
231,231,495,5,12,0:3:0:0:
249,254,823,6,0,P|287:235|300:156,1,90,2|0,0:0|0:0,0:0:0:0:
287,105,1151,1,8,0:0:0:0:
161,234,1315,2,0,P|170:297|272:341,1,180,0|2,0:0|0:0,0:0:0:0:
428,244,1807,1,8,0:0:0:0:
283,178,1971,1,0,0:0:0:0:
381,137,2134,6,8,L|431:121,1,45
187,216,2298,2,8,L|144:231,1,45
245,80,2462,2,8,L|229:30,1,45
324,274,2626,2,8,L|339:316,1,45
283,178,2791,5,12,0:0:0:0:
467,75,3446,6,0,P|388:26|303:69,1,180,6|8,0:0|0:0,0:0:0:0:
263,257,3938,1,0,0:0:0:0:
383,123,4102,1,2,0:0:0:0:
207,85,4266,1,0,0:0:0:0:
362,224,4430,1,8,0:0:0:0:
313,55,4594,1,0,0:0:0:0:
185,186,4758,6,0,P|159:261|208:348,1,180,2|8,0:0|0:0,0:0:0:0:
382,312,5250,1,0,0:0:0:0:
395,222,5414,2,0,P|335:229|308:256,1,90,2|0,0:0|0:0,0:0:0:0:
294,130,5741,2,0,P|245:166|235:202,1,90,8|0,0:0|0:0,0:0:0:0:
382,312,6069,6,0,P|452:273|467:172,1,180,2|8,0:0|0:0,0:0:0:0:
403,26,6561,2,0,P|373:86|393:145,1,90,0|2,0:0|0:0,0:0:0:0:
468,95,6889,1,0,0:0:0:0:
296,33,7053,2,0,L|197:25,1,90,8|0,0:0|0:0,0:0:0:0:
96,151,7380,6,0,L|281:167,1,180,2|8,0:0|0:0,0:0:0:0:
49,76,7873,2,0,P|7:141|56:233,1,180
171,126,8364,1,8,0:0:0:0:
153,281,8528,1,0,0:0:0:0:
133,41,8692,6,0,L|319:25,1,180,2|8,0:0|0:0,0:0:0:0:
464,13,9184,2,0,P|471:104|399:167,1,180
235,186,9676,1,8,0:0:0:0:
381,68,9840,1,0,0:0:0:0:
158,149,10004,6,0,P|164:240|250:270,1,180,2|8,0:0|0:0,0:0:0:0:
326,248,10495,1,0,0:0:0:0:
348,150,10659,1,2,0:0:0:0:
235,186,10823,1,0,0:0:0:0:
424,222,10987,1,8,0:0:0:0:
279,91,11151,1,0,0:0:0:0:
245,300,11315,6,0,P|321:344|399:308,1,180,2|8,0:0|0:0,0:0:0:0:
424,222,11807,1,0,0:0:0:0:
399,76,11971,1,2,0:0:0:0:
326,248,12135,1,0,0:0:0:0:
459,140,12299,1,8,0:0:0:0:
424,222,12463,1,0,0:0:0:0:
323,25,12627,6,0,P|225:42|190:111,1,180,2|8,0:0|0:0,0:0:0:0:
258,288,13118,1,0,0:0:0:0:
401,183,13282,5,8,0:0:0:0:
386,152,13364,1,8,0:0:0:0:
360,130,13446,1,8,0:0:0:0:
328,119,13528,1,8,0:0:0:0:
295,128,13610,1,8,0:0:0:0:
232,239,13774,1,8,0:0:0:0:
232,239,13856,1,8,0:0:0:0:
232,239,13938,6,0,P|275:291|387:267,1,180,6|8,0:0|0:0,0:0:0:0:
416,196,14430,1,0,0:0:0:0:
256,152,14593,1,2,0:0:0:0:
321,214,14758,1,2,0:0:0:0:
323,92,14922,2,0,P|277:63|215:67,1,90,8|0,0:0|0:0,0:0:0:0:
323,319,15250,6,0,P|401:281|416:196,1,180,2|8,0:0|0:0,0:0:0:0:
353,131,15741,1,0,0:0:0:0:
280,77,15905,2,0,P|233:62|178:85,1,90,2|2,0:0|0:0,0:0:0:0:
91,228,16233,2,0,P|132:243|175:232,1,90,8|0,0:0|0:0,0:0:0:0:
361,224,16561,5,2,0:0:0:0:
175,231,16725,1,0,0:0:0:0:
259,75,16889,1,8,0:0:0:0:
274,282,17053,1,0,0:0:0:0:
355,129,17216,2,0,P|300:147|270:197,1,90,2|2,0:0|0:0,0:0:0:0:
361,224,17545,2,0,P|415:205|445:155,1,90,8|0,0:0|0:0,0:0:0:0:
259,74,17873,6,0,P|177:32|83:74,1,180,2|8,0:0|0:0,0:0:0:0:
75,248,18364,1,0,0:0:0:0:
172,137,18528,1,2,0:0:0:0:
136,325,18692,1,2,0:0:0:0:
74,151,18855,2,0,P|19:167|-12:216,1,90,8|0,0:0|0:0,0:0:0:0:
178,46,19184,6,0,L|375:38,1,180,2|8,0:0|0:0,0:0:0:0:
296,175,19676,1,0,0:0:0:0:
357,38,19840,1,2,0:0:0:0:
419,212,20004,1,2,0:0:0:0:
482,140,20168,1,8,0:0:0:0:
387,124,20332,1,0,0:0:0:0:
489,280,20495,6,0,P|396:303|322:226,1,180,2|8,0:0|0:0,0:0:0:0:
294,109,20987,1,0,0:0:0:0:
193,237,21151,2,0,P|168:280|130:310,1,90,2|2,0:0|0:0,0:0:0:0:
138,131,21479,2,0,P|163:88|201:58,1,90,8|0,0:0|0:0,0:0:0:0:
342,260,21807,6,0,P|260:289|192:235,1,180,2|8,2:0|2:0,2:0:0:0:
166,148,22299,1,0,0:0:0:0:
385,181,22462,2,0,P|430:254|392:332,1,180,2|8,2:0|2:0,2:0:0:0:
293,167,22954,1,0,0:0:0:0:
132,95,23118,5,2,0:0:0:0:
173,320,23282,1,0,0:0:0:0:
228,104,23446,1,8,0:0:0:0:
60,217,23610,1,0,0:0:0:0:
273,193,23774,1,2,0:0:0:0:
132,95,23938,1,2,0:0:0:0:
173,320,24102,1,8,0:0:0:0:
228,104,24266,1,0,0:0:0:0:
292,286,24430,6,0,P|345:251|334:123,1,180,6|8,0:0|0:0,0:0:0:0:
276,44,24922,1,0,0:0:0:0:
211,248,25086,1,2,0:0:0:0:
161,81,25250,1,2,0:0:0:0:
350,142,25413,1,8,0:0:0:0:
276,44,25577,1,0,0:0:0:0:
135,167,25741,6,0,P|71:112|91:28,1,180,2|8,0:0|0:0,0:0:0:0:
276,44,26233,1,0,0:0:0:0:
240,128,26397,2,0,P|229:171|241:213,1,90,2|0,0:0|0:0,0:0:0:0:
353,138,26725,2,0,P|370:98|366:53,1,90,8|0,0:0|0:0,0:0:0:0:
184,281,27053,6,0,P|274:295|327:203,1,180,2|8,0:0|0:0,0:0:0:0:
366,53,27545,1,0,0:0:0:0:
413,275,27709,1,2,0:0:0:0:
474,202,27872,1,2,0:0:0:0:
303,112,28036,1,8,0:0:0:0:
473,26,28200,1,0,0:0:0:0:
383,169,28364,6,0,P|301:209|216:161,1,180,2|8,0:0|0:0,0:0:0:0:
156,116,28856,1,0,0:0:0:0:
188,273,29019,2,0,P|227:307|297:306,1,90,2|2,0:0|0:0,0:0:0:0:
249,74,29347,2,0,P|217:32|147:20,1,90,8|0,0:0|0:0,0:0:0:0:
331,23,29676,6,0,P|412:42|431:143,1,180,2|8,0:0|0:0,0:0:0:0:
345,272,30168,1,0,0:0:0:0:
341,183,30331,2,0,P|416:219|429:255,1,90,2|2,0:0|0:0,0:0:0:0:
262,309,30659,2,0,P|252:265|267:223,1,90,8|0,0:0|0:0,0:0:0:0:
431,72,30987,6,0,P|466:153|408:225,1,180,2|8,0:0|0:0,0:0:0:0:
201,225,31479,1,0,0:0:0:0:
350,155,31643,1,2,0:0:0:0:
262,309,31807,1,2,0:0:0:0:
262,138,31971,1,8,0:0:0:0:
353,282,32135,1,0,0:0:0:0:
127,277,32299,6,0,P|109:196|183:128,1,180,2|8,0:0|0:0,0:0:0:0:
288,216,32791,1,0,0:0:0:0:
162,361,32954,2,0,P|80:352|38:261,1,180,2|8,0:0|0:0,0:0:0:0:
226,285,33446,1,0,0:0:0:0:
295,112,33610,5,2,0:0:0:0:
138,253,33774,1,2,0:0:0:0:
350,298,33938,1,8,0:0:0:0:
195,147,34102,1,0,0:0:0:0:
182,363,34266,1,8,0:0:0:0:
328,202,34430,1,8,0:0:0:0:
115,170,34594,1,2,0:0:0:0:
262,326,34758,1,0,0:0:0:0:
279,109,34922,5,4,0:0:0:0:
336,285,35250,1,2,0:0:0:0:
464,282,35413,2,0,B|510:218|470:147,1,135.000005149842,8|2,0:0|0:0,0:0:0:0:
377,210,35905,1,8,0:0:0:0:
271,199,36069,1,0,0:0:0:0:
474,154,36233,5,6,0:0:0:0:
241,284,36561,1,2,0:0:0:0:
243,160,36724,2,0,P|182:126|110:143,1,135.000005149842,8|2,0:0|0:0,0:0:0:0:
167,242,37217,1,8,0:0:0:0:
156,348,37381,1,0,0:0:0:0:
120,138,37545,5,6,0:0:0:0:
378,219,37872,1,2,0:0:0:0:
381,94,38036,2,0,B|325:46|243:75,1,135.000005149842,8|2,0:0|0:0,0:0:0:0:
303,177,38528,1,8,0:0:0:0:
293,282,38692,1,0,0:0:0:0:
254,71,38856,5,6,0:0:0:0:
94,214,39184,1,2,0:0:0:0:
199,192,39348,1,8,0:0:0:0:
119,119,39512,2,0,P|77:120|30:141,1,67.5000025749208,0|2,0:0|0:0,0:0:0:0:
94,214,39840,2,0,P|58:235|27:277,1,67.5000025749208,8|0,0:0|0:0,0:0:0:0:
196,347,40168,6,0,P|276:317|299:217,1,180,6|8,0:0|0:0,0:0:0:0:
253,156,40659,1,0,0:0:0:0:
223,71,40823,2,0,P|257:33|307:16,1,90,2|2,0:0|0:0,0:0:0:0:
414,95,41151,2,0,P|380:133|330:150,1,90,8|0,0:0|0:0,0:0:0:0:
163,141,41479,6,0,P|80:188|86:304,2,180,2|8|2,0:0|0:0|0:0,0:0:0:0:
332,204,42299,1,2,0:0:0:0:
219,63,42463,1,8,0:0:0:0:
169,236,42627,1,0,0:0:0:0:
320,94,42790,6,0,P|405:117|442:206,1,180,2|8,0:0|0:0,0:0:0:0:
408,278,43282,1,0,0:0:0:0:
201,306,43446,1,2,0:0:0:0:
333,204,43610,1,2,0:0:0:0:
383,376,43774,1,8,0:0:0:0:
243,224,43938,1,0,0:0:0:0:
442,195,44102,6,0,P|404:124|308:104,1,180,8|8,0:0|0:0,0:0:0:0:
266,104,44512,1,8,0:0:0:0:
221,109,44594,1,8,0:0:0:0:
181,129,44676,1,8,0:0:0:0:
150,161,44758,1,8,0:0:0:0:
342,310,45086,1,0,0:0:0:0:
323,331,45413,6,0,P|245:302|231:198,1,180,6|8,0:0|0:0,0:0:0:0:
274,41,45905,1,0,0:0:0:0:
102,97,46069,1,2,0:0:0:0:
294,141,46233,1,2,0:0:0:0:
121,192,46397,1,8,0:0:0:0:
165,17,46561,1,0,0:0:0:0:
231,213,46725,6,0,P|285:239|379:164,1,180,2|8,0:0|0:0,0:0:0:0:
240,19,47217,1,0,0:0:0:0:
121,192,47381,1,2,0:0:0:0:
144,89,47545,1,2,0:0:0:0:
44,123,47709,1,8,0:0:0:0:
65,25,47872,1,0,0:0:0:0:
42,230,48036,6,0,P|114:278|193:237,1,180,2|8,0:0|0:0,0:0:0:0:
248,158,48528,1,0,0:0:0:0:
364,295,48692,1,2,0:0:0:0:
434,129,48856,1,2,0:0:0:0:
270,255,49020,1,8,0:0:0:0:
447,226,49184,1,0,0:0:0:0:
317,101,49348,6,0,P|223:69|162:124,1,180,2|8,0:0|0:0,0:0:0:0:
117,288,49840,1,0,0:0:0:0:
253,170,50004,1,2,0:0:0:0:
221,272,50168,1,2,0:0:0:0:
362,160,50331,1,8,0:0:0:0:
153,194,50495,1,0,0:0:0:0:
325,244,50659,6,0,P|405:241|453:157,1,180,2|8,0:0|0:0,0:0:0:0:
401,75,51151,1,0,0:0:0:0:
253,170,51315,2,0,P|226:258|268:334,2,180,2|8|2,0:0|0:0|0:0,0:0:0:0:
375,53,52135,1,0,0:0:0:0:
325,244,52299,1,8,0:0:0:0:
397,160,52463,1,0,0:0:0:0:
267,35,52627,6,0,P|194:24|85:35,2,180,2|8|2,0:0|0:0|0:0,0:0:0:0:
350,99,53446,1,0,0:0:0:0:
247,137,53610,1,8,0:0:0:0:
267,35,53774,1,0,0:0:0:0:
318,203,53938,2,0,P|227:233|158:172,1,180,2|8,0:0|0:0,0:0:0:0:
247,137,54430,1,0,0:0:0:0:
200,326,54594,5,2,0:0:0:0:
120,76,54758,1,0,0:0:0:0:
374,130,54922,1,8,0:0:0:0:
86,223,55086,1,0,0:0:0:0:
262,30,55249,1,2,0:0:0:0:
343,277,55413,1,2,0:0:0:0:
120,76,55577,1,8,0:0:0:0:
374,130,55741,1,0,0:0:0:0:
199,325,55905,6,0,P|115:305|86:224,1,180,6|8,0:0|0:0,0:0:0:0:
289,365,56397,1,0,0:0:0:0:
399,256,56561,1,2,0:0:0:0:
279,264,56725,1,2,0:0:0:0:
231,153,56889,1,8,0:0:0:0:
331,183,57053,1,0,0:0:0:0:
155,220,57217,6,0,P|134:132|189:62,1,180,2|8,0:0|0:0,0:0:0:0:
290,77,57708,1,0,0:0:0:0:
250,252,57872,1,2,0:0:0:0:
231,153,58036,1,2,0:0:0:0:
350,289,58200,1,8,0:0:0:0:
331,183,58364,1,0,0:0:0:0:
155,264,58528,6,0,P|199:335|308:329,1,180,2|8,0:0|0:0,0:0:0:0:
250,252,59019,1,0,0:0:0:0:
290,77,59183,1,2,0:0:0:0:
331,183,59348,1,2,0:0:0:0:
154,179,59512,1,8,0:0:0:0:
242,160,59676,1,0,0:0:0:0:
190,328,59840,6,0,P|275:347|337:287,1,180,2|8,0:0|0:0,0:0:0:0:
362,198,60331,1,0,0:0:0:0:
253,55,60495,1,2,0:0:0:0:
242,160,60659,1,2,0:0:0:0:
137,42,60823,1,8,0:0:0:0:
148,131,60987,1,0,0:0:0:0:
293,255,61151,2,0,P|347:200|318:95,1,180,2|8,0:0|0:0,0:0:0:0:
253,55,61643,1,0,0:0:0:0:
199,223,61807,6,0,P|157:298|70:301,2,180,2|8|2,0:0|0:0|0:0,0:0:0:0:
172,135,62627,1,0,0:0:0:0:
16,215,62790,1,8,0:0:0:0:
109,213,62954,1,0,0:0:0:0:
219,54,63118,6,0,P|309:41|400:47,2,180,2|8|2,0:0|0:0|0:0,0:0:0:0:
172,135,63938,1,0,0:0:0:0:
316,236,64102,1,8,0:0:0:0:
270,140,64266,1,0,0:0:0:0:
274,320,64430,2,0,P|354:320|406:226,1,180,2|8,0:0|0:0,0:0:0:0:
405,151,64922,1,0,0:0:0:0:
186,297,65086,5,2,0:0:0:0:
167,34,65249,1,0,0:0:0:0:
336,286,65413,1,8,0:0:0:0:
101,170,65577,1,0,0:0:0:0:
317,22,65741,1,2,0:0:0:0:
186,297,65905,1,0,0:0:0:0:
405,151,66069,1,8,0:0:0:0:
438,150,66151,1,8,0:0:0:0:
468,163,66233,1,8,0:0:0:0:
490,190,66315,1,8,0:0:0:0:
501,218,66397,6,0,P|500:298|420:351,2,180,6|8|2,0:0|0:0|0:0,0:0:0:0:
414,253,67216,1,2,0:0:0:0:
218,119,67380,2,0,P|170:123|115:175,1,90,8|0,0:0|0:0,0:0:0:0:
312,168,67708,2,0,P|355:148|389:81,1,90,2|0,0:0|0:0,0:0:0:0:
206,218,68036,1,8,0:0:0:0:
290,264,68200,1,0,0:0:0:0:
287,75,68364,2,0,P|251:51|206:46,1,90,2|2,0:0|0:0,0:0:0:0:
76,113,68692,2,0,P|112:139|156:145,1,90,8|0,0:0|0:0,0:0:0:0:
380,114,69020,6,0,P|453:154|464:251,1,180,2|8,0:0|0:0,0:0:0:0:
384,207,69511,1,0,0:0:0:0:
230,167,69675,1,2,0:0:0:0:
296,236,69840,1,2,0:0:0:0:
243,73,70004,1,8,0:0:0:0:
136,183,70167,1,0,0:0:0:0:
380,114,70331,6,0,P|382:201|318:259,2,180,2|8|2,0:0|0:0|0:0,0:0:0:0:
299,53,71151,1,2,0:0:0:0:
142,142,71315,1,8,0:0:0:0:
249,136,71479,1,0,0:0:0:0:
121,45,71643,6,0,P|54:97|61:197,1,180,2|8,0:0|0:0,0:0:0:0:
122,264,72135,1,0,0:0:0:0:
249,136,72299,2,0,P|323:97|450:86,2,180,2|8|2,0:0|0:0|0:0,0:0:0:0:
221,234,73118,1,0,0:0:0:0:
396,193,73282,1,8,0:0:0:0:
233,330,73446,1,0,0:0:0:0:
451,263,73610,6,0,P|483:183|423:110,2,180,2|8|2,0:0|0:0|0:0,0:0:0:0:
362,282,74430,1,0,0:0:0:0:
271,153,74594,1,8,0:0:0:0:
282,242,74758,1,0,0:0:0:0:
362,126,74922,2,0,P|291:61|193:99,1,180,2|8,0:0|0:0,0:0:0:0:
127,115,75413,1,0,0:0:0:0:
116,367,75577,5,2,0:0:0:0:
334,240,75741,1,8,0:0:0:0:
142,253,75905,1,2,0:0:0:0:
261,364,76069,1,0,0:0:0:0:
257,109,76233,1,8,0:0:0:0:
257,109,76315,1,8,0:0:0:0:
257,109,76397,1,8,0:0:0:0:
43,241,76561,1,2,0:0:0:0:
174,52,76725,1,0,0:0:0:0:
298,344,76889,6,0,P|216:310|204:222,1,180,6|0,0:0|0:0,0:0:0:0:
352,225,77381,2,0,P|335:140|255:108,1,180,8|2,0:0|0:0,0:0:0:0:
172,143,77872,1,8,0:0:0:0:
174,52,78036,1,0,0:0:0:0:
394,34,78200,6,0,P|449:104|417:187,1,180,6|0,0:0|0:0,0:0:0:0:
288,113,78692,2,0,P|261:195|315:262,1,180,8|0,0:0|0:0,0:0:0:0:
415,280,79184,1,8,0:0:0:0:
351,355,79348,1,0,0:0:0:0:
139,304,79512,6,0,P|79:246|92:148,1,180,6|0,0:0|0:0,0:0:0:0:
198,56,80004,2,0,P|258:114|245:212,1,180,8|2,0:0|0:0,0:0:0:0:
139,304,80495,1,8,0:0:0:0:
160,205,80659,1,0,0:0:0:0:
239,289,80823,6,0,P|325:282|369:201,1,180,6|0,0:0|0:0,0:0:0:0:
341,109,81315,1,8,0:0:0:0:
270,179,81479,1,0,0:0:0:0:
368,206,81643,1,2,0:0:0:0:
248,88,81807,1,2,0:0:0:0:
424,74,81971,1,0,0:0:0:0:
299,266,82135,6,0,P|381:301|451:242,1,180,6|8,0:0|0:0,0:0:0:0:
445,149,82626,1,0,0:0:0:0:
267,177,82790,2,0,P|223:202|226:324,1,180,2|8,0:0|0:0,0:0:0:0:
324,352,83282,1,0,0:0:0:0:
359,175,83446,6,0,P|328:107|206:104,2,180,2|8|2,0:0|0:0|0:0,0:0:0:0:
290,342,84266,1,0,0:0:0:0:
135,248,84430,1,8,0:0:0:0:
153,220,84512,1,8,0:0:0:0:
181,200,84594,1,8,0:0:0:0:
213,192,84676,1,8,0:0:0:0:
247,195,84758,6,0,P|305:251|310:296,1,90,2|8,0:0|0:0,0:0:0:0:
176,118,85085,2,0,P|153:41|171:0,1,90,2|8,0:0|0:0,0:0:0:0:
307,144,85413,1,2,0:0:0:0:
112,221,85577,1,2,0:0:0:0:
154,34,85741,1,0,0:0:0:0:
247,258,85905,1,8,0:0:0:0:
79,130,86069,5,0,0:0:0:0:
275,51,86233,1,2,0:0:0:0:
159,334,86397,1,2,0:0:0:0:
185,125,86561,1,8,0:0:0:0:
352,255,86725,1,0,0:0:0:0:
112,221,86889,1,8,0:0:0:0:
306,140,87053,1,8,0:0:0:0:
276,349,87217,1,12,0:0:0:0:
