osu file format v5

[General]
AudioFilename: Unlimited World.mp3
AudioLeadIn: 0
PreviewTime: -1
Countdown: 1
SampleSet: Soft
StackLeniency: 0.7
Mode: 0
LetterboxInBreaks: 1
EditorBookmarks: 32274,63153,131246,181932,231820

[Metadata]
Title:Unlimited World
Artist:KANA
Creator:blissfulyoshi
Version:Rune Knight
Source:Luminous Arc 2
Tags:

[Difficulty]
HPDrainRate:5
CircleSize:3
OverallDifficulty:4
SliderMultiplier:1.7
SliderTickRate:2

[Events]
//Background and Video events
0,0,"LA2_Roland.jpg"
//Break Periods
2,59350,61488
2,94897,100589
2,130668,130695
2,165523,171904
2,180417,182575
2,195770,196574
//Storyboard Layer 0 (Background)
//Storyboard Layer 1 (Failing)
//Storyboard Layer 2 (Passing)
//Storyboard Layer 3 (Foreground)
//Storyboard Sound Samples
//Background Colour Transformations
3,100,163,162,255

[TimingPoints]
14935,444.609114486847,4,2,0,50,1

[Colours]
Combo1 : 255,199,83
Combo2 : 255,21,56
Combo3 : 65,55,255
Combo4 : 100,224,255
Combo5 : 85,255,179

[HitObjects]
176,176,32719,5,0
248,176,32941,2,0,B|408:80|464:360,1,340,0|0
256,296,34497,2,0,B|56:288,1,170
88,216,35164,1,0
296,224,35831,1,0
424,176,36276,2,0,B|264:80,2,170
424,280,37498,1,8
320,288,37832,2,0,B|256:192|256:192|216:344,1,255,0|0
72,176,39166,5,2
72,104,39388,1,2
128,64,39610,2,0,B|224:64|224:64|144:192|336:200|336:200|336:304,1,425,0|0
48,304,41611,2,0,B|48:112,1,170,0|0
56,64,42278,1,0
264,0,42945,1,0
224,136,43389,2,0,B|32:136|424:208|104:344,1,340,0|0
88,272,44501,1,8
64,208,44723,1,8
184,288,45168,2,2,B|336:160|336:160|32:48,1,510,0|0
176,40,46946,5,8
280,40,47280,1,8
384,40,47613,2,2,B|384:328,1,255
176,320,48725,5,8
72,296,49058,1,8
88,184,49392,2,0,B|232:184|120:24|312:48,1,255,0|0
344,160,50503,6,0,B|552:128,1,170,0|0
504,200,51170,1,0
304,248,51837,1,0
272,112,52282,2,0,B|96:112,1,170,0|0
72,176,52949,2,2,B|16:304|256:248,1,255
264,112,54060,6,0,B|440:112,1,170,0|0
440,184,54727,2,0,B|304:304|232:312,1,212.5
265,304,55394,2,6,B|385:40|97:272,2,340,0|0|0
400,336,57617,6,0,B|488:176,1,170
416,200,58284,2,0,B|336:8,1,170
288,80,58951,1,0
224,112,59173,1,0
184,56,62952,6,4,B|280:56,3,85
269,55,63730,2,0,L|268:206,1,127.5,0|0
64,200,64731,6,0,B|264:200,1,170
304,200,65398,1,0
304,200,65509,2,0,L|455:201,1,127.5,0|0
264,80,66509,5,8
328,72,66731,2,0,B|424:40|464:240,1,212.5
360,160,67621,1,8
312,208,67843,2,0,B|192:344,2,170,0|0|0
240,208,68955,2,0,B|80:152|200:-8,1,255,0|0
328,24,70066,5,8
328,88,70288,1,8
328,152,70511,2,0,B|344:256|136:304,1,255,0|0
144,96,71844,6,0,B|144:200,4,85,0|0|0|0|0
176,40,72956,1,0
216,96,73178,2,2,B|440:24|440:24|200:320,1,595
312,312,75068,5,0
376,232,75401,1,0
464,136,75846,1,0
376,232,76291,1,8
272,152,76735,1,8
192,48,77180,2,0,B|24:152|80:264|296:336,1,425
320,168,78847,6,0,B|168:280,1,170
183,269,79403,2,0,B|63:349|71:141,1,212.5
160,24,80514,6,0,B|304:192|448:0|504:128,1,382.5
488,184,81737,1,0
424,216,81959,2,0,B|320:376|136:384|-24:320|40:344,1,425,0|0
72,168,83627,2,0,B|200:264,1,127.5,0|0
174,244,84071,2,2,B|286:308|286:124|239:88,1,212.5
128,64,85072,6,4,B|0:160,2,127.5
176,112,85961,2,4,B|16:240,2,170
376,48,87517,1,0
352,112,87739,2,0,B|208:216,1,170
296,320,88628,5,0
296,216,88962,2,0,B|72:216,1,212.5
56,80,89962,1,0
256,192,90407,12,0,94631
88,88,101967,6,0,B|418:164|72:352,1,425
296,320,103745,2,0,B|456:232,1,170
424,168,104412,2,0,B|240:264,1,170
296,184,105079,2,0,B|40:144|-32:264|32:272|32:272|216:336,1,510
328,296,106857,1,8
327,296,107080,1,8
304,152,108414,5,8
368,152,108636,1,8
448,88,108969,2,0,B|536:32|152:32|128:48|88:200,1,467.5
296,192,110859,2,4,B|504:192,1,170
464,256,111526,2,4,B|256:256,1,170
294,257,112193,2,0,B|166:-175|30:273,1,510
37,250,113749,2,0,B|199:334,1,170
208,264,114416,2,4,B|480:264,2,255
288,152,116194,5,8
184,152,116528,1,8
184,48,116861,2,0,B|336:48,2,127.5,0|0|0
48,48,117973,5,8
48,184,118417,1,8
120,184,118640,2,0,B|120:328,2,127.5,0|0|0
248,136,119751,6,0,B|248:344,1,170
248,307,120418,2,0,B|432:307,1,170,0|0
416,240,121085,1,0
280,224,121530,2,0,B|16:232|16:232|104:56|208:48,1,510
312,56,123308,6,0,B|496:56|496:56|496:232|344:232,1,425
368,160,124642,2,2,B|192:344|192:344|24:224|-56:216|160:40,1,680
288,40,126865,6,0,B|504:216,2,255
304,104,128421,2,2,B|72:104|72:104|-128:240|168:352|168:352|168:192|208:176,1,765
360,72,132200,6,0,B|360:184,2,85,0|0|0
288,72,132867,1,0
288,72,132978,2,2,L|287:223,1,127.5
104,104,133979,6,0,B|16:240|120:336|184:328,1,255,0|0
145,321,134757,2,2,L|281:321,1,127.5
72,280,135757,6,0,B|184:248,1,85,0|0
160,184,136202,2,0,B|320:160,1,127.5
328,256,136869,1,0
432,168,137313,2,0,B|336:168,1,85,0|0
240,176,137869,2,0,B|104:192,1,127.5,0|0
440,72,139314,6,0,B|336:72,1,85,0|0
288,72,139759,1,0
288,72,139981,2,4,L|289:223,1,127.5
488,336,141092,6,0,B|304:272|384:144,1,255
379,151,141870,1,0
272,144,142204,2,0,B|144:280,1,170
156,268,142760,1,0
280,208,144427,6,4,B|384:208,1,85
368,72,145094,1,8
232,72,145538,1,8
96,72,145983,1,8
96,208,146428,1,8
96,208,146650,2,0,B|280:208,1,170
266,207,147206,1,0
168,56,148206,6,0,B|64:56,1,85
80,128,148651,1,0
144,128,148873,2,2,L|143:303,1,170,0|0
336,224,149985,6,0,B|432:224,1,85,0|0
448,160,150429,2,0,B|280:160,1,127.5
320,56,151096,2,8,B|408:56,1,85,0|0
400,120,151541,2,8,B|280:120,1,85,0|0
208,120,152096,1,0
208,224,152430,1,0
64,80,153097,6,0,B|320:344,1,340
360,200,154431,1,0
360,96,154764,1,0
256,96,155098,1,8
256,96,155320,1,8
120,96,155764,2,0,B|24:240,1,170,0|0
128,232,156543,1,0
232,232,156876,1,0
504,24,157987,5,0
424,136,158432,2,0,B|272:256,1,170,0|0
280,112,159321,1,0
144,152,159766,2,0,B|8:152,1,127.5,0|0
88,224,160433,2,4,B|136:360|136:360|240:312,1,255,0|0
360,248,161544,6,0,B|480:176,2,127.5,0|0|0
328,184,162434,1,0
192,184,162878,1,0
264,296,163323,1,8
160,296,163656,1,8
64,336,163990,2,0,B|66:40|66:40|174:26|174:26|248:136,1,510
256,192,173104,12,0,174883
256,192,175772,5,0
360,192,176105,1,0
360,88,176439,1,4
288,88,176661,1,4
256,192,176883,12,0,178440
256,192,179329,5,0
320,192,179551,2,4,B|368:192,6,42.5,0|0|0|0|0|0|0
136,96,183775,5,8
200,96,183997,1,8
264,96,184219,1,8
328,96,184442,2,0,L|352:272,1,170
136,264,185553,5,8
200,264,185776,1,8
264,264,185998,1,8
328,264,186220,2,0,L|352:88,1,170,0|0
144,80,187332,5,8
144,144,187554,1,8
144,208,187776,1,8
144,272,187999,1,0
144,272,188110,1,0
248,280,188443,2,0,B|384:280,1,127.5
376,176,189110,1,8
272,176,189444,1,8
248,280,189777,2,0,B|64:280,1,170
40,224,190444,6,0,B|96:40,1,170
89,61,191000,1,2
328,64,191778,5,0
328,168,192111,2,0,B|424:168,1,85
416,272,192667,1,0
280,272,193112,1,0
144,272,193556,1,0
144,168,193890,1,0
240,200,194223,2,2,B|-16:96|248:40|248:40|424:32|344:168,1,510
104,80,198002,5,8
160,80,198225,2,8,B|160:176,1,85,0|0
224,168,198669,1,8
224,168,198780,2,0,L|223:319,1,127.5
336,120,199781,6,8,B|440:120,1,85,0|0
424,184,200225,2,8,B|328:184,1,85
339,185,200559,2,0,L|338:336,1,127.5
136,312,201559,5,8
136,240,201781,1,8
136,168,202004,1,8
136,96,202226,2,0,B|192:96,1,42.5
280,96,202671,1,0
280,152,202893,1,0
280,216,203115,1,0
280,280,203338,2,0,B|376:280,1,85
365,280,203671,1,0
464,280,204005,2,2,B|464:8,1,255
360,120,205116,5,2
360,184,205338,1,2
288,184,205561,1,2
216,176,205783,2,0,B|152:128|40:168,1,170
224,56,206894,5,4
304,56,207117,2,4,B|408:56,2,85
304,56,207673,1,0
304,160,208006,1,0
256,208,208228,2,0,B|200:136,1,85
203,140,208562,2,0,B|11:148|11:148|11:316|155:372,1,467.5
224,256,210229,5,0
280,216,210451,2,0,B|384:112,1,127.5,0|0
371,126,210896,2,0,B|467:182,1,85,0|0
464,232,211341,2,0,B|280:288,1,170
160,288,212230,6,0,B|104:152|216:48,1,255,0|0
210,55,213008,2,0,L|361:54,1,127.5,0|0
384,256,214008,5,2
312,240,214231,1,2
384,256,214453,1,2
312,240,214675,2,0,B|208:336|136:320,1,170
360,240,215787,5,0
288,240,216009,2,0,B|176:240,1,85
200,168,216454,2,0,B|248:168,1,42.5
344,168,216898,2,0,B|432:168,3,85
352,232,217899,2,0,B|208:336|32:336,1,297.5
64,264,218899,6,0,B|120:88,1,170
116,102,219455,2,4,B|244:190,1,127.5,0|0
312,72,220233,1,0
384,144,220566,1,0
488,120,220900,1,0
472,184,221122,2,0,B|408:288|312:272,1,170
200,272,222011,1,0
136,192,222345,1,0
144,88,222678,2,0,B|376:208,1,255
424,80,223790,5,0
424,216,224234,2,0,B|312:216,2,85,0|0|0
288,216,225123,1,0
288,80,225568,1,8
392,80,225902,1,8
392,184,226235,2,0,B|120:312,1,297.5
64,224,227347,6,0,B|-16:88,1,127.5,0|0
96,80,228013,1,0
160,72,228236,2,0,B|256:64|200:200,1,170,0|0
336,208,229125,1,8
336,312,229458,1,8
256,192,229792,12,0,231348
