osu file format v14

[General]
AudioFilename: gfg.mp3
AudioLeadIn: 0
PreviewTime: 37202
Countdown: 0
SampleSet: Soft
StackLeniency: 0.7
Mode: 0
LetterboxInBreaks: 0
WidescreenStoryboard: 1

[Editor]
DistanceSpacing: 1.2
BeatDivisor: 8
GridSize: 4
TimelineZoom: 0.8

[Metadata]
Title:APEACH SPECIAL
TitleUnicode:어피치 스페셜
Artist:KAKAO FRIENDS
ArtistUnicode:카카오 프렌즈
Creator:Natsu
Version:Normal
Source:
Tags:talk enon euny
BeatmapID:910866
BeatmapSetID:410935

[Difficulty]
HPDrainRate:4
CircleSize:3.5
OverallDifficulty:4
ApproachRate:5
SliderMultiplier:1.3
SliderTickRate:1

[Events]
//Background and Video events
Video,0,"[video]it just peach.avi"
0,0,"BG2.jpg",0,0
//Break Periods
//Storyboard Layer 0 (Background)
//Storyboard Layer 1 (Fail)
//Storyboard Layer 2 (Pass)
//Storyboard Layer 3 (Foreground)
//Storyboard Sound Samples

[TimingPoints]
0,501.043841336117,4,2,1,30,1,0
1002,-100,4,2,1,10,0,0
1503,-100,4,2,1,25,0,0
3507,-100,4,2,1,10,0,0
4008,-100,4,2,1,25,0,0
7014,545.454545454546,4,2,1,25,1,0
7559,-100,4,2,1,10,0,0
8104,521.739130434783,4,2,1,25,1,0
8625,-100,4,2,1,10,0,0
9147,501.043841336117,4,2,1,25,1,0
9272,-100,4,2,1,10,0,0
13403,501.043841336117,4,2,2,25,1,0
13904,-100,4,2,2,30,0,0
19415,-100,4,2,3,25,0,0
20417,-100,4,2,3,35,0,0
20542,-100,4,2,3,10,0,0
21419,-100,4,2,2,40,0,0
28935,-100,4,2,3,40,0,0
29436,-100,4,2,2,40,0,0
45845,501.043841336117,4,2,3,35,1,0
46346,-100,4,2,2,40,0,0
46847,-100,4,2,3,40,0,0
47849,-100,4,2,1,40,0,0
53360,501.043841336117,4,2,3,40,1,0
53611,-100,4,2,2,40,0,0
56867,501.043841336117,4,2,2,40,1,0
64133,-100,4,2,3,25,0,0
64508,-100,4,2,3,10,0,0
65510,501.043841336117,4,2,2,40,1,0

[Colours]
Combo1 : 202,202,202
Combo2 : 255,128,255
Combo3 : 0,68,136

[HitObjects]
256,128,0,5,2,0:0:0:0:
305,276,501,2,0,P|365:295|424:272,1,130,2|0,0:0|0:0,0:0:0:0:
497,132,1503,2,0,L|497:64,1,65,2|2,0:0|0:0,0:0:0:0:
442,10,2004,1,2,0:0:0:0:
328,117,2505,2,0,B|204:169|204:77|74:123,1,260,2|0,0:0|0:0,0:0:0:0:
32,272,4008,5,6,0:0:0:0:
152,370,4509,1,2,0:0:0:0:
178,215,5010,2,0,P|266:180|354:216,2,195,2|2|2,0:0|0:0|0:0,0:0:0:0:
43,263,7014,2,0,L|43:132,1,130,6|0,0:0|0:0,0:0:0:0:
176,39,8104,2,0,P|236:58|298:41,1,130,6|0,0:0|0:0,0:0:0:0:
461,44,9147,6,0,B|503:121|440:193|440:193|511:278|429:384|277:357|300:214,1,520,6|0,0:0|0:0,0:0:0:0:
79,174,13403,6,0,P|139:194|200:175,1,130,4|2,0:0|0:0,0:0:0:0:
306,59,14405,2,0,P|337:51|368:59,2,65,10|8|8,0:0|0:0|0:0,0:0:0:0:
337,130,15156,1,2,0:0:0:0:
396,180,15407,2,0,P|413:241|394:302,1,130,2|2,0:0|0:0,0:0:0:0:
247,356,16409,2,0,P|215:363|184:355,2,65,10|8|8,0:0|0:0|0:0,0:0:0:0:
216,285,17160,1,8,0:0:0:0:
157,235,17411,6,0,P|139:173|158:112,1,130,2|2,0:0|0:0,0:0:0:0:
297,41,18413,2,0,L|371:40,2,65,10|8|8,0:0|0:0|0:0,0:0:0:0:
326,194,19415,2,0,P|336:224|331:256,1,65,2|2,0:0|0:0,0:0:0:0:
313,332,19916,2,0,L|377:332,1,65,2|2,0:0|0:0,0:0:0:0:
456,331,20417,2,0,P|479:272|464:209,1,130,6|0,0:0|0:0,0:0:0:0:
309,192,21419,6,0,L|245:191,1,65,10|10,0:0|0:0,0:0:0:0:
243,269,21920,2,0,L|171:269,1,65,8|10,0:0|0:0,0:0:0:0:
169,346,22421,2,0,L|97:346,2,65,2|2|2,0:0|0:0|0:0,0:0:0:0:
324,348,23423,2,0,L|388:348,2,65,2|0|2,0:0|0:0|0:0,0:0:0:0:
350,274,24175,2,0,L|414:274,2,65,0|2|2,0:0|0:0|0:0,0:0:0:0:
216,193,25177,1,2,0:0:0:0:
216,193,25428,6,0,P|209:162|216:130,1,65,2|0,0:0|0:0,0:0:0:0:
275,79,25929,2,0,P|304:85|347:75,1,65,2|0,0:0|0:0,0:0:0:0:
416,71,26430,2,0,L|416:-4,2,65,2|0|2,0:0|0:0|0:0,0:0:0:0:
449,223,27432,2,0,P|479:231|511:224,2,65,2|0|2,0:0|0:0|0:0,0:0:0:0:
377,192,28183,2,0,L|304:192,1,65,0|2,0:0|0:0,0:0:0:0:
166,134,28935,1,2,0:0:0:0:
36,222,29436,6,0,P|30:253|35:285,1,65,10|10,0:0|0:0,0:0:0:0:
75,352,29937,2,0,L|157:352,1,65,10|10,0:0|0:0,0:0:0:0:
182,286,30438,2,0,P|187:254|180:222,1,65,2|2,0:0|0:0,0:0:0:0:
113,81,31190,1,8,0:0:0:0:
113,81,31440,2,0,L|190:59,1,65,10|8,0:0|0:0,0:0:0:0:
181,141,31941,2,0,L|269:149,1,65,10|8,0:0|0:0,0:0:0:0:
231,223,32442,2,0,L|290:249,1,65,2|6,0:0|0:0,0:0:0:0:
445,270,33194,5,2,0:0:0:0:
445,270,33444,2,0,P|451:238|445:206,1,65,10|8,0:0|0:0,0:0:0:0:
380,163,33945,2,0,P|373:131|379:99,1,65,10|8,0:0|0:0,0:0:0:0:
350,26,34446,2,0,L|283:26,1,65,2|2,0:0|0:0,0:0:0:0:
143,92,35198,1,0,0:0:0:0:
143,92,35448,2,0,P|136:123|140:155,1,65,2|0,0:0|0:0,0:0:0:0:
204,200,35949,2,0,P|210:231|206:263,1,65,2|0,0:0|0:0,0:0:0:0:
162,328,36451,1,2,0:0:0:0:
32,43,37453,6,0,L|102:36,1,65,2|0,0:0|0:0,0:0:0:0:
168,68,37954,2,0,P|174:99|171:131,1,65,2|0,0:0|0:0,0:0:0:0:
134,200,38455,2,0,L|69:206,2,65,2|0|2,0:0|0:0|0:0,0:0:0:0:
257,295,39457,2,0,L|321:288,1,65,2|0,0:0|0:0,0:0:0:0:
380,237,39958,2,0,P|370:206|377:175,1,65,2|0,0:0|0:0,0:0:0:0:
423,111,40459,2,0,L|487:104,2,65,10|8|10,0:0|0:0|0:0,0:0:0:0:
284,39,41461,6,0,L|219:45,1,65,2|0,0:0|0:0,0:0:0:0:
170,106,41962,2,0,P|179:136|175:168,1,65,2|0,0:0|0:0,0:0:0:0:
120,224,42463,2,0,P|110:254|114:286,2,65,2|0|2,0:0|0:0|0:0,0:0:0:0:
271,259,43465,2,0,L|335:252,1,65,6|0,0:0|0:0,0:0:0:0:
385,192,43966,2,0,P|375:161|379:129,1,65,2|0,0:0|0:0,0:0:0:0:
435,74,44467,2,0,P|444:43|440:11,2,65,2|0|14,0:0|0:0|0:0,0:0:0:0:
184,183,45845,6,0,P|124:205|63:185,1,130,6|2,0:0|0:0,0:0:0:0:
127,42,46847,1,2,0:0:0:0:
281,61,47348,1,2,0:0:0:0:
188,184,47849,2,0,L|188:257,1,65,10|10,0:0|0:0,0:0:0:0:
225,317,48350,2,0,P|256:311|288:316,1,65,10|10,0:0|0:0,0:0:0:0:
354,358,48851,2,0,P|385:363|417:356,2,65,10|10|4,0:0|0:0|0:0,0:0:0:0:
327,203,49853,5,14,0:0:0:0:
257,63,50354,1,14,0:0:0:0:
170,192,50855,2,0,L|108:212,2,65,10|8|12,0:0|0:0|0:0,0:0:0:0:
327,203,51857,2,0,L|389:183,1,65,14|8,0:0|0:0,0:0:0:0:
463,158,52358,2,0,P|468:127|463:95,1,65,14|8,0:0|0:0,0:0:0:0:
421,29,52859,1,14,0:0:0:0:
283,103,53360,2,0,L|216:104,1,65,6|0,0:0|0:0,0:0:0:0:
152,64,53861,6,0,P|120:57|88:65,2,65,10|8|8,0:0|0:0|0:0,0:0:0:0:
124,136,54613,1,10,0:0:0:0:
188,180,54863,2,0,P|182:211|189:242,2,65,8|10|8,0:0|0:0|0:0,0:0:0:0:
336,132,55865,2,0,P|342:100|335:69,2,65,10|10|10,0:0|0:0|0:0,0:0:0:0:
188,180,56867,5,14,0:0:0:0:
224,26,57369,1,10,0:0:0:0:
341,129,57869,1,10,0:0:0:0:
291,188,58120,2,0,P|351:205|405:172,1,130,10|8,0:0|0:0,0:0:0:0:
466,123,58872,2,0,L|466:261,1,130,2|2,0:0|0:0,0:0:0:0:
341,346,59874,2,0,P|278:332|215:345,1,130,10|2,0:0|0:0,0:0:0:0:
61,369,60876,5,2,0:0:0:0:
116,223,61377,1,2,0:0:0:0:
215,345,61878,1,10,0:0:0:0:
215,345,62128,2,0,P|274:362|339:343,1,130,10|2,0:0|0:0,0:0:0:0:
378,276,62880,2,0,P|355:216|389:157,2,130,2|2|2,0:0|0:0|0:0,0:0:0:0:
435,222,64133,1,2,0:0:0:0:
460,146,64383,2,0,P|426:93|363:85,1,130,2|0,0:0|0:0,0:0:0:0:
196,190,65510,6,0,L|184:256,2,65,10|8|12,0:0|0:0|0:0,0:0:0:0:
