osu file format v14

[General]
AudioFilename: K.Will - Tell Me! What Are You Doing_ (OST DOTS Part. 6).mp3
AudioLeadIn: 0
PreviewTime: 54635
Countdown: 0
SampleSet: Soft
StackLeniency: 0.3
Mode: 0
LetterboxInBreaks: 0
WidescreenStoryboard: 1

[Editor]
Bookmarks: 19047,75518,115518,193164
DistanceSpacing: 1.1
BeatDivisor: 4
GridSize: 8
TimelineZoom: 1.2

[Metadata]
Title:Talk Love! What Are You Doing?
TitleUnicode:말해! 뭐해?
Artist:K.Will
ArtistUnicode:케이윌
Creator:arnoldusj
Version:Normal
Source:태양의 후예
Tags:kdrama descendants of the sun kbs2 song joong ki song hye kyo yoo si jin kang mo yeon starship entertainment kpop korean drama kim eun sook
BeatmapID:963712
BeatmapSetID:449105

[Difficulty]
HPDrainRate:1.5
CircleSize:4
OverallDifficulty:3
ApproachRate:2
SliderMultiplier:1.3
SliderTickRate:1

[Events]
//Background and Video events
0,0,"Bg drama.png",0,0
Video,0,"video.avi"
//Break Periods
2,153165,160812
//Storyboard Layer 0 (Background)
//Storyboard Layer 1 (Fail)
//Storyboard Layer 2 (Pass)
//Storyboard Layer 3 (Foreground)
//Storyboard Sound Samples

[TimingPoints]
224,588.235294117647,4,2,0,85,1,0
19047,-100,4,2,0,85,0,0
56694,-90.9090909090909,4,2,0,85,0,1
94341,-100,4,2,0,85,0,0
96694,-100,4,2,0,85,0,0
113165,-142.857142857143,4,2,0,85,0,0
115518,-100,4,2,0,85,0,0
134341,-76.9230769230769,4,2,0,85,0,1
153165,-125,4,2,0,85,0,0
171106,1176.47058823529,4,2,0,85,1,0
171106,-83.3333333333333,4,2,0,85,0,0
173753,1176.47058823529,4,2,0,85,1,0
174341,588.235294117647,4,2,0,85,1,0
174341,-76.9230769230769,4,2,0,85,0,1
211988,-142.857142857143,4,2,0,85,0,0

[Colours]
Combo1 : 0,128,0
Combo2 : 0,0,255
Combo3 : 0,0,255
Combo4 : 0,255,0

[HitObjects]
96,296,19047,6,0,P|136:312|216:280,1,130
160,216,19929,2,0,P|216:184|280:224,1,130
336,264,20812,1,0,0:0:0:0:
336,264,21400,6,0,P|360:208|328:136,2,130
264,312,22871,2,0,L|120:304,1,130
64,216,23753,38,0,B|72:176|72:176|48:144|64:80,1,130
144,88,24635,2,0,B|144:128|144:128|176:160|160:216,1,130
160,296,25518,1,0,0:0:0:0:
312,344,26106,6,0,P|352:344|416:272,1,130
328,264,26988,2,0,P|288:256|224:328,1,130
160,360,27871,1,0,0:0:0:0:
160,360,28459,38,0,L|160:224,1,130
224,176,29341,2,0,P|272:192|336:136,1,130
384,80,30223,1,0,0:0:0:0:
264,112,30812,6,0,L|296:248,1,130
248,312,31694,2,0,P|208:336|120:296,1,130
72,248,32576,1,0,0:0:0:0:
160,88,33165,38,0,B|200:80|224:96|224:96|264:120|304:96,1,130
336,176,34047,2,0,B|336:232|336:232|344:248|344:248|344:312,1,130
272,352,34929,2,0,P|240:344|192:352,1,65
168,384,35518,6,0,L|184:240,1,130
144,176,36400,1,0,0:0:0:0:
176,96,36694,2,0,P|208:88|248:104,1,65
288,168,37282,2,0,P|320:176|352:168,1,65
384,112,37871,38,0,L|392:264,1,130
344,312,38753,2,0,P|304:336|216:304,1,130
176,256,39635,1,0,0:0:0:0:
80,160,40223,6,0,P|96:112|48:32,1,130
24,112,41106,2,0,L|160:88,1,130
224,48,41988,2,0,P|264:40|304:48,1,65
416,192,42576,38,0,B|368:192|368:192|344:200|344:200|256:200,1,130
216,240,43459,2,0,P|136:272|88:256,1,130
48,192,44341,1,0,0:0:0:0:
256,48,44929,6,0,P|272:112|240:176,1,130
200,240,45812,2,0,P|184:304|216:368,1,130
272,304,46694,2,0,P|280:272|280:240,1,65
368,168,47282,38,0,L|232:160,1,130
200,88,48165,2,0,L|48:88,1,130
32,160,49047,2,0,P|24:200|32:224,1,65
144,312,49635,6,0,P|200:296|248:352,1,130
328,320,50518,2,0,L|344:184,1,130
352,104,51400,1,0,0:0:0:0:
160,80,51988,38,0,B|152:112|152:112|192:160|160:216,1,130
248,232,52871,2,0,P|258:286|210:366,1,130
128,296,53753,6,0,B|80:280|80:280|136:280|168:256,1,130
344,208,56694,6,0,B|400:200|400:200|336:192|304:152,1,143.000004364014
216,168,57576,2,0,B|200:191|136:199|136:199|192:207,1,143.000004364014
256,288,58459,1,0,0:0:0:0:
400,200,59047,6,0,B|416:160|416:160|368:144|360:88,2,107.25000327301
336,288,60223,2,0,B|296:280|256:288|256:288|240:320|192:336,1,143.000004364014
120,272,61106,1,0,0:0:0:0:
136,200,61400,38,0,P|176:224|248:160,1,143.000004364014
168,128,62282,2,0,P|128:120|72:216,1,143.000004364014
160,200,63165,2,0,P|216:208|240:200,1,71.5000021820069
256,248,63753,6,0,L|272:136,2,107.25000327301
312,336,64929,2,0,B|352:312|352:312|392:312|448:280,1,143.000004364014
368,184,66106,38,0,B|320:208|320:208|288:240|224:256,1,143.000004364014
152,200,66988,2,0,B|200:176|208:128|208:128|256:160,1,143.000004364014
328,88,67871,2,0,P|368:104|408:104,1,71.5000021820069
304,40,68459,6,0,P|240:32|192:64,2,107.25000327301
376,120,69635,2,0,L|360:280,1,143.000004364014
248,336,70812,38,0,B|208:328|176:352|176:352|200:304|176:264,1,143.000004364014
96,296,71694,2,0,B|104:248|104:248|72:208|88:144,1,143.000004364014
176,184,72576,2,0,L|184:96,1,71.5000021820069
160,56,73165,6,0,P|240:80|296:48,1,143.000004364014
384,40,74047,1,0,0:0:0:0:
448,104,74341,2,0,P|448:144|432:184,1,71.5000021820069
376,240,74929,2,0,P|336:264|304:264,1,71.5000021820069
168,248,75518,37,0,0:0:0:0:
168,248,76106,2,0,B|136:216|144:168|144:168|200:200|280:176|280:176|312:208|352:200,1,286.000008728028
432,256,77871,6,0,B|416:304|416:304|328:312,2,107.25000327301
392,176,79047,2,0,B|408:144|408:144|392:88,1,71.5000021820069
336,40,79635,2,0,L|240:40,1,71.5000021820069
120,112,80223,38,0,B|104:144|128:176|128:176|96:208|120:248,1,143.000004364014
208,280,81106,2,0,B|229:244|197:212|197:212|221:180|205:148,1,143.000004364014
208,56,81988,2,0,P|248:64|296:56,1,71.5000021820069
320,8,82576,6,0,L|328:168,1,143.000004364014
432,320,83753,2,0,L|416:176,1,143.000004364014
280,184,84929,37,0,0:0:0:0:
280,184,85518,2,0,B|216:216|216:216|152:128|152:128|272:152,1,286.000008728028
432,112,87282,6,0,B|448:72|448:72|432:8,2,107.25000327301
448,208,88459,2,0,P|448:264|368:320,1,143.000004364014
304,200,89635,38,0,P|256:192|184:272,1,143.000004364014
272,280,90518,2,0,P|320:288|384:208,1,143.000004364014
384,136,91400,1,0,0:0:0:0:
336,56,91694,1,0,0:0:0:0:
264,104,91988,6,0,B|216:120|176:72|176:72|224:72,1,143.000004364014
304,32,92871,1,0,0:0:0:0:
312,128,93165,2,0,P|312:160|328:208,1,71.5000021820069
392,256,93753,2,0,P|400:304|384:344,1,71.5000021820069
256,192,94341,12,0,96694,0:0:0:0:
320,224,97282,6,0,P|336:168|304:104,1,130
280,24,98165,1,0,0:0:0:0:
192,24,98459,1,0,0:0:0:0:
112,96,98753,6,0,P|96:136|128:224,1,130
176,152,99635,2,0,L|312:144,1,130
368,208,100518,2,0,L|360:280,2,65
368,96,101400,38,0,B|320:112|320:112|264:96|256:48,1,130
192,112,102282,2,0,B|144:104|144:104|128:144|128:184,1,130
160,264,103165,1,0,0:0:0:0:
320,328,103753,6,0,L|432:320,2,97.5
248,280,104929,2,0,P|208:280|112:328,1,130
56,368,105812,1,0,0:0:0:0:
126,314,106106,38,0,P|134:258|118:162,1,130
184,128,106988,2,0,P|224:176|304:192,1,130
368,200,107871,1,0,0:0:0:0:
448,248,108459,6,0,L|440:368,2,97.5
472,168,109635,2,0,P|480:120|440:32,1,130
280,48,110812,38,0,B|232:48|232:48|192:72|128:64,1,130
80,104,111694,2,0,P|56:184|80:248,1,130
112,296,112576,1,0,0:0:0:0:
160,184,113165,22,0,B|216:216|280:168|280:168|304:184|304:184|368:152|424:192,1,272.999991668701
440,288,115518,22,0,B|384:288|336:264|336:264|360:240,1,130
320,168,116400,2,0,B|272:184|272:184|256:232|240:272,1,130
200,328,117282,1,0,0:0:0:0:
128,264,117871,6,0,B|136:184|136:184|104:216,2,97.5
192,320,119047,2,0,P|240:320|328:296,1,130
392,264,119929,1,0,0:0:0:0:
328,184,120223,38,0,P|272:192|176:160,1,130
256,112,121106,2,0,P|328:104|408:136,1,130
448,176,121988,2,0,P|448:200|432:240,1,65
344,304,122576,6,0,L|248:288,2,97.5
408,248,123753,2,0,B|424:200|424:200|352:224|344:208,1,130
256,216,124929,38,0,P|200:224|120:176,1,130
88,120,125812,2,0,B|120:72|128:48|128:48|144:104,1,130
224,96,126694,1,0,0:0:0:0:
328,64,127282,6,0,P|376:64|440:48,2,97.5
288,136,128459,2,0,P|296:176|280:272,1,130
240,336,129341,1,0,0:0:0:0:
283,263,129635,38,0,P|347:271|419:247,1,130
432,176,130518,2,0,B|448:128|424:88|424:88|376:96,1,130
296,56,131400,6,0,B|240:56|240:56|248:104|264:136,1,130
200,296,134341,6,0,L|192:120,1,168.999992263794
128,72,135223,2,0,P|192:40|272:96,1,168.999992263794
328,144,136106,1,0,0:0:0:0:
416,200,136694,6,0,B|440:256|440:256|408:344,2,126.749994197846
368,136,137871,2,0,B|288:168|288:168|192:128,1,168.999992263794
144,88,138753,1,0,0:0:0:0:
96,160,139047,38,0,P|64:240|152:296,1,168.999992263794
184,344,139929,2,0,P|200:248|112:232,1,168.999992263794
96,160,140812,2,0,P|104:136|88:64,1,84.4999961318971
96,160,141400,6,0,L|224:144,2,126.749994197846
144,232,142576,2,0,L|328:208,1,168.999992263794
408,248,143753,38,0,B|424:216|416:176|416:176|368:136|376:64,1,168.999992263794
328,24,144635,2,0,B|280:56|280:56|224:72|152:16,1,168.999992263794
120,96,145518,2,0,L|136:184,1,84.4999961318971
96,224,146106,6,0,P|160:200|240:248,2,126.749994197846
160,280,147282,2,0,P|248:296|304:240,1,168.999992263794
384,168,148459,38,0,B|432:184|480:136|480:136|448:48,1,168.999992263794
376,88,149341,2,0,B|320:80|320:80|248:128|312:208,1,168.999992263794
352,232,150223,2,0,P|376:248|432:256,1,84.4999961318971
352,232,150812,6,0,P|288:256|160:232,1,168.999992263794
112,208,151694,1,0,0:0:0:0:
136,128,151988,2,0,P|176:136|232:120,1,84.4999961318971
264,56,152576,2,0,P|320:48|360:64,1,84.4999961318971
144,248,162576,6,0,P|152:288|136:336,2,78
112,184,163753,2,0,P|104:144|120:80,1,104
184,48,164635,1,0,0:0:0:0:
256,56,164929,6,0,P|304:64|344:56,2,78
208,112,166106,2,0,L|224:232,1,104
256,280,166988,1,0,0:0:0:0:
416,264,167282,6,0,L|416:160,1,104
360,112,168165,2,0,P|320:128|256:112,1,104
200,72,169047,2,0,P|160:56|136:56,1,52
112,120,169635,6,0,L|120:184,2,52
151,55,170518,2,0,P|191:55|223:63,1,52
312,88,171106,6,0,B|400:120|416:216|416:216|328:256|240:184,1,350.99998928833
200,88,174341,22,0,L|192:256,1,168.999992263794
128,312,175223,2,0,P|202:343|268:296,1,168.999992263794
328,240,176106,1,0,0:0:0:0:
416,184,176694,6,0,B|440:128|440:128|417:66,2,126.749994197846
368,248,177871,2,0,B|288:216|288:216|211:247,1,168.999992263794
144,296,178753,1,0,0:0:0:0:
95,223,179047,38,0,P|62:151|114:89,1,168.999992263794
184,40,179929,2,0,P|211:114|148:162,1,168.999992263794
95,223,180812,2,0,P|105:264|96:305,1,84.4999961318971
96,224,181400,6,0,L|221:239,2,126.749994197846
144,152,182576,2,0,L|311:173,1,168.999992263794
408,137,183753,38,0,B|424:168|416:208|416:208|368:248|375:290,1,168.999992263794
326,359,184635,2,0,B|280:328|280:328|224:312|174:351,1,168.999992263794
120,288,185518,2,0,L|135:204,1,84.4999961318971
95,159,186106,6,0,P|153:183|213:166,2,126.749994197846
160,103,187282,2,0,P|239:85|301:138,1,168.999992263794
384,216,188459,38,0,B|432:200|480:248|480:248|458:306,1,168.999992263794
369,296,189341,2,0,B|320:304|320:304|248:256|291:207,1,168.999992263794
352,151,190223,2,0,P|388:131|430:127,1,84.4999961318971
351,151,190812,6,0,P|272:125|189:137,1,168.999992263794
112,176,191694,1,0,0:0:0:0:
135,256,191988,2,0,P|177:248|218:256,1,84.4999961318971
263,327,192576,2,0,P|304:337|345:328,1,84.4999961318971
408,192,193164,37,0,0:0:0:0:
408,192,193752,2,0,B|432:128|384:72|384:72|352:144|352:144|312:96|224:128,1,337.999984527589
80,176,195517,6,0,P|96:136|64:56,2,126.749994197846
48,256,196693,2,0,L|144:240,1,84.4999961318971
208,200,197282,2,0,L|296:216,1,84.4999961318971
408,312,197870,38,0,B|432:232|432:232|400:136,1,168.999992263794
320,152,198752,2,0,B|292:233|292:233|316:313,1,168.999992263794
232,312,199635,2,0,L|200:232,1,84.4999961318971
80,152,200223,6,0,B|96:112|128:112|128:112|136:88|136:88|160:96|160:96|200:96|232:56,1,168.999992263794
296,80,201399,2,0,B|303:96|343:96|343:96|367:88|367:88|375:112|375:112|407:112|423:152,1,168.999992263794
344,272,202576,37,0,0:0:0:0:
344,272,203164,2,0,B|296:248|264:296|264:296|240:240|184:256|184:256|160:192|56:240,1,337.999984527589
32,136,204929,6,0,P|16:96|32:16,2,126.749994197846
104,80,206105,2,0,L|280:72,1,168.999992263794
352,136,207282,38,0,B|312:192|352:240|352:240|344:304,1,168.999992263794
256,264,208164,2,0,B|256:216|192:192|192:192|160:240|144:272,1,168.999992263794
72,296,209046,1,0,0:0:0:0:
64,200,209341,1,0,0:0:0:0:
104,112,209635,6,0,P|160:128|240:56,1,168.999992263794
328,32,210517,1,0,0:0:0:0:
400,88,210811,2,0,P|408:136|392:176,1,84.4999961318971
312,208,211399,2,0,P|280:224|224:216,1,84.4999961318971
144,152,211988,5,0,0:0:0:0:
