osu file format v14

[General]
AudioFilename: AkariAkariAkariAkariAkariAkariAkariAkari-Akkariiin.mp3
AudioLeadIn: 0
PreviewTime: -1
Countdown: 1
SampleSet: None
StackLeniency: 0.7
Mode: 0
LetterboxInBreaks: 1
WidescreenStoryboard: 1

[Editor]
DistanceSpacing: 2
BeatDivisor: 4
GridSize: 4
TimelineZoom: 2

[Metadata]
Title:Akariakariakariakariakariakariakariakari Akkari~n
TitleUnicode:あかりアカリあカリアかりアカりアかリあかリあカり\アッカリ~ン/
Artist:K-san
ArtistUnicode:Kさん
Creator:Gender
Version:aim god
Source:
Tags:
BeatmapID:1279681
BeatmapSetID:605697

[Difficulty]
HPDrainRate:6
CircleSize:6.5
OverallDifficulty:7.5
ApproachRate:9.7
SliderMultiplier:1.4
SliderTickRate:1

[Events]
//Background and Video events
//Break Periods
//Storyboard Layer 0 (Background)
//Storyboard Layer 1 (Fail)
//Storyboard Layer 2 (Pass)
//Storyboard Layer 3 (Foreground)
//Storyboard Sound Samples

[TimingPoints]
2321,476.190476190476,4,1,0,80,1,0
2321,-50,4,1,0,80,0,0
17559,-100,4,1,0,80,0,1
30892,-50,4,1,0,80,0,1
32797,-50,4,1,0,80,0,0

[HitObjects]
244,80,2321,6,0,P|304:76|384:136,1,140
256,204,2797,1,0,0:0:0:0:
112,172,3035,2,0,P|116:244|204:316,1,140
224,200,3511,2,0,L|396:128,1,140
172,88,3987,1,0,0:0:0:0:
292,104,4225,2,0,L|216:272,1,140
140,144,4701,2,0,L|244:28,1,140
328,120,5178,1,0,0:0:0:0:
234,231,5416,1,0,0:0:0:0:
388,208,5654,2,0,P|380:288|328:336,1,140
168,24,6130,6,0,L|316:84,1,140
212,120,6606,2,0,L|324:232,1,140
200,220,7082,2,0,L|236:372,1,140
324,276,7559,6,0,P|396:212|420:152,1,140
280,144,8035,2,0,P|196:136|96:176,1,140
240,288,8511,1,0,0:0:0:0:
144,64,8749,1,0,0:0:0:0:
184,224,8987,2,0,L|248:156,1,70
152,140,9225,2,0,L|96:184,1,70
0,144,9463,2,0,P|0:228|64:300,1,140
224,180,9940,6,0,B|300:224|300:224|276:332,1,140
120,212,10416,1,0,0:0:0:0:
260,104,10654,1,0,0:0:0:0:
260,280,10892,2,0,L|332:244,1,70
304,140,11130,2,0,L|384:160,1,70
444,240,11368,2,0,P|480:160|448:88,1,140
316,52,11844,6,0,L|204:184,1,140
164,304,12320,2,0,P|112:280|84:192,1,140
112,112,12797,1,0,0:0:0:0:
164,48,12916,1,0,0:0:0:0:
248,48,13035,1,0,0:0:0:0:
292,120,13154,1,0,0:0:0:0:
292,204,13273,2,0,L|196:328,1,140
60,184,13749,6,0,L|108:248,1,70
160,152,13987,2,0,L|88:76,2,70
316,76,14701,6,0,L|352:144,1,70
268,236,14940,2,0,L|224:136,1,70
216,8,15178,2,0,B|148:48|148:48|96:152,1,140
304,184,15654,6,0,P|268:260|212:292,1,140
152,136,16130,2,0,L|136:208,1,70
212,300,16368,2,0,L|252:216,1,70
312,144,16606,2,0,P|356:188|360:276,1,140
444,124,17082,2,0,P|400:80|396:-8,1,140
256,32,17559,5,0,0:0:0:0:
84,352,17678,1,0,0:0:0:0:
396,40,17797,1,0,0:0:0:0:
200,348,17916,5,0,0:0:0:0:
144,24,18035,1,0,0:0:0:0:
312,360,18154,1,0,0:0:0:0:
76,300,18273,5,0,0:0:0:0:
264,8,18392,1,0,0:0:0:0:
320,328,18511,1,0,0:0:0:0:
92,92,18630,1,0,0:0:0:0:
460,192,18749,1,0,0:0:0:0:
72,336,18868,1,0,0:0:0:0:
168,28,18987,5,0,0:0:0:0:
436,88,19106,1,0,0:0:0:0:
336,360,19225,1,0,0:0:0:0:
80,260,19344,1,0,0:0:0:0:
224,4,19463,1,0,0:0:0:0:
492,132,19582,1,0,0:0:0:0:
280,384,19701,1,0,0:0:0:0:
152,32,19820,5,0,0:0:0:0:
232,364,19940,1,0,0:0:0:0:
104,8,20059,1,0,0:0:0:0:
188,384,20178,1,0,0:0:0:0:
44,0,20297,1,0,0:0:0:0:
40,160,20416,6,0,P|72:188|116:200,1,70
152,96,20892,2,0,P|184:80|264:92,1,105
80,308,21368,5,0,0:0:0:0:
384,36,21487,1,0,0:0:0:0:
136,364,21606,1,0,0:0:0:0:
288,8,21725,1,0,0:0:0:0:
224,384,21844,1,0,0:0:0:0:
192,28,21963,1,0,0:0:0:0:
312,360,22082,1,0,0:0:0:0:
124,92,22201,5,0,0:0:0:0:
456,188,22320,1,0,0:0:0:0:
156,152,22440,1,0,0:0:0:0:
480,244,22559,1,0,0:0:0:0:
188,212,22678,1,0,0:0:0:0:
512,300,22797,1,0,0:0:0:0:
280,68,22916,5,0,0:0:0:0:
84,324,23035,1,0,0:0:0:0:
388,60,23154,1,0,0:0:0:0:
244,272,23273,5,0,0:0:0:0:
40,32,23392,1,0,0:0:0:0:
136,364,23511,1,0,0:0:0:0:
88,80,23630,5,0,0:0:0:0:
100,336,23749,1,0,0:0:0:0:
392,312,23868,1,0,0:0:0:0:
380,28,23987,1,0,0:0:0:0:
248,344,24106,1,0,0:0:0:0:
344,252,24225,6,0,P|308:200|280:192,1,70
192,260,24701,2,0,P|168:192|180:144,1,105
320,52,25178,5,0,0:0:0:0:
436,296,25297,1,0,0:0:0:0:
104,360,25416,1,0,0:0:0:0:
208,40,25535,5,0,0:0:0:0:
112,236,25654,1,0,0:0:0:0:
312,376,25773,1,0,0:0:0:0:
424,44,25892,5,0,0:0:0:0:
256,192,26011,1,0,0:0:0:0:
72,324,26130,1,0,0:0:0:0:
72,36,26249,5,0,0:0:0:0:
256,192,26368,1,0,0:0:0:0:
432,316,26487,1,0,0:0:0:0:
144,36,26606,5,0,0:0:0:0:
244,348,26725,1,0,0:0:0:0:
212,16,26844,1,0,0:0:0:0:
304,316,26963,1,0,0:0:0:0:
276,24,27082,1,0,0:0:0:0:
344,276,27201,1,0,0:0:0:0:
324,60,27320,1,0,0:0:0:0:
364,224,27440,1,0,0:0:0:0:
440,16,27559,5,0,0:0:0:0:
0,148,27678,1,0,0:0:0:0:
476,96,27797,1,0,0:0:0:0:
32,224,27916,1,0,0:0:0:0:
144,260,28035,2,0,L|196:224,1,35
224,160,28273,2,0,L|260:204,1,35
272,304,28511,2,0,P|332:292|352:268,1,70
336,16,28987,5,0,0:0:0:0:
48,380,29106,1,0,0:0:0:0:
496,264,29225,1,0,0:0:0:0:
48,16,29344,1,0,0:0:0:0:
340,368,29463,1,0,0:0:0:0:
40,120,29582,1,0,0:0:0:0:
468,40,29701,1,0,0:0:0:0:
20,208,29820,1,0,0:0:0:0:
512,112,29940,1,0,0:0:0:0:
88,340,30059,1,0,0:0:0:0:
416,16,30178,1,0,0:0:0:0:
152,372,30297,1,0,0:0:0:0:
340,0,30416,1,0,0:0:0:0:
388,372,30535,1,0,0:0:0:0:
184,40,30654,1,0,0:0:0:0:
280,352,30773,1,0,0:0:0:0:
304,184,30892,6,0,P|360:224|384:300,1,140
152,252,31368,2,0,P|120:176|156:128,1,140
432,24,31844,1,0,0:0:0:0:
248,244,31963,1,0,0:0:0:0:
424,208,32082,1,0,0:0:0:0:
264,40,32201,1,0,0:0:0:0:
352,268,32320,1,0,0:0:0:0:
268,304,32797,6,0,P|208:308|128:248,1,140
256,180,33273,1,0,0:0:0:0:
400,212,33511,2,0,P|396:140|308:68,1,140
288,184,33987,2,0,L|116:256,1,140
340,296,34463,1,0,0:0:0:0:
220,280,34701,2,0,L|296:112,1,140
372,240,35177,2,0,L|268:356,1,140
184,264,35654,1,0,0:0:0:0:
278,153,35892,1,0,0:0:0:0:
124,176,36130,2,0,P|132:96|184:48,1,140
344,360,36606,6,0,L|196:300,1,140
300,264,37082,2,0,L|188:152,1,140
312,164,37558,2,0,L|276:12,1,140
188,108,38035,6,0,P|116:172|92:232,1,140
232,240,38511,2,0,P|316:248|416:208,1,140
272,96,38987,1,0,0:0:0:0:
368,320,39225,1,0,0:0:0:0:
328,160,39463,2,0,L|264:228,1,70
360,244,39701,2,0,L|416:200,1,70
512,240,39939,2,0,P|512:156|448:84,1,140
288,204,40416,6,0,B|212:160|212:160|236:52,1,140
392,172,40892,1,0,0:0:0:0:
252,280,41130,1,0,0:0:0:0:
252,104,41368,2,0,L|180:140,1,70
208,244,41606,2,0,L|128:224,1,70
68,144,41844,2,0,P|32:224|64:296,1,140
196,332,42320,6,0,L|308:200,1,140
348,80,42796,2,0,P|400:104|428:192,1,140
400,272,43273,1,0,0:0:0:0:
348,336,43392,1,0,0:0:0:0:
264,336,43511,1,0,0:0:0:0:
220,264,43630,1,0,0:0:0:0:
220,180,43749,2,0,L|316:56,1,140
452,200,44225,6,0,L|404:136,1,70
352,232,44463,2,0,L|424:308,2,70
196,308,45177,6,0,L|160:240,1,70
244,148,45416,2,0,L|288:248,1,70
296,376,45654,2,0,B|364:336|364:336|416:232,1,140
208,200,46130,6,0,P|244:124|300:92,1,140
360,248,46606,2,0,L|376:176,1,70
300,84,46844,2,0,L|260:168,1,70
200,240,47082,2,0,P|156:196|152:108,1,140
256,192,47559,12,0,47878,0:0:0:0:
