osu file format v12

[General]
AudioFilename: Justin Biebernicki Minaj - Beauty And A Beat.mp3
AudioLeadIn: 0
PreviewTime: 59735
Countdown: 0
SampleSet: Normal
StackLeniency: 0.7
Mode: 0
LetterboxInBreaks: 1
WidescreenStoryboard: 0

[Editor]
DistanceSpacing: 1
BeatDivisor: 4
GridSize: 8

[Metadata]
Title:Beauty And A Beat
TitleUnicode:Beauty And A Beat
Artist:Justin Bieber ft. Nicki Minaj
ArtistUnicode:Justin Bieber ft. Nicki Minaj
Creator:kocaca2009
Version:Insane
Source:
Tags:justin bieber nicki minaj beauty and a beat
BeatmapID:269801
BeatmapSetID:101973

[Difficulty]
HPDrainRate:6
CircleSize:4
OverallDifficulty:7
ApproachRate:9
SliderMultiplier:2
SliderTickRate:2

[Events]
//Background and Video events
0,0,"BG.jpg",0,0
//Break Periods
2,85526,89414
2,146464,149414
2,164980,171914
//Storyboard Layer 0 (Background)
//Storyboard Layer 1 (Fail)
//Storyboard Layer 2 (Pass)
//Storyboard Layer 3 (Foreground)
//Storyboard Sound Samples
//Background Colour Transformations
3,100,163,162,255

[TimingPoints]
7514,468.75,4,1,0,100,1,0
8451,-100,4,2,1,50,0,0
29779,-100,4,1,0,47,0,0
44896,-200,4,2,1,64,0,0
47006,-133.333333333333,4,2,1,50,0,0
49232,-100,4,2,1,58,0,0
59779,-66.6666666666667,4,1,0,54,0,1
74779,-66.6666666666667,4,1,0,60,0,0
85326,-100,4,1,0,50,0,0
89550,-100,4,2,1,65,0,0
104779,-100,4,1,0,45,0,0
120014,-133.333333333333,4,2,1,51,0,0
123764,-100,4,2,1,65,0,0
135014,-66.6666666666667,4,1,0,55,0,1
144154,-66.6666666666667,4,1,0,50,0,1
146264,-100,4,1,0,40,0,0
156576,-200,4,1,0,50,0,0
157045,-100,4,1,0,42,0,0
165014,-100,4,1,0,45,0,0
172514,-100,4,1,0,48,0,0
180248,-100,4,1,0,56,0,1
209779,-100,4,1,0,55,0,0

[Colours]
Combo1 : 200,116,224
Combo2 : 142,218,240
Combo3 : 0,0,255
Combo4 : 230,238,77

[HitObjects]
256,72,14545,1,4,0:0:0:0:
104,224,15014,2,0,P|128:280|168:304,1,100
176,264,15365,1,0,0:0:0:0:
192,224,15482,1,4,0:0:0:0:
408,224,15951,2,0,P|384:280|344:304,2,100,0|0|4,0:0|0:0|0:0,0:0:0:0:
320,224,16653,1,0,0:0:0:0:
256,288,16889,1,0,0:0:0:0:
256,192,17123,1,0,0:0:0:0:
288,144,17240,1,0,0:0:0:0:
256,96,17357,1,4,0:0:0:0:
152,144,17592,6,0,L|152:248,1,100
256,192,18060,1,0,0:0:0:0:
256,288,18295,1,4,0:0:0:0:
256,192,18529,1,0,0:0:0:0:
360,144,18764,2,0,L|360:256,2,100,0|0|4,0:0|0:0|0:0,0:0:0:0:
152,144,19701,5,0,0:0:0:0:
360,144,19935,1,0,0:0:0:0:
256,296,20170,2,0,L|256:192,1,100,4|0,0:0|0:0,0:0:0:0:
168,64,20639,2,0,L|256:112,1,100
256,112,20990,1,0,0:0:0:0:
256,112,21107,2,0,L|344:64,1,100,4|0,0:0|0:0,0:0:0:0:
336,256,21576,1,0,0:0:0:0:
256,336,21810,1,0,0:0:0:0:
208,304,21928,1,0,0:0:0:0:
176,256,22045,1,4,0:0:0:0:
168,80,22514,5,0,0:0:0:0:
336,80,22748,1,0,0:0:0:0:
256,192,22982,1,4,0:0:0:0:
382,120,23451,2,0,P|425:145|440:192,1,100
384,192,23803,1,0,0:0:0:0:
328,192,23920,1,4,0:0:0:0:
256,128,24154,5,0,0:0:0:0:
184,192,24389,1,0,0:0:0:0:
72,192,24623,2,0,P|80:152|96:136,2,50,0|0|4,0:0|0:0|0:0,0:0:0:0:
208,296,25092,5,0,0:0:0:0:
320,216,25326,1,0,0:0:0:0:
192,168,25560,1,0,0:0:0:0:
232,184,25678,1,0,0:0:0:0:
200,208,25795,1,4,0:0:0:0:
304,88,26029,1,4,0:0:0:0:
204,192,26264,2,0,L|304:192,2,100,0|0|4,0:0|0:0|0:0,0:0:0:0:
149,94,27201,6,0,P|100:102|64:136,1,100
48,192,27553,1,0,0:0:0:0:
64,248,27670,2,4,P|120:288|160:288,1,100
320,112,28139,2,0,L|424:112,2,100,0|0|4,0:0|0:0|0:0,0:0:0:0:
328,152,28724,1,0,0:0:0:0:
328,192,28842,1,8,0:0:0:0:
328,232,28959,1,0,0:0:0:0:
320,272,29076,2,4,L|424:272,2,100
88,192,30014,6,0,P|144:128|272:120,1,200,0|8,0:0|0:0,0:0:0:0:
256,192,30717,1,0,0:0:0:0:
264,232,30834,1,0,0:0:0:0:
258,270,30951,2,0,P|368:256|424:192,1,200,0|8,0:0|0:0,0:0:0:0:
432,96,31654,5,0,0:0:0:0:
432,96,31771,1,0,0:0:0:0:
432,96,31889,1,0,0:0:0:0:
256,136,32123,1,0,0:0:0:0:
80,96,32357,1,8,0:0:0:0:
80,96,32474,1,0,0:0:0:0:
80,96,32592,1,0,0:0:0:0:
256,192,32826,5,0,0:0:0:0:
224,216,32943,1,0,0:0:0:0:
240,248,33060,1,0,0:0:0:0:
272,248,33178,1,0,0:0:0:0:
288,216,33295,1,8,0:0:0:0:
256,96,33529,1,0,0:0:0:0:
88,192,33998,6,0,P|104:136|144:112,2,100,0|8|0,0:0|0:0|0:0,0:0:0:0:
184,192,34701,1,0,0:0:0:0:
256,280,34935,1,0,0:0:0:0:
328,192,35170,1,8,0:0:0:0:
304,144,35287,1,0,0:0:0:0:
256,120,35404,1,0,0:0:0:0:
208,144,35521,1,0,0:0:0:0:
184,192,35639,5,0,0:0:0:0:
208,240,35873,1,0,0:0:0:0:
208,240,35990,1,0,0:0:0:0:
208,240,36107,1,8,0:0:0:0:
304,240,36342,1,0,0:0:0:0:
304,240,36459,1,0,0:0:0:0:
256,240,36576,2,0,L|256:40,1,200,0|8,0:0|0:0,0:0:0:0:
256,40,37162,1,0,0:0:0:0:
256,40,37279,1,0,0:0:0:0:
256,88,37748,5,0,0:0:0:0:
256,88,37865,1,0,0:0:0:0:
256,88,37982,1,8,0:0:0:0:
144,248,38217,1,0,0:0:0:0:
144,248,38334,1,0,0:0:0:0:
144,248,38451,1,0,0:0:0:0:
368,248,38685,1,0,0:0:0:0:
256,296,38920,1,8,0:0:0:0:
256,296,39037,1,0,0:0:0:0:
256,296,39154,1,0,0:0:0:0:
256,296,39271,1,0,0:0:0:0:
256,296,39389,5,0,0:0:0:0:
256,192,39623,1,0,0:0:0:0:
80,112,39857,2,0,L|128:200,1,100,8|0,0:0|0:0,0:0:0:0:
432,272,40326,2,0,L|384:184,1,100
280,152,40795,1,8,0:0:0:0:
216,200,40912,1,0,0:0:0:0:
288,232,41029,1,8,0:0:0:0:
256,80,41264,5,0,0:0:0:0:
256,136,41381,1,0,0:0:0:0:
256,192,41498,1,0,0:0:0:0:
256,304,41732,1,0,0:0:0:0:
120,248,41967,5,0,0:0:0:0:
88,192,42084,1,0,0:0:0:0:
120,136,42201,2,8,L|224:136,1,100
256,192,42670,1,8,0:0:0:0:
292,248,42904,2,8,L|392:248,1,100
424,192,43256,1,8,0:0:0:0:
392,136,43374,1,8,0:0:0:0:
256,120,43607,2,8,P|208:136|184:192,1,100
184,304,44076,2,0,P|352:240|392:136,1,300
112,192,45014,6,0,B|144:120|176:152|208:80,1,150
256,192,45951,1,0,0:0:0:0:
400,192,46185,2,0,B|368:264|336:232|304:304,1,150
352,168,47123,2,0,B|288:96|224:96|152:176,1,225.000008583069
256,56,48060,1,0,0:0:0:0:
256,192,48295,2,0,P|208:248|136:232,1,150.000005722046
184,176,48998,1,0,0:0:0:0:
256,88,49232,5,2,0:0:0:0:
256,192,49467,1,2,0:0:0:0:
352,152,49701,2,0,P|408:200|336:296,1,200,2|0,0:0|0:0,0:0:0:0:
256,112,50404,1,0,0:0:0:0:
312,280,50639,1,0,0:0:0:0:
168,184,50873,1,0,0:0:0:0:
344,184,51107,1,0,0:0:0:0:
200,280,51342,1,0,0:0:0:0:
256,196,51576,6,2,L|256:296,2,100
192,96,52279,1,2,0:0:0:0:
320,96,52514,1,0,0:0:0:0:
256,192,52748,1,0,0:0:0:0:
192,96,52982,6,0,B|154:96|154:96|96:136,2,100
256,192,53685,1,0,0:0:0:0:
320,288,53920,2,0,B|358:288|358:288|416:248,1,100
256,336,54389,1,0,0:0:0:0:
104,192,54624,1,0,0:0:0:0:
208,120,54857,2,0,P|256:104|304:120,1,100,2|0,0:0|0:0,0:0:0:0:
304,264,55326,2,0,P|256:280|208:264,1,100
368,280,55795,1,2,0:0:0:0:
144,280,56029,1,0,0:0:0:0:
256,88,56264,1,2,0:0:0:0:
256,192,56498,12,2,57201,0:0:0:0:
304,104,57670,6,0,L|256:192,1,100,0|2,0:0|0:0,0:0:0:0:
208,104,58139,2,0,L|256:192,1,100,4|0,0:0|0:0,0:0:0:0:
112,192,58607,1,0,0:0:0:0:
256,328,58842,1,0,0:0:0:0:
400,192,59076,1,4,0:0:0:0:
304,104,59310,1,2,0:0:0:0:
256,144,59428,1,2,0:0:0:0:
208,104,59545,1,4,0:0:0:0:
256,192,59779,1,0,0:0:0:0:
48,40,60014,5,0,0:0:0:0:
120,192,60248,1,0,0:0:0:0:
120,192,60366,1,0,0:0:0:0:
120,192,60483,1,0,0:0:0:0:
48,344,60717,1,0,0:0:0:0:
256,192,60951,5,0,0:0:0:0:
392,192,61185,1,0,0:0:0:0:
392,192,61303,1,0,0:0:0:0:
392,192,61420,1,0,0:0:0:0:
464,344,61654,1,0,0:0:0:0:
464,344,61771,1,0,0:0:0:0:
464,344,61889,1,0,0:0:0:0:
464,40,62123,1,0,0:0:0:0:
464,40,62240,1,0,0:0:0:0:
464,40,62357,6,0,L|464:192,1,150.000005722046
328,256,62826,1,0,0:0:0:0:
256,272,62943,1,0,0:0:0:0:
184,256,63060,5,0,0:0:0:0:
48,192,63295,2,0,L|48:32,2,150.000005722046
48,320,63998,1,0,0:0:0:0:
136,232,64232,5,8,0:0:0:0:
256,192,64467,1,0,0:0:0:0:
328,128,64701,2,0,P|256:104|184:128,1,150.000005722046
187,125,65053,1,0,0:0:0:0:
187,125,65170,1,8,0:0:0:0:
376,232,65404,1,0,0:0:0:0:
440,72,65639,5,0,0:0:0:0:
72,72,65873,1,0,0:0:0:0:
72,72,65990,1,0,0:0:0:0:
72,72,66107,1,8,0:0:0:0:
72,312,66342,1,0,0:0:0:0:
408,192,66576,6,0,L|256:192,1,150.000005722046
208,152,66928,1,0,0:0:0:0:
160,120,67045,2,0,P|136:192|160:264,1,150.000005722046,8|0,0:0|0:0,0:0:0:0:
208,232,67396,1,0,0:0:0:0:
184,288,67514,2,0,P|256:312|328:288,1,150.000005722046
304,232,67865,1,0,0:0:0:0:
354,260,67982,2,0,P|375:189|352:120,1,150.000005722046,8|0,0:0|0:0,0:0:0:0:
351,119,68334,1,0,0:0:0:0:
351,119,68451,1,0,0:0:0:0:
256,40,68685,2,0,L|256:192,1,150.000005722046,0|8,0:0|0:0,0:0:0:0:
328,224,69154,5,0,0:0:0:0:
328,224,69271,1,0,0:0:0:0:
328,224,69389,2,0,P|256:248|184:224,1,150.000005722046,0|0,0:0|0:0,0:0:0:0:
187,226,69740,1,0,0:0:0:0:
112,192,69857,2,0,P|112:248|184:312,1,150.000005722046,8|0,0:0|0:0,0:0:0:0:
256,328,70209,1,0,0:0:0:0:
336,312,70326,2,0,P|393:266|400:193,2,150.000005722046,0|0|8,0:0|0:0|0:0,0:0:0:0:
256,256,71029,1,0,0:0:0:0:
256,256,71146,1,0,0:0:0:0:
256,256,71264,1,0,0:0:0:0:
376,320,71498,1,0,0:0:0:0:
376,320,71615,1,0,0:0:0:0:
376,320,71732,1,8,0:0:0:0:
136,320,71967,1,0,0:0:0:0:
136,320,72084,1,0,0:0:0:0:
136,320,72201,5,0,0:0:0:0:
136,64,72435,1,0,0:0:0:0:
136,64,72553,1,0,0:0:0:0:
136,64,72670,1,8,0:0:0:0:
256,192,72904,1,0,0:0:0:0:
256,192,73021,1,0,0:0:0:0:
256,192,73139,1,0,0:0:0:0:
376,64,73373,1,0,0:0:0:0:
376,64,73490,1,0,0:0:0:0:
376,64,73607,1,8,0:0:0:0:
376,320,73842,1,0,0:0:0:0:
376,320,73959,1,0,0:0:0:0:
376,320,74076,1,0,0:0:0:0:
112,88,74310,5,0,0:0:0:0:
256,312,74545,1,8,0:0:0:0:
400,88,74779,1,4,0:0:0:0:
400,192,75014,5,0,0:0:0:0:
328,96,75248,1,0,0:0:0:0:
256,192,75482,1,8,0:0:0:0:
184,96,75717,1,0,0:0:0:0:
112,192,75951,1,0,0:0:0:0:
184,288,76185,1,0,0:0:0:0:
184,288,76303,1,0,0:0:0:0:
328,288,76420,1,8,0:0:0:0:
328,288,76537,1,0,0:0:0:0:
184,96,76889,5,0,0:0:0:0:
256,192,77123,1,0,0:0:0:0:
328,96,77357,1,8,0:0:0:0:
400,192,77592,1,0,0:0:0:0:
328,288,77826,1,0,0:0:0:0:
184,288,77943,1,0,0:0:0:0:
184,288,78060,1,0,0:0:0:0:
120,192,78295,1,8,0:0:0:0:
256,192,78529,1,0,0:0:0:0:
120,192,78764,6,0,L|216:64,1,150.000005722046
392,192,79232,2,0,L|296:320,1,150.000005722046,8|0,0:0|0:0,0:0:0:0:
256,48,79701,2,0,B|216:104|272:144|256:192,1,150.000005722046
256,192,80053,1,0,0:0:0:0:
256,192,80170,1,8,0:0:0:0:
256,192,80287,1,0,0:0:0:0:
256,192,80639,1,0,0:0:0:0:
256,288,80873,2,0,L|104:288,2,150.000005722046,0|8|0,0:0|0:0|0:0,0:0:0:0:
256,288,81576,5,0,0:0:0:0:
288,264,81693,1,0,0:0:0:0:
312,216,81810,1,0,0:0:0:0:
280,176,81928,1,0,0:0:0:0:
232,176,82045,5,8,0:0:0:0:
200,216,82162,1,0,0:0:0:0:
224,264,82279,1,0,0:0:0:0:
256,288,82396,1,0,0:0:0:0:
288,264,82514,6,0,P|312:208|304:112,1,150.000005722046,0|0,0:0|0:0,0:0:0:0:
256,88,82982,1,8,0:0:0:0:
256,88,83217,1,0,0:0:0:0:
204,120,83451,2,0,P|200:208|224:264,1,150.000005722046,0|0,0:0|0:0,0:0:0:0:
256,240,83803,1,0,0:0:0:0:
256,192,83920,1,8,0:0:0:0:
256,144,84037,1,0,0:0:0:0:
176,80,84389,5,4,0:0:0:0:
256,304,84623,1,4,0:0:0:0:
336,80,84857,1,4,0:0:0:0:
128,208,85092,1,4,0:0:0:0:
384,208,85326,1,4,0:0:0:0:
168,88,90014,6,0,L|168:208,1,100,0|2,0:0|0:0,0:0:0:0:
256,192,90365,1,0,0:0:0:0:
344,196,90482,2,0,L|344:296,1,100,0|2,0:0|0:0,0:0:0:0:
256,192,90951,1,0,0:0:0:0:
224,168,91185,1,0,0:0:0:0:
288,168,91303,1,0,0:0:0:0:
256,216,91420,1,2,0:0:0:0:
376,240,91654,5,0,0:0:0:0:
304,200,91889,1,0,0:0:0:0:
208,200,92123,1,0,0:0:0:0:
256,128,92240,1,0,0:0:0:0:
256,128,92357,1,2,0:0:0:0:
368,128,92592,5,0,0:0:0:0:
416,208,92826,2,0,P|408:160|352:128,1,100
368,128,93178,1,0,0:0:0:0:
368,128,93295,1,2,0:0:0:0:
144,128,93529,1,0,0:0:0:0:
144,128,93646,1,0,0:0:0:0:
143,130,93764,2,0,P|104:160|96:208,1,100
96,208,94115,1,0,0:0:0:0:
96,208,94232,1,2,0:0:0:0:
256,64,94701,5,0,0:0:0:0:
200,152,94935,1,0,0:0:0:0:
256,144,95053,1,0,0:0:0:0:
312,152,95170,1,2,0:0:0:0:
256,296,95404,2,0,L|256:192,2,100
136,88,96107,1,0,0:0:0:0:
376,88,96342,1,0,0:0:0:0:
160,136,96576,1,0,0:0:0:0:
352,136,96810,5,2,0:0:0:0:
136,192,97045,1,2,0:0:0:0:
376,192,97279,1,2,0:0:0:0:
256,312,97514,1,0,0:0:0:0:
256,192,97748,1,0,0:0:0:0:
256,192,97865,1,0,0:0:0:0:
256,192,97982,1,4,0:0:0:0:
128,160,98451,6,0,P|184:152|248:176,1,100
256,128,98803,1,0,0:0:0:0:
286,162,98920,2,2,P|328:152|384:160,1,100,4|2,0:0|0:0,0:0:0:0:
256,344,99389,1,0,0:0:0:0:
120,312,99623,1,0,0:0:0:0:
120,312,99740,1,0,0:0:0:0:
120,312,99857,1,4,0:0:0:0:
392,312,100092,1,0,0:0:0:0:
256,88,100326,6,0,L|256:192,1,100
312,200,100678,1,2,0:0:0:0:
256,240,100795,1,4,0:0:0:0:
200,200,100912,1,0,0:0:0:0:
224,144,101029,1,0,0:0:0:0:
288,144,101146,1,0,0:0:0:0:
256,192,101264,2,0,L|256:296,1,100
256,192,101732,1,4,0:0:0:0:
112,40,102201,5,0,0:0:0:0:
360,176,102435,1,0,0:0:0:0:
368,208,102553,1,0,0:0:0:0:
392,184,102670,1,4,0:0:0:0:
112,344,102904,1,0,0:0:0:0:
152,48,103139,5,0,0:0:0:0:
280,120,103373,1,0,0:0:0:0:
152,192,103607,1,4,0:0:0:0:
280,264,103842,1,0,0:0:0:0:
152,336,104076,1,0,0:0:0:0:
400,192,104310,1,0,0:0:0:0:
152,48,104545,1,4,0:0:0:0:
112,240,105014,6,0,P|96:192|120:136,1,100
152,192,105365,1,0,0:0:0:0:
200,192,105482,1,0,0:0:0:0:
312,192,105717,1,0,0:0:0:0:
360,192,105834,1,0,0:0:0:0:
401,146,105951,2,0,P|416:192|400:240,1,100
384,272,106303,1,0,0:0:0:0:
304,272,106420,1,0,0:0:0:0:
384,272,106537,1,0,0:0:0:0:
328,232,106654,1,0,0:0:0:0:
416,232,106771,1,0,0:0:0:0:
384,184,106889,6,0,B|256:104|256:304|120:152,1,300
208,128,107826,1,0,0:0:0:0:
320,256,108060,1,0,0:0:0:0:
216,224,108295,2,4,L|272:184,1,50,0|4,0:0|0:0,0:0:0:0:
216,224,108529,1,0,0:0:0:0:
40,104,108998,5,0,0:0:0:0:
96,136,109115,1,0,0:0:0:0:
40,160,109232,1,0,0:0:0:0:
416,136,109467,1,0,0:0:0:0:
472,96,109584,1,0,0:0:0:0:
472,160,109701,1,0,0:0:0:0:
64,192,109935,1,0,0:0:0:0:
64,192,110053,1,0,0:0:0:0:
64,192,110170,2,0,P|80:144|128:120,1,100,8|0,0:0|0:0,0:0:0:0:
200,120,110639,6,0,P|240:144|256:192,1,100,0|0,0:0|0:0,0:0:0:0:
312,120,111107,2,0,P|272:144|256:192,1,100,8|0,0:0|0:0,0:0:0:0:
392,120,111576,2,0,P|433:143|449:191,1,100,0|8,0:0|0:0,0:0:0:0:
256,192,112045,2,8,L|256:248,2,50
256,152,112396,1,8,0:0:0:0:
256,280,112748,5,0,0:0:0:0:
48,136,112982,2,0,L|360:216,1,300
384,144,113920,2,0,P|432:224|360:288,1,200
384,48,114623,1,0,0:0:0:0:
384,48,114740,1,0,0:0:0:0:
384,48,114857,1,0,0:0:0:0:
128,48,115092,5,0,0:0:0:0:
128,48,115209,1,0,0:0:0:0:
128,48,115326,1,0,0:0:0:0:
256,104,115560,1,0,0:0:0:0:
256,104,115678,1,0,0:0:0:0:
256,104,115795,1,8,0:0:0:0:
256,280,116029,1,8,0:0:0:0:
376,80,116498,5,0,0:0:0:0:
376,80,116615,1,0,0:0:0:0:
376,80,116733,1,0,0:0:0:0:
136,80,116967,1,0,0:0:0:0:
136,80,117084,1,0,0:0:0:0:
136,80,117201,2,0,L|136:184,1,100
376,304,117905,5,0,0:0:0:0:
376,304,118022,1,0,0:0:0:0:
376,304,118139,2,0,L|376:204,1,100
216,104,118607,2,0,P|264:88|304:120,1,100
192,256,119076,2,0,P|144:224|152:176,1,100
352,208,119545,2,0,P|328:264|288:280,1,100
256,192,120014,6,0,L|16:192,2,225.000008583069
256,192,121654,1,0,0:0:0:0:
320,96,121889,2,0,P|360:192|312:304,1,225.000008583069
256,192,122826,12,2,123764,0:0:0:0:
256,344,124232,5,0,0:0:0:0:
256,344,124467,2,2,L|256:240,1,100
256,294,124935,1,0,0:0:0:0:
160,192,125170,1,2,0:0:0:0:
256,80,125404,1,2,0:0:0:0:
344,192,125639,1,2,0:0:0:0:
256,232,125873,1,0,0:0:0:0:
256,232,125990,1,0,0:0:0:0:
256,232,126107,5,2,0:0:0:0:
256,80,126342,1,0,0:0:0:0:
152,232,126576,1,0,0:0:0:0:
360,232,126810,1,0,0:0:0:0:
360,232,126928,1,0,0:0:0:0:
360,232,127045,1,2,0:0:0:0:
112,80,127279,1,0,0:0:0:0:
400,80,127514,1,2,0:0:0:0:
56,48,127748,5,0,0:0:0:0:
56,48,127865,1,0,0:0:0:0:
56,48,127982,1,0,0:0:0:0:
256,120,128217,1,0,0:0:0:0:
256,264,128451,1,2,0:0:0:0:
456,48,128685,1,0,0:0:0:0:
456,48,128802,1,0,0:0:0:0:
456,48,128919,5,0,0:0:0:0:
400,192,129154,2,0,L|400:248,2,50,0|0|2,0:0|0:0|0:0,0:0:0:0:
312,152,129623,2,0,L|312:208,2,50,0|0|2,0:0|0:0|0:0,0:0:0:0:
200,152,130092,2,0,L|200:208,2,50,0|0|2,0:0|0:0|0:0,0:0:0:0:
112,192,130560,6,0,L|112:248,2,50,0|0|2,0:0|0:0|0:0,0:0:0:0:
256,320,131029,1,0,0:0:0:0:
256,192,131264,1,2,0:0:0:0:
120,192,131498,1,0,0:0:0:0:
152,144,131615,1,0,0:0:0:0:
184,96,131732,1,0,0:0:0:0:
328,96,131967,1,0,0:0:0:0:
256,192,132201,1,2,0:0:0:0:
392,192,132435,1,0,0:0:0:0:
360,144,132553,1,0,0:0:0:0:
328,96,132670,1,0,0:0:0:0:
256,192,132904,1,0,0:0:0:0:
96,144,133139,6,2,L|96:248,1,100,2|0,0:0|0:0,0:0:0:0:
144,224,133490,1,0,0:0:0:0:
192,192,133607,1,0,0:0:0:0:
256,288,133842,1,4,0:0:0:0:
320,192,134076,1,2,0:0:0:0:
368,216,134193,1,0,0:0:0:0:
416,240,134310,2,2,L|416:136,1,100,4|2,0:0|0:0,0:0:0:0:
256,96,134779,1,4,0:0:0:0:
256,272,135014,6,0,L|256:120,2,150.000005722046
168,128,135717,2,0,P|192:56|256:24,1,150.000005722046
256,24,136185,1,0,0:0:0:0:
320,64,136302,1,0,0:0:0:0:
344,128,136420,1,0,0:0:0:0:
144,192,136654,1,0,0:0:0:0:
256,304,136889,1,0,0:0:0:0:
256,80,137123,1,0,0:0:0:0:
368,192,137357,1,0,0:0:0:0:
256,192,137592,1,0,0:0:0:0:
176,112,137826,5,0,0:0:0:0:
256,192,138060,1,0,0:0:0:0:
296,232,138178,1,0,0:0:0:0:
336,272,138295,1,0,0:0:0:0:
336,112,138529,1,0,0:0:0:0:
176,272,138764,2,0,P|144:208|168:128,2,150.000005722046
256,192,139467,1,0,0:0:0:0:
256,192,139701,5,0,0:0:0:0:
336,272,139935,2,0,P|224:280|176:120,1,300.000011444092
112,80,140639,2,0,P|88:128|88:232,1,150.000005722046
400,80,141107,2,0,P|424:128|424:232,2,150.000005722046
256,280,141810,1,0,0:0:0:0:
256,192,141928,1,0,0:0:0:0:
256,104,142045,1,0,0:0:0:0:
352,192,142279,1,0,0:0:0:0:
160,192,142514,1,0,0:0:0:0:
448,120,142982,6,0,P|472:192|440:272,1,150.000005722046,0|0,0:0|0:0,0:0:0:0:
256,192,143451,1,0,0:0:0:0:
64,120,143685,2,0,P|40:192|72:272,1,150.000005722046
208,64,144154,5,0,0:0:0:0:
304,64,144389,1,0,0:0:0:0:
192,160,144623,1,0,0:0:0:0:
256,136,144740,1,0,0:0:0:0:
320,160,144857,1,0,0:0:0:0:
192,224,145092,1,0,0:0:0:0:
256,248,145209,1,0,0:0:0:0:
320,224,145326,1,0,0:0:0:0:
208,320,145560,1,0,0:0:0:0:
304,320,145795,1,0,0:0:0:0:
376,192,146029,1,0,0:0:0:0:
136,192,146264,1,0,0:0:0:0:
128,72,150014,5,4,0:0:0:0:
384,72,150482,1,0,0:0:0:0:
256,312,150951,1,4,0:0:0:0:
256,192,151420,1,0,0:0:0:0:
208,96,151654,5,0,0:0:0:0:
256,96,151771,1,0,0:0:0:0:
288,144,151889,1,0,0:0:0:0:
256,192,152006,1,0,0:0:0:0:
200,192,152123,1,0,0:0:0:0:
256,192,152240,1,0,0:0:0:0:
288,240,152357,1,0,0:0:0:0:
256,288,152474,1,0,0:0:0:0:
200,288,152592,1,0,0:0:0:0:
160,192,152826,2,0,L|376:192,1,200,0|4,0:0|0:0,0:0:0:0:
448,280,153764,38,0,P|488:192|448:104,1,200
360,80,154467,1,0,0:0:0:0:
312,48,154584,1,0,0:0:0:0:
256,40,154701,1,4,0:0:0:0:
152,80,154935,1,0,0:0:0:0:
88,192,155170,1,4,0:0:0:0:
200,112,155639,21,0,0:0:0:0:
200,152,155756,1,0,0:0:0:0:
200,192,155873,1,0,0:0:0:0:
200,232,155990,1,0,0:0:0:0:
200,272,156107,1,0,0:0:0:0:
224,296,156224,1,0,0:0:0:0:
256,312,156342,1,0,0:0:0:0:
296,288,156459,1,0,0:0:0:0:
312,272,156576,2,0,P|328:216|312:176,1,100,0|4,0:0|0:0,0:0:0:0:
256,192,157514,6,0,L|256:72,2,100
136,304,158451,1,4,0:0:0:0:
376,304,158920,1,0,0:0:0:0:
200,64,159389,5,0,0:0:0:0:
168,96,159506,1,0,0:0:0:0:
136,136,159623,1,0,0:0:0:0:
168,168,159740,1,0,0:0:0:0:
200,200,159857,1,0,0:0:0:0:
232,168,159974,1,0,0:0:0:0:
256,136,160092,1,0,0:0:0:0:
280,168,160209,1,0,0:0:0:0:
256,208,160326,2,0,L|256:320,2,100,4|0|0,0:0|0:0|0:0,0:0:0:0:
136,192,161264,5,0,0:0:0:0:
144,144,161381,1,0,0:0:0:0:
168,112,161498,2,0,P|208:80|256:72,1,100
376,192,162201,2,0,P|376:232|256:312,1,200,4|0,0:0|0:0,0:0:0:0:
256,192,163139,12,4,164780,0:0:0:0:
88,96,172514,6,4,L|88:216,1,100
120,240,172865,1,0,0:0:0:0:
160,272,172982,1,0,0:0:0:0:
256,320,173217,1,0,0:0:0:0:
344,272,173451,1,4,0:0:0:0:
416,192,173685,1,0,0:0:0:0:
384,144,173803,1,0,0:0:0:0:
416,96,173920,1,0,0:0:0:0:
336,144,174154,1,0,0:0:0:0:
256,192,174389,6,0,B|192:192|192:192|144:216,1,100,0|4,0:0|0:0,0:0:0:0:
256,192,174857,2,0,B|320:192|320:192|368:216,1,100,0|0,0:0|0:0,0:0:0:0:
400,120,175326,2,0,B|367:103|367:103|303:103,1,100,0|4,0:0|0:0,0:0:0:0:
112,120,175795,2,4,B|145:104|145:104|209:104,1,100,0|4,0:0|0:0,0:0:0:0:
157,274,176264,6,4,L|224:200,1,100
256,176,176615,1,0,0:0:0:0:
288,200,176732,2,0,L|360:280,1,100
256,144,177201,1,0,0:0:0:0:
160,312,177435,1,0,0:0:0:0:
352,312,177670,1,0,0:0:0:0:
256,192,178139,12,4,180015,0:0:0:0:
190,285,180482,6,0,P|176:238|192:192,1,100,0|0,0:0|0:0,0:0:0:0:
256,192,180834,1,0,0:0:0:0:
320,192,180951,2,4,P|336:248|312:296,1,100
256,312,181303,1,0,0:0:0:0:
256,312,181420,2,0,L|256:208,1,100
256,212,181771,1,0,0:0:0:0:
344,224,181889,6,0,B|368:96|144:96|168:224,1,300
167,221,182709,1,0,0:0:0:0:
168,222,182826,1,0,0:0:0:0:
344,224,183060,1,0,0:0:0:0:
344,224,183178,1,0,0:0:0:0:
344,224,183295,1,8,0:0:0:0:
256,80,183764,5,0,0:0:0:0:
96,112,184232,5,8,0:0:0:0:
184,160,184467,1,0,0:0:0:0:
176,112,184584,1,0,0:0:0:0:
168,64,184701,2,0,L|256:112,1,100
304,88,185053,1,0,0:0:0:0:
344,64,185170,2,0,L|328:168,1,100,8|0,0:0|0:0,0:0:0:0:
144,344,185639,5,0,0:0:0:0:
368,344,185873,1,0,0:0:0:0:
160,296,186107,1,8,0:0:0:0:
352,296,186342,1,0,0:0:0:0:
256,192,186576,1,0,0:0:0:0:
368,40,186810,1,0,0:0:0:0:
144,40,187045,1,8,0:0:0:0:
88,192,187279,1,0,0:0:0:0:
88,192,187396,1,0,0:0:0:0:
88,192,187514,5,0,0:0:0:0:
256,80,187748,1,0,0:0:0:0:
184,280,187982,1,8,0:0:0:0:
360,168,188217,1,0,0:0:0:0:
152,168,188451,1,0,0:0:0:0:
328,280,188685,1,0,0:0:0:0:
328,280,188803,1,0,0:0:0:0:
328,280,188920,1,8,0:0:0:0:
256,192,189154,1,0,0:0:0:0:
256,80,189389,6,0,P|208:56|160:88,1,100
88,192,189857,1,8,0:0:0:0:
424,192,190092,1,0,0:0:0:0:
256,304,190326,2,0,P|304:328|352:296,1,100,0|0,0:0|0:0,0:0:0:0:
256,192,190795,1,8,0:0:0:0:
112,72,191029,6,0,L|112:184,1,100,8|0,0:0|0:0,0:0:0:0:
400,312,191498,2,0,L|400:200,1,100,0|8,0:0|0:0,0:0:0:0:
112,312,191967,1,0,0:0:0:0:
400,72,192201,1,0,0:0:0:0:
400,312,192435,1,0,0:0:0:0:
112,72,192670,1,8,0:0:0:0:
368,160,193139,5,0,0:0:0:0:
312,80,193373,1,0,0:0:0:0:
200,80,193607,1,8,0:0:0:0:
144,160,193842,1,0,0:0:0:0:
256,192,194076,2,0,L|256:304,1,100
256,128,194545,1,8,0:0:0:0:
256,128,194662,1,0,0:0:0:0:
256,128,194779,1,0,0:0:0:0:
256,80,195014,5,0,0:0:0:0:
256,304,195248,1,0,0:0:0:0:
320,112,195482,1,8,0:0:0:0:
192,272,195717,1,0,0:0:0:0:
192,272,195834,1,0,0:0:0:0:
192,272,195951,1,0,0:0:0:0:
320,272,196185,1,0,0:0:0:0:
192,112,196420,1,8,0:0:0:0:
192,112,196537,1,0,0:0:0:0:
192,112,196654,1,0,0:0:0:0:
440,160,196889,6,0,P|392:216|360:216,1,100
296,176,197357,2,0,P|280:208|312:272,1,100,8|0,0:0|0:0,0:0:0:0:
216,176,197826,2,0,P|232:208|200:272,1,100
141,217,198295,2,0,P|120:216|72:160,1,100,8|0,0:0|0:0,0:0:0:0:
336,136,198764,2,0,P|256:88|160:144,1,200,0|8,0:0|0:0,0:0:0:0:
112,248,199467,1,0,0:0:0:0:
152,280,199584,1,0,0:0:0:0:
200,304,199701,1,0,0:0:0:0:
312,304,199935,1,0,0:0:0:0:
360,280,200053,1,0,0:0:0:0:
400,248,200170,1,8,0:0:0:0:
256,192,200404,5,0,0:0:0:0:
256,192,200639,6,0,L|256:88,2,100,0|0|8,0:0|0:0|0:0,0:0:0:0:
328,88,201342,1,0,0:0:0:0:
184,88,201576,1,0,0:0:0:0:
256,192,201810,1,0,0:0:0:0:
328,288,202045,1,8,0:0:0:0:
192,288,202279,1,0,0:0:0:0:
256,192,202514,1,0,0:0:0:0:
120,192,202982,5,8,0:0:0:0:
128,128,203099,1,0,0:0:0:0:
184,96,203217,1,0,0:0:0:0:
320,96,203451,1,0,0:0:0:0:
384,128,203568,1,0,0:0:0:0:
384,192,203685,1,0,0:0:0:0:
256,192,203920,1,8,0:0:0:0:
256,328,204154,1,0,0:0:0:0:
184,96,204389,6,0,L|288:96,1,100
328,288,204857,2,0,L|224:288,1,100,8|0,0:0|0:0,0:0:0:0:
392,168,205326,2,0,L|320:96,1,100
120,216,205795,2,0,L|192:288,1,100,8|0,0:0|0:0,0:0:0:0:
448,40,206264,5,0,0:0:0:0:
64,344,206732,1,8,0:0:0:0:
376,40,207201,1,0,0:0:0:0:
136,344,207670,1,8,0:0:0:0:
136,40,208139,1,0,0:0:0:0:
376,344,208607,1,8,0:0:0:0:
64,40,209076,1,0,0:0:0:0:
448,344,209545,1,8,0:0:0:0:
400,192,210014,5,0,0:0:0:0:
256,192,210248,1,0,0:0:0:0:
120,192,210482,1,8,0:0:0:0:
184,72,210717,1,0,0:0:0:0:
328,72,210951,1,0,0:0:0:0:
400,192,211185,1,0,0:0:0:0:
432,248,211303,1,0,0:0:0:0:
368,248,211420,1,8,0:0:0:0:
400,224,211537,1,0,0:0:0:0:
256,192,211889,5,0,0:0:0:0:
200,240,212123,1,0,0:0:0:0:
312,240,212357,1,8,0:0:0:0:
224,304,212592,1,0,0:0:0:0:
288,304,212826,1,0,0:0:0:0:
232,272,212943,1,0,0:0:0:0:
280,272,213060,1,0,0:0:0:0:
224,224,213178,1,0,0:0:0:0:
288,224,213295,1,8,0:0:0:0:
256,192,213412,1,0,0:0:0:0:
256,192,213529,1,0,0:0:0:0:
128,216,213764,6,0,P|120:152|160:120,1,100
384,216,214232,2,0,P|392:152|352:120,2,100,8|0|0,0:0|0:0|0:0,0:0:0:0:
256,192,214935,1,0,0:0:0:0:
256,192,215053,1,0,0:0:0:0:
256,192,215170,1,8,0:0:0:0:
256,192,215287,1,0,0:0:0:0:
168,144,215639,6,0,P|224:112|256:120,1,100
344,240,216107,2,0,P|288:272|256:264,1,100,8|0,0:0|0:0,0:0:0:0:
152,200,216576,5,4,0:0:0:0:
184,240,216693,1,0,0:0:0:0:
232,264,216810,1,0,0:0:0:0:
280,264,216928,1,0,0:0:0:0:
328,240,217045,5,12,0:0:0:0:
360,200,217162,1,0,0:0:0:0:
328,152,217279,1,0,0:0:0:0:
360,112,217396,1,0,0:0:0:0:
304,112,217514,2,0,P|272:96|208:112,1,100,4|0,0:0|0:0,0:0:0:0:
256,192,217982,1,8,0:0:0:0:
152,200,218217,1,0,0:0:0:0:
72,160,218451,2,0,P|56:208|80:256,1,100,0|0,0:0|0:0,0:0:0:0:
112,280,218803,1,0,0:0:0:0:
160,288,218920,1,0,0:0:0:0:
160,288,219037,1,0,0:0:0:0:
184,104,219389,5,4,0:0:0:0:
256,304,219623,1,4,0:0:0:0:
328,104,219857,1,4,0:0:0:0:
376,224,220092,1,4,0:0:0:0:
136,224,220326,1,4,0:0:0:0:
256,64,220795,5,0,0:0:0:0:
272,96,220912,1,0,0:0:0:0:
240,96,221029,1,0,0:0:0:0:
256,120,221146,1,0,0:0:0:0:
256,144,221264,2,0,L|256:200,1,50
232,232,221498,1,0,0:0:0:0:
280,232,221615,1,0,0:0:0:0:
256,272,221732,2,0,L|256:322,2,50
224,296,222084,1,0,0:0:0:0:
288,296,222201,1,0,0:0:0:0:
256,192,222670,12,0,223608,0:0:0:0:
216,152,224076,6,0,P|200:192|224:240,1,100,8|8,0:0|0:0,0:0:0:0:
256,256,224428,1,8,0:0:0:0:
288,240,224545,1,4,0:0:0:0:
312,192,224662,1,4,0:0:0:0:
296,152,224779,1,4,0:0:0:0:
256,128,224896,1,4,0:0:0:0:
