osu file format v9

[General]
AudioFilename: Nightcore - Baby.mp3
AudioLeadIn: 0
PreviewTime: 36001
Countdown: 0
SampleSet: Soft
StackLeniency: 0.7
Mode: 0
LetterboxInBreaks: 0

[Editor]
DistanceSpacing: 1.1
BeatDivisor: 4
GridSize: 4

[Metadata]
Title:Baby (Nightcore Mix)
Artist:Justin Bieber ft. Ludacris
Creator:-Bakari-
Version:Hard
Source:
Tags:bossandy grumd

[Difficulty]
HPDrainRate:6
CircleSize:4
OverallDifficulty:6
ApproachRate:7
SliderMultiplier:1.4
SliderTickRate:1

[Events]
//Background and Video events
0,0,"bg.jpg"
//Break Periods
//Storyboard Layer 0 (Background)
//Storyboard Layer 1 (Fail)
//Storyboard Layer 2 (Pass)
//Storyboard Layer 3 (Foreground)
//Storyboard Sound Samples
//Background Colour Transformations
3,100,163,162,255

[TimingPoints]
555,369.230769230769,4,2,0,37,1,0
36001,-100,4,2,0,44,0,1
46893,-100,4,2,0,44,0,0
47816,-100,4,2,0,44,0,1
59631,-100,4,1,0,30,0,0
59724,-100,4,2,0,44,0,0
77816,-100,4,2,0,23,0,0
79201,-100,4,2,0,18,0,0
80308,-100,4,1,0,44,0,0
80401,-100,4,2,0,44,0,0
80954,-100,4,1,0,44,0,0
81139,-100,4,2,0,44,0,0
81785,-100,4,1,0,44,0,0
81878,-100,4,2,0,44,0,0
82154,-100,4,1,0,44,0,0
82339,-100,4,2,0,44,0,0
82524,-100,4,1,0,44,0,0
82616,-100,4,2,0,44,0,0
82801,-100,4,1,0,44,0,0
82985,-100,4,2,0,44,0,0
83262,-100,4,1,0,44,0,1
94154,-100,4,1,0,44,0,0
95078,-100,4,1,0,44,0,1
103570,-100,4,1,0,44,0,0
105324,-100,4,2,0,5,0,0

[Colours]
Combo1 : 255,242,89
Combo2 : 255,55,55
Combo3 : 254,173,24

[HitObjects]
104,136,12370,6,0,B|152:152|164:192|164:192|232:192,1,140,4|8
268,252,12924,1,2
213,310,13108,1,0
92,212,13478,6,0,B|92:296|0:308,2,140,8|4|8
104,135,14401,1,2
52,76,14585,2,0,B|88:40|160:56|176:104,1,140,0|8
104,136,15139,5,2
172,176,15324,2,0,B|171:250,1,70,4|0
221,304,15693,1,8
275,249,15878,1,2
304,320,16062,2,0,B|372:284,1,70,0|2
440,264,16431,6,0,B|512:224,1,70,8|2
436,185,16801,2,0,B|476:156|476:92|436:64,1,140,4|8
364,58,17354,1,2
309,112,17539,1,0
360,172,17724,1,0
436,184,17908,6,0,B|476:184|496:216,1,70,8|2
432,260,18278,2,0,B|436:340|348:372,2,140,4|8|0
436,184,19201,1,2
444,108,19385,2,0,B|384:72,1,70,8|2
308,88,19754,2,0,B|314:128|356:148|356:148|356:216,1,140,4|8
404,268,20308,1,2
356,208,20493,2,0,B|308:208|280:232,1,70,0|2
216,248,20862,6,0,B|140:212,1,70,8|0
216,248,21231,2,0,B|188:300|208:344|256:368,2,140,4|8|0
280,292,22154,1,2
216,248,22339,2,0,B|240:216|288:212,1,70,8|2
264,140,22708,2,0,B|220:148|168:176|144:224,2,140,4|8|0
384,256,23816,6,0,B|340:180,1,70,2|2
348,120,24185,2,0,B|340:84|304:64,2,70,4|0|8
212,44,24924,2,0,B|160:88,1,70
212,144,25293,1,8
164,204,25478,1,2
164,204,25662,2,0,B|130:243|140:304|196:328,2,140,4|8|0
220,256,26585,1,2
164,204,26770,1,8
116,144,26954,5,2
42,120,27139,2,0,B|60:68|115:53|156:77,2,140,4|8|2
116,144,28062,2,0,B|157:167|200:143|200:143|244:176,1,140,2|0
217,247,28616,6,0,B|277:263|320:216|316:176,2,140,4|8|2
241,174,29539,1,0
284,109,29724,2,0,B|321:92|353:112,1,70,10|0
396,172,30093,6,0,B|384:245,1,70,4|0
350,310,30462,2,0,B|282:274|210:314,1,140,8|0
140,296,31016,1,2
104,228,31201,1,8
92,152,31385,1,2
112,80,31570,6,0,B|141:39|212:40|240:88,2,140,4|8|0
172,128,32493,1,2
234,174,32678,2,0,B|207:215|142:216|112:176,2,140,8|4|8
172,128,33601,1,2
172,128,33785,2,0,B|193:97|233:98,1,70,0|0
234,174,34154,2,0,B|270:258,1,70,8|2
210,298,34524,2,0,B|134:338|78:274,2,140,0|0|2
263,240,35447,5,2
320,288,35631,1,0
374,342,35816,1,2
320,288,36001,6,0,B|356:248|425:259|444:312,1,140,4|8
441,147,36739,2,0,B|293:121,1,140,2|8
260,184,37293,1,2
240,260,37478,2,0,B|200:236|140:252|128:316,1,140,4|8
204,324,38031,1,0
280,328,38216,2,0,B|360:300,2,70,0|0|10
240,260,38770,1,0
204,324,38954,6,0,B|160:352|104:340|84:292,1,140,4|8
102,144,39693,2,0,B|170:184|155:264,1,140,4|8
204,324,40247,1,2
240,256,40431,2,0,B|299:310,2,70,0|0|8
299,209,40985,1,2
244,160,41170,1,0
168,164,41354,1,2
168,164,41539,2,0,B|153:196|112:212,1,70,8|2
168,164,41908,6,0,B|196:96,1,70,4|0
268,76,42278,2,0,B|304:60|336:76,1,70,8|2
300,144,42647,2,0,B|336:204,1,70,2|0
296,268,43016,1,8
232,224,43201,1,0
160,252,43385,2,0,B|140:296|76:316|32:296,2,140,4|8|0
232,224,44308,1,0
300,242,44493,2,0,B|319:213|317:169,1,70,8|0
244,156,44862,6,0,B|252:192|230:223,1,70,4|0
160,252,45231,2,0,B|96:220,2,70,8|2|0
228,224,45785,1,0
160,252,45970,2,0,B|173:287|212:296,1,70,8|2
288,292,46339,6,0,B|296:339|257:382|200:374,1,140,4|8
128,352,46893,1,2
128,352,47078,2,0,B|77:363|32:330|30:280,1,140,2|8
108,276,47631,1,2
184,272,47816,6,0,B|183:228|136:184|80:204,1,140,4|8
48,136,48370,1,2
48,136,48554,2,0,B|68:64,2,70,4|0|8
84,204,49108,1,4
160,224,49293,2,0,B|246:189|246:189|256:130,2,140,0|8|2
84,204,50216,1,0
48,136,50401,2,0,B|16:156|8:196,1,70,8|2
84,204,50770,6,0,B|106:242|80:292|80:292|84:340,1,140,4|8
160,328,51324,1,0
184,256,51508,2,0,B|220:269|232:307,2,70,4|0|8
252,220,52062,1,4
184,256,52247,2,0,B|196:180|136:132,2,140,0|8|2
220,320,53170,1,0
284,364,53354,2,0,B|305:333|294:296,1,70,8|2
220,320,53724,6,0,B|160:352|160:352|80:340,1,140,4|8
64,268,54278,1,2
64,268,54462,2,0,B|76:212|76:212|112:188|112:188|124:140,1,140,4|8
88,80,55016,1,4
122,150,55201,6,0,B|206:162|222:78,2,140,0|8|2
88,80,56124,1,0
153,39,56308,1,8
222,77,56493,5,2
222,77,56678,2,0,B|278:89|278:89|302:117|302:117|362:133,1,140,4|8
369,202,57231,1,2
439,232,57416,2,0,B|419:288|347:292|315:260,1,140,0|8
369,202,57970,1,2
417,142,58154,6,0,B|386:110|321:118|299:168,2,140,4|2|2
369,202,59078,1,2
300,167,59262,2,0,B|228:147,1,70,8|2
236,224,59631,6,0,B|189:196|136:220|120:265,1,140,4|8
192,292,60185,1,0
192,292,60370,1,0
192,292,60554,1,0
268,304,60739,2,0,B|261:354|208:380|161:360,2,140,8|2|8
304,240,61662,5,2
304,240,61847,2,0,B|351:220|404:246|411:296,2,140,0|8|4
264,176,62770,1,0
264,176,62954,2,0,B|180:104,1,70,8|2
280,92,63324,2,0,B|228:44,1,70,0|2
158,75,63693,2,0,B|129:101|135:139,1,70,8|2
88,196,64062,2,0,B|144:224|144:224|180:212|180:212|236:236,2,140,2|8|2
44,260,64985,2,0,B|4:324|4:324|8:324,2,70,2|8|2
88,196,65539,6,0,B|64:152|64:152|84:120|84:120|56:72,2,140,4|8|0
197,86,66647,1,8
305,194,67016,1,0
196,302,67385,1,8
88,196,67754,1,0
240,228,68124,6,0,B|219:188|248:140,2,70,8|2|4
164,232,68678,1,2
240,228,68862,2,0,B|278:296,2,70,8|2|0
164,232,69416,1,0
106,180,69601,6,0,B|76:213|79:274|127:300,2,140,8|4|2
164,232,70524,1,0
240,228,70708,2,0,B|288:204|288:204|348:216|348:216|384:208,1,140,4|6
436,252,71262,1,0
373,211,71447,6,0,B|401:167|377:107|329:95|297:107,1,140,4|8
292,32,72001,1,2
368,32,72185,2,0,B|428:36|452:8,1,70,0|2
454,95,72554,2,0,B|397:139,1,70,8|2
373,211,72924,6,0,B|297:263|341:339,2,140,4|8|0
444,182,73847,1,2
434,105,74031,1,8
462,33,74216,1,2
434,105,74401,6,0,B|389:109|354:156|371:210,1,140,4|8
444,182,74954,1,2
510,143,75139,2,0,B|531:189|504:228|504:228|506:278,1,140,6|8
431,258,75693,1,2
371,208,75878,2,0,B|336:262|375:309|375:309|324:335,2,140,2|8|2
297,73,76985,1,8
208,200,77354,6,0,B|128:200|100:128,2,140,2|0|2
256,136,78278,1,0
300,200,78462,2,0,B|380:200|412:128,2,140,2|2|0
256,264,79385,1,2
256,264,79570,1,0
256,188,79755,1,0
256,112,79939,6,0,B|288:88|288:88|340:88|340:88|384:48,1,140,8|4
412,124,80493,1,0
488,128,80678,2,0,B|484:176|438:196|438:196|440:260,2,140,8|4|8
412,124,81601,1,2
388,52,81785,6,0,B|340:63|318:120|348:166,1,140,4|4
347,164,82339,1,2
347,164,82524,2,0,B|365:212|339:263|288:272,1,140,4|4
276,196,83078,1,4
208,164,83262,6,0,B|128:136|136:52,1,140,4|8
36,176,84001,2,0,B|80:240|28:304,1,140,0|8
100,328,84555,1,0
176,340,84739,2,0,B|220:312|220:312|260:312|260:312|308:280,2,140,0|8|0
100,328,85662,1,0
124,256,85847,2,0,B|198:208,1,70,8|0
194,141,86216,6,0,B|183:65|109:33,1,140,4|8
44,68,86770,1,0
40,144,86954,2,0,B|20:216,2,70,0|0|8
108,108,87508,1,0
116,32,87693,6,0,B|169:36|197:90|180:134,1,140,0|8
181,211,88247,1,0
252,184,88431,1,0
327,200,88616,1,0
252,184,88801,2,0,B|246:224|268:249,1,70,8|0
327,200,89170,6,0,B|343:148|331:104|295:64,1,140,4|8
372,45,89724,1,0
438,82,89908,2,0,B|406:116|394:160|410:212,1,140,0|8
485,195,90462,1,0
410,212,90647,2,0,B|430:255|403:297|403:297|405:348,1,140,0|8
330,350,91201,1,0
301,278,91385,2,0,B|260:296|253:342|253:342|185:342,1,140,0|8
182,266,91939,1,0
153,194,92124,6,0,B|105:214|105:214|77:190|77:190|25:210,1,140,4|8
144,332,92862,2,0,B|96:352|96:352|68:328|68:328|16:348,1,140,0|8
174,359,93601,2,0,B|214:303,1,70,0|0
184,156,93970,2,0,B|218:172|256:153,1,70,8|0
216,86,94339,2,0,B|219:44|255:24,1,70,0|0
292,92,94708,2,0,B|336:124|328:164,1,70,8|0
408,152,95078,6,0,B|388:208|388:208|412:248|412:248|392:296,1,140,4|8
328,256,95631,1,0
256,232,95816,2,0,B|242:263|242:263|266:303|266:303|246:359,1,140,0|8
184,312,96370,1,0
120,356,96554,2,0,B|100:300|100:300|124:260|124:260|110:229,1,140,0|8
56,180,97108,1,0
111,229,97293,2,0,B|155:200|155:200|193:224|193:224|234:195,1,140,0|8
304,197,97847,5,0
291,122,98031,2,0,B|247:90|247:90|203:98|203:98|143:50,1,140,4|8
144,144,98585,1,0
171,73,98770,2,0,B|123:49|67:85|67:137,1,140,0|8
144,144,99324,1,0
121,217,99508,2,0,B|173:234|221:195|221:151,2,140,0|8|0
144,144,100431,1,0
221,150,100616,2,0,B|273:94,1,70,8|0
257,22,100985,6,0,B|309:22|309:22|337:50|337:50|389:50,1,140,4|8
460,68,101539,1,0
464,144,101724,2,0,B|492:168|493:207,1,70,0|0
416,208,102093,2,0,B|383:229|384:272,1,70,8|0
308,252,102462,6,0,B|247:202,1,70,0|0
308,153,102831,2,0,B|249:99,1,70,8|0
198,156,103201,1,0
145,100,103385,1,0
68,105,103570,1,8
256,192,103939,12,0,106154
