osu file format v9

[General]
AudioFilename: Nightcore - Baby.mp3
AudioLeadIn: 0
PreviewTime: 36001
Countdown: 0
SampleSet: Soft
StackLeniency: 0.7
Mode: 0
LetterboxInBreaks: 0

[Editor]
DistanceSpacing: 1.5
BeatDivisor: 2
GridSize: 4

[Metadata]
Title:Baby (Nightcore Mix)
Artist:Justin Bieber ft. Ludacris
Creator:-Bakari-
Version:Boss' Easy
Source:
Tags:bossandy grumd

[Difficulty]
HPDrainRate:2
CircleSize:3
OverallDifficulty:2
ApproachRate:2
SliderMultiplier:0.59
SliderTickRate:1

[Events]
//Background and Video events
0,0,"bg.jpg"
//Break Periods
//Storyboard Layer 0 (Background)
//Storyboard Layer 1 (Fail)
//Storyboard Layer 2 (Pass)
//Storyboard Layer 3 (Foreground)
//Storyboard Sound Samples
//Background Colour Transformations
3,100,163,162,255

[TimingPoints]
555,369.230769230769,4,2,0,40,1,0
36001,-100,4,2,0,50,0,1
46893,-100,4,2,0,50,0,0
47816,-100,4,2,0,50,0,1
59631,-100,4,2,0,50,0,0
77354,-100,4,2,0,30,0,0
80308,-100,4,2,0,50,0,0
83262,-100,4,2,0,50,0,1
94154,-100,4,2,0,50,0,0
95078,-100,4,2,0,50,0,1
103570,-100,4,2,0,50,0,0
103570,-100,4,2,0,50,0,0
105047,-100,4,2,0,20,0,0

[Colours]
Combo1 : 255,242,89
Combo2 : 255,55,55
Combo3 : 254,173,24

[HitObjects]
336,320,12370,2,0,B|296:360|256:352|216:360|176:320,1,177,4|8
96,272,13847,2,0,B|120:224|80:192|80:192|120:160|96:112,1,177,0|8
152,44,15324,6,0,B|216:44,1,59,4|8
301,44,16062,2,0,B|360:44,1,59,0|8
415,113,16801,2,0,B|392:160|432:192|432:192|392:224|416:272,1,177,0|8
404,360,18278,6,0,B|347:355|328:319|296:293|301:237,1,177,4|8
212,236,19754,2,0,B|216:292|185:317|165:353|109:358,1,177,0|8
52,292,21231,5,4
104,220,21601,2,0,B|104:160,1,59,8|0
96,72,22339,1,8
172,28,22708,2,0,B|224:20|256:48|256:48|288:20|340:28,1,177,0|8
416,76,24185,6,0,B|416:136,1,59,4|8
440,312,25293,1,8
358,346,25662,2,0,B|342:354|318:354|302:346,1,59,0|8
212,343,26401,2,0,B|194:334|170:334|154:342,1,59,0|8
72,312,27139,6,0,B|72:252,1,59,4|8
52,168,27878,1,0
100,92,28247,1,8
172,148,28616,2,0,B|224:156|256:128|256:128|288:156|340:148,1,177,0|8
396,80,30093,6,0,B|436:120|428:160|436:200|396:240,1,177,4|8
336,304,31570,2,0,B|296:264|256:272|216:264|176:304,1,177,0|8
116,240,33047,6,0,B|76:200|84:160|76:120|116:80,1,177,4|8
200,104,34524,2,0,B|240:124|272:124|312:104,1,118,0|8
468,192,36001,5,4
468,280,36370,2,0,B|416:288|384:260|384:260|352:288|300:280,1,177,8|0
212,280,37847,2,0,B|160:288|128:260|128:260|96:288|44:280,1,177,8|4
64,192,39324,6,0,B|64:132,1,59,8|0
132,76,40062,1,8
176,152,40431,2,0,B|216:192|256:184|296:192|336:152,1,177,0|8
380,76,41908,5,4
420,156,42278,2,0,B|417:212|381:233|357:266|301:263,1,177,8|0
210,263,43754,2,0,B|154:266|130:233|94:212|92:156,1,177,8|4
256,88,45601,6,0,B|256:176,2,88.5,2|0|2
180,40,47078,1,0
100,76,47447,1,8
96,164,47816,6,0,B|136:204|128:244|136:284|96:324,1,177,4|8
176,360,49293,2,0,B|216:320|256:328|296:320|336:360,1,177,0|8
416,324,50770,6,0,B|376:284|384:244|376:204|416:164,1,177,4|8
504,160,52247,2,0,B|504:100,1,59,0|8
420,76,52985,2,0,B|377:33,1,59,0|8
340,116,53724,6,0,B|288:124|256:96|256:96|224:124|172:116,1,177,4|8
84,100,55201,2,0,B|8:140|16:192|8:244|84:284,1,236,0|4
180,136,57416,6,0,B|160:96|160:48,2,88.5,0|2|0
248,192,58893,1,2
180,248,59262,1,0
112,192,59631,5,4
344,320,60739,1,8
416,272,61108,2,0,B|392:224|432:192|432:192|392:160|416:112,1,177,0|8
360,44,62585,6,0,B|296:44,1,59,4|8
211,44,63323,2,0,B|152:44,1,59,0|8
97,113,64062,2,0,B|120:160|80:192|80:192|120:224|96:272,1,177,0|8
108,360,65539,6,0,B|165:355|184:319|216:293|211:237,1,177,4|8
300,236,67015,2,0,B|296:292|327:317|347:353|403:358,1,177,0|8
460,292,68492,5,4
408,220,68862,2,0,B|408:160,1,59,8|0
416,72,69600,1,8
340,28,69969,2,0,B|288:20|256:48|256:48|224:20|172:28,1,177,0|8
96,76,71446,6,0,B|96:136,1,59,4|8
72,312,72554,1,8
154,346,72923,2,0,B|170:354|194:354|210:346,1,59,0|8
300,343,73662,2,0,B|318:334|342:334|358:342,1,59,0|8
440,312,74400,6,0,B|440:252,1,59,4|8
460,168,75139,1,0
412,92,75508,1,8
340,148,75877,2,0,B|288:156|256:128|256:128|224:156|172:148,1,177,0|8
116,80,77354,6,0,B|76:120|84:160|76:200|116:240,1,177,4|2
176,304,78831,2,0,B|216:264|256:272|296:264|336:304,1,177,0|2
396,240,80308,6,0,B|436:200|428:160|436:120|396:80,1,177,4|8
312,104,81785,2,0,B|272:124|240:124|200:104,1,118,4|8
44,192,83262,5,4
44,280,83631,2,0,B|96:288|128:260|128:260|160:288|212:280,1,177,8|0
300,280,85108,2,0,B|352:288|384:260|384:260|416:288|468:280,1,177,8|4
448,192,86585,6,0,B|448:132,1,59,8|0
380,76,87323,1,8
336,152,87692,2,0,B|296:192|256:184|216:192|176:152,1,177,0|8
132,76,89169,5,4
92,156,89539,2,0,B|95:212|131:233|155:266|211:263,1,177,8|0
302,263,91015,2,0,B|358:266|382:233|418:212|420:156,1,177,8|4
256,88,92862,6,0,B|256:176,2,88.5,2|0|2
332,40,94339,1,0
412,76,94708,1,8
416,164,95077,6,0,B|376:204|384:244|376:284|416:324,1,177,4|8
336,360,96554,2,0,B|296:320|256:328|216:320|176:360,1,177,0|8
96,324,98031,6,0,B|136:284|128:244|136:204|96:164,1,177,4|8
8,160,99508,2,0,B|8:100,1,59,0|8
92,76,100246,2,0,B|135:33,1,59,0|8
172,116,100985,6,0,B|224:124|256:96|256:96|288:124|340:116,1,177,4|8
336,204,102462,2,0,B|296:244|256:236|216:244|176:204,1,177,0|8
256,192,103939,12,0,105416
