osu file format v7

[General]
AudioFilename: Justin Bieber feat Ludacris - Baby.mp3
AudioLeadIn: 0
PreviewTime: 45656
Countdown: 1
SampleSet: Normal
StackLeniency: 0.7
Mode: 0
LetterboxInBreaks: 1

[Editor]
Bookmarks: 16225,30301,45762,60530,75298,89374,104834,119602
DistanceSpacing: 0.800000011920929
BeatDivisor: 4
GridSize: 16

[Metadata]
Title:Baby
Artist:Justin Bieber ft. Ludacris
Creator:Kecco
Version:Normal
Source:
Tags:My worlds

[Difficulty]
HPDrainRate:5
CircleSize:4
OverallDifficulty:5
SliderMultiplier:1.4
SliderTickRate:2

[Events]
//Background and Video events
0,0,"There_Was_a_Time__Young_Leigh_by_JayAxer.jpg"
//Break Periods
//Storyboard Layer 0 (Background)
//Storyboard Layer 1 (Fail)
//Storyboard Layer 2 (Pass)
//Storyboard Layer 3 (Foreground)
//Storyboard Sound Samples
//Background Colour Transformations
3,100,163,162,255

[TimingPoints]
16236,461.502961310668,4,1,0,61,1,0
45762,-100,4,1,0,80,0,1
75298,-100,4,1,0,80,0,0
97450,-100,4,1,0,71,0,0
97912,-100,4,1,0,55,0,0
98604,-100,4,1,0,49,0,0
99296,-100,4,1,0,42,0,0
99988,-100,4,1,0,30,0,0
100691,-100,4,1,0,80,0,0
104844,-100,4,1,0,80,0,1
134380,-100,4,1,0,80,0,0

[Colours]
Combo1 : 255,0,0
Combo2 : 255,128,0
Combo3 : 0,0,0
Combo4 : 151,0,151

[HitObjects]
104,64,16236,2,0,B|176:64,1,70
232,64,16697,2,0,B|280:56|320:80,1,70,8|0
400,128,17389,1,0
400,128,17620,1,8
400,240,18082,1,0
304,296,18543,2,0,B|224:296,1,70,8|0
104,232,19235,1,0
104,232,19466,1,8
168,144,19928,6,0,B|176:88|256:96|264:40,1,140,0|8
262,47,20620,1,0
376,48,21081,2,0,B|432:48|464:96,1,70,0|8
440,184,21774,1,0
368,272,22235,2,0,B|280:296,1,70,8|0
240,288,22697,1,0
184,272,22927,1,0
136,248,23158,1,8
160,136,23620,6,0,B|248:88|320:160,3,140,0|8|0|8
344,144,25235,1,0
400,152,25466,2,0,B|456:168|456:296,1,140,0|8
432,320,26158,1,0
392,280,26389,1,0
336,288,26619,1,0
336,288,26850,1,8
256,216,27312,6,0,B|208:176|152:184|128:152,3,140,0|8|0|8
104,104,28927,1,0
152,72,29158,2,0,B|216:24|312:64,1,140,0|8
285,54,29850,1,0
256,160,30311,6,0,B|312:136|352:224|480:192,1,210
448,280,31465,2,0,B|448:320|400:336,1,70,8|0
304,272,32157,2,0,B|256:224|216:256,1,70,0|8
144,192,32850,5,0
144,80,33311,1,8
144,80,33542,1,0
256,80,34003,2,0,B|304:72|328:104|352:88,1,70,0|8
360,200,34696,6,0,B|296:264|208:224,1,140,0|8
176,232,35388,1,0
88,304,35849,1,0
88,304,36080,1,8
176,232,36542,2,0,B|264:232|312:184,1,140,0|8
306,189,37234,1,0
408,144,37695,2,0,B|440:112|424:80,1,70,0|8
312,56,38388,5,0
216,112,38849,1,8
306,189,39311,1,0
400,128,39772,1,8
312,56,40234,2,0,B|167:48|115:91|80:39,1,210
48,80,41157,1,0
64,192,41618,1,8
160,248,42080,5,0
272,272,42541,2,0,B|336:248|360:272,5,70,8|0|0|0|8|0
440,216,44156,2,0,B|392:120|320:112,1,140
288,104,44849,1,0
232,96,45079,1,0
176,104,45310,1,8
104,192,45772,6,0,B|72:232|112:344,1,140,0|8
184,248,46695,2,0,B|256:216|344:264,1,140,0|12
376,248,47387,2,0,B|336:160|392:96,1,140
352,64,48079,1,8
256,8,48541,1,0
160,72,49002,1,12
112,176,49464,6,0,B|72:248|112:328,1,140,0|8
216,312,50387,2,0,B|184:232|224:168,1,140,0|12
272,176,51079,2,0,B|360:152|384:184|416:160,1,140
440,208,51771,1,8
504,120,52233,1,0
400,72,52694,1,12
288,64,53156,6,0,B|208:48|144:88,1,140,0|8
128,192,54079,2,0,B|160:256|272:248,1,140,0|12
304,264,54771,2,0,B|368:216|448:208,1,140
432,152,55463,1,8
360,64,55925,1,0
256,32,56386,1,12
152,64,56848,6,0,B|96:104|120:136,2,70,0|0|8
224,160,57771,1,0
256,200,58002,1,0
312,192,58232,1,12
368,176,58463,2,0,B|472:160|512:96,1,140
400,56,59386,2,0,B|296:48|240:16,1,140
263,27,60078,1,12
168,88,60540,5,0
112,184,61001,1,8
208,248,61463,1,0
264,152,61924,1,10
320,152,62155,2,0,B|360:112|400:168|464:144,1,140
504,120,62847,1,8
416,48,63309,1,0
312,88,63770,1,10
208,136,64232,5,0
96,104,64693,1,8
208,136,65155,1,0
128,208,65616,1,10
176,240,65847,2,0,B|248:240|248:320|320:328,1,140
344,312,66539,1,8
456,344,67001,1,0
496,240,67462,1,10
392,192,67924,5,0
280,192,68385,1,8
168,192,68847,1,0
280,192,69308,1,10
280,136,69539,2,0,B|208:104|304:48|192:32,1,140
152,48,70231,2,0,B|72:48|40:128,2,140,8|0|10
200,152,71616,6,0,B|256:112|232:80,2,70,0|0|8
312,160,72539,1,0
360,184,72770,1,0
400,224,73000,1,10
360,264,73231,2,0,B|256:280|216:344,1,140
128,296,74154,2,0,B|136:192|168:136,1,140
156,159,74846,1,10
56,112,75308,6,0,B|88:72|136:80,1,70
176,64,75769,2,0,B|224:56|264:80,1,70,8|0
352,104,76461,1,0
336,160,76692,1,8
432,216,77154,1,0
424,328,77615,2,0,B|344:328,1,70,8|0
312,224,78307,1,0
312,224,78538,1,8
344,144,79000,6,0,B|336:88|256:96|248:40,1,140,0|8
248,48,79692,2,0,B|241:96|161:88|153:144,1,140
153,143,80384,1,8
72,224,80846,1,0
160,296,81307,2,0,B|248:320,1,70,8|0
336,272,82000,2,0,B|268:253,1,70,0|8
272,144,82692,6,0,B|184:96|112:168,1,140,0|8
80,56,83615,1,0
192,56,84076,1,8
248,56,84307,1,0
304,56,84538,2,0,B|392:96|360:200,1,140,0|8
367,168,85230,1,0
352,280,85691,1,0
352,280,85922,1,8
244,229,86384,6,0,B|274:201|307:207|341:168,2,105
240,344,87538,1,0
240,344,87768,1,8
243,231,88230,2,0,B|213:203|180:209|146:170,2,105,0|0|0
288,128,89383,6,0,B|232:152|192:64|64:96,1,210
72,200,90537,2,0,B|72:240|120:256,1,70,8|0
224,264,91229,2,0,B|272:216|312:248,1,70,0|8
392,216,91922,5,0
392,104,92383,1,8
392,104,92614,1,0
280,104,93076,1,0
224,104,93306,5,8
176,80,93537,1,0
128,104,93768,2,0,B|80:144|80:192,1,70
72,216,94230,1,8
112,256,94460,2,0,B|160:232|184:280|208:264,1,70
224,296,94922,1,0
280,288,95153,2,0,B|352:296|368:320,1,70,8|0
400,304,95614,1,0
376,192,96076,2,0,B|296:152|272:208|216:168,1,140,8|0
184,168,96767,2,0,B|152:136|168:104,1,70,0|8
256,32,97460,6,0,B|256:112,1,70
312,120,97922,2,0,B|256:184|200:136|184:96,1,140
192,176,98614,2,0,B|197:196|253:244|309:180,1,140
360,184,99306,2,0,B|360:328,1,140
416,320,99998,2,0,B|488:288|480:192,1,140
344,88,101152,5,0
120,88,102075,1,0
232,280,102998,2,0,B|232:224|232:120,1,140
176,40,103921,1,0
288,40,104382,1,0
405,56,104844,6,0,B|440:152|408:192,1,140,0|8
328,136,105767,2,0,B|256:168|168:120,1,140,0|10
136,136,106459,2,0,B|176:224|120:288,1,140
160,320,107152,1,8
256,376,107613,1,0
352,312,108074,1,10
400,208,108536,6,0,B|440:136|400:56,1,140,0|8
296,72,109459,2,0,B|328:152|288:216,1,140,0|10
240,208,110151,2,0,B|152:232|128:200|96:224,1,140
72,176,110843,1,8
8,264,111305,1,0
112,312,111766,1,10
224,320,112228,6,0,B|304:336|368:296,1,140,0|8
384,192,113151,2,0,B|352:128|240:136,1,140,0|10
208,120,113843,2,0,B|144:168|64:176,1,140
80,232,114535,1,8
152,320,114997,1,0
256,352,115458,1,10
360,320,115920,6,0,B|416:280|392:248,2,70,0|0|8
288,224,116843,1,0
256,184,117074,1,0
200,192,117304,1,10
144,208,117535,2,0,B|40:224|0:288,1,140
112,328,118458,2,0,B|216:336|272:368,1,140
249,357,119150,1,10
344,296,119612,5,0
400,200,120073,1,8
304,136,120535,1,0
248,232,120996,1,12
192,232,121227,2,0,B|152:272|112:216|48:240,1,140
8,264,121919,1,8
96,336,122381,1,0
200,296,122842,1,12
304,248,123304,5,0
416,280,123765,1,8
304,248,124227,1,0
384,176,124689,1,12
336,144,124919,2,0,B|264:144|264:64|192:56,1,140
168,72,125611,1,8
56,40,126073,1,0
16,144,126534,1,12
120,192,126996,5,0
232,192,127457,1,8
344,192,127919,1,0
232,192,128380,1,12
232,248,128611,2,0,B|304:280|208:336|320:352,1,140
360,336,129303,2,0,B|440:336|472:256,2,140,8|0|12
312,232,130688,6,0,B|256:272|280:304,2,70,0|0|8
200,224,131611,1,0
152,200,131842,1,0
112,160,132072,1,12
152,120,132303,2,0,B|256:104|296:40,1,140
384,88,133226,2,0,B|376:192|344:248,1,140
356,225,133918,1,8
256,176,134380,1,4
