osu file format v7

[General]
AudioFilename: Justin Bieber feat Ludacris - Baby.mp3
AudioLeadIn: 0
PreviewTime: 45656
Countdown: 1
SampleSet: Normal
StackLeniency: 0.7
Mode: 0
LetterboxInBreaks: 1

[Editor]
Bookmarks: 16225,30301,45762,60530,75298,89374,104834,119602,149138,163906,178675
DistanceSpacing: 0.899999976158142
BeatDivisor: 4
GridSize: 8

[Metadata]
Title:Baby
Artist:Justin Bieber ft. Ludacris
Creator:Kecco
Version:Hard
Source:
Tags:My worlds

[Difficulty]
HPDrainRate:7
CircleSize:5
OverallDifficulty:7
SliderMultiplier:2
SliderTickRate:2

[Events]
//Background and Video events
0,0,"There_Was_a_Time__Young_Leigh_by_JayAxer.jpg"
//Break Periods
2,134580,148248
//Storyboard Layer 0 (Background)
//Storyboard Layer 1 (Fail)
//Storyboard Layer 2 (Pass)
//Storyboard Layer 3 (Foreground)
Sprite,Foreground,Centre,"Senza titolo-1.png",320,240 M,0,147302,,246,128 F,0,147302,149148,0,1 S,0,149148,149264,1.00768,1.14592 S,0,149264,149379,1.14592,1.00768 S,0,149379,,1.00768 S,0,149379,150994,1.00768,1.009295 S,0,149379,163570,1.00768,1.021874 S,0,151456,163570,1.716318,1.021874 S,0,152840,,1.011142 R,0,156532,156648,-0.03072037,-0.3686403 R,0,156648,158378,-0.3686403,-0.01536043
//Storyboard Sound Samples
//Background Colour Transformations
3,100,163,162,255

[TimingPoints]
16236,461.502961310668,4,1,0,61,1,0
45762,-100,4,1,0,80,0,1
75298,-100,4,1,0,80,0,0
97450,-100,4,1,0,71,0,0
97912,-100,4,1,0,55,0,0
98604,-100,4,1,0,49,0,0
99296,-100,4,1,0,42,0,0
99988,-100,4,1,0,30,0,0
100691,-100,4,1,0,80,0,0
104844,-100,4,1,0,80,0,1
134380,-100,4,1,0,80,0,0
163916,-100,4,1,0,80,0,1
193453,-100,4,1,0,80,0,0

[Colours]
Combo1 : 255,0,0
Combo2 : 255,128,0
Combo3 : 0,0,0
Combo4 : 151,0,151

[HitObjects]
64,64,16235,2,0,B|88:128|168:120|184:232,1,200,0|8
264,216,16928,1,0
416,176,17389,2,0,B|472:192|504:264,2,100,0|8|0
392,96,18082,1,0
272,64,18428,1,0
272,64,18543,2,0,B|232:32|192:96|160:72,1,100,8|0
40,152,19235,5,0
128,152,19466,1,8
80,216,19697,1,0
160,232,19928,2,0,B|248:208|328:304,1,150
296,272,20389,1,8
376,288,20620,2,0,B|432:248|480:312,2,100
296,272,21312,1,0
304,192,21543,6,0,B|256:120|192:128,1,100
192,16,22120,1,0
152,16,22235,1,8
128,96,22466,1,0
160,120,22581,1,0
184,152,22697,2,0,B|200:200|192:272,1,100
128,208,23158,1,8
48,208,23389,1,0
80,280,23620,6,0,B|163:247|144:327|229:317,1,150
215,317,24081,1,8
256,248,24312,1,0
304,312,24543,2,0,B|368:256|360:192,3,100,0|0|8|0
424,184,25466,1,0
328,112,25812,5,0
328,112,25927,1,8
248,104,26158,1,0
168,112,26389,1,0
96,144,26619,1,0
48,208,26850,1,8
48,208,26965,1,0
48,208,27081,1,0
128,224,27312,6,0,B|200:232|232:304,1,100
212,271,27773,2,0,B|256:232|328:224,1,100,8|0
301,228,28235,2,0,B|336:272|408:288,1,100
384,281,28696,1,8
456,248,28927,2,0,B|456:168|416:144,1,100
464,80,29388,5,0
424,72,29504,1,0
384,72,29619,1,8
312,112,29850,1,0
168,40,30311,6,0,B|96:40|56:112,1,100,0|8
152,120,30773,1,0
224,152,31004,2,0,B|328:152|368:224,1,150
357,207,31465,1,8
432,240,31696,1,0
288,312,32157,2,0,B|208:256|160:320,2,100,0|8|0
224,360,32850,1,0
152,328,33080,5,0
152,328,33196,1,0
152,328,33311,1,8
88,280,33542,1,0
152,232,33773,6,0,B|216:216|216:152,2,100
88,280,34465,1,0
56,208,34696,2,0,B|24:168|56:96,1,100
49,112,35042,1,0
49,112,35157,2,0,B|112:80|128:32,1,100,8|0
280,40,35849,6,0,B|360:48|392:104,2,100,0|8|0
296,120,36542,1,0
256,120,36657,1,0
216,112,36772,1,0
208,32,37003,2,0,B|72:24|80:176,1,200,8|0
144,200,37695,6,0,B|72:272,1,100,0|8
73,270,38157,1,0
136,320,38388,1,0
208,288,38618,1,0
208,288,38734,1,0
288,192,39080,2,0,B|352:256|408:232,1,100
432,184,39541,5,0
408,104,39772,2,0,B|352:48|288:72,1,100,8|0
319,65,40118,1,0
319,65,40234,2,0,B|248:120|192:80,1,100
144,88,40695,1,8
192,152,40926,5,0
120,192,41157,1,0
176,248,41387,1,0
248,216,41618,1,8
296,152,41849,2,0,B|352:136|416:200,1,100
456,320,42541,5,8
456,320,42772,1,0
376,328,43003,2,0,B|328:288|256:336,3,100,0|0|8|0
128,296,44156,2,0,B|56:216|176:200|80:104,1,200
136,48,44849,5,0
192,104,45079,1,0
248,48,45310,1,0
296,112,45541,1,0
368,136,45772,6,0,B|480:168|496:288,1,200,0|8
416,296,46464,1,0
384,312,46579,1,0
344,328,46695,2,0,B|280:232|160:200,1,200,0|10
224,136,47387,1,0
304,112,47618,1,0
240,64,47848,1,0
256,192,48079,12,10,49002
224,208,49464,6,0,B|176:168|80:240,1,150
87,234,49925,1,8
64,160,50156,1,0
88,128,50271,1,0
128,120,50387,2,0,B|192:168|336:104,1,200,0|10
400,104,51079,2,0,B|320:208|360:224,1,100
348,189,51540,1,0
256,192,51771,12,10,52694
136,80,53156,6,0,B|240:200|328:208,1,200,0|8
224,240,53848,1,0
184,248,53963,1,0
144,248,54079,1,0
32,360,54540,1,10
64,336,54656,1,0
72,288,54771,2,0,B|32:240|0:80,1,200
256,192,55463,12,10,56386
120,104,56848,5,0
184,152,57079,1,0
256,120,57309,1,8
296,192,57540,2,0,B|384:192|416:248,1,100
472,224,58002,1,0
416,280,58232,1,10
336,296,58463,6,0,B|240:312|200:288,1,100
8,240,59386,1,0
32,208,59501,1,0
48,176,59617,2,0,B|32:96|112:64,1,100
74,86,60078,1,10
208,32,60540,6,0,B|176:80|240:144,1,100
296,152,61001,2,0,B|275:198|239:158|221:246,1,100,8|0
256,296,61463,1,0
336,280,61694,1,0
408,248,61924,2,0,B|336:200|480:160|368:72,1,200,12|0
288,64,62617,1,0
208,56,62847,6,0,B|88:64|32:200,1,200,8|0
64,240,63540,1,0
72,256,63655,1,0
80,272,63770,1,12
232,224,64232,6,0,B|288:232|328:296|352:280,2,100,0|0|8
272,160,64924,1,0
240,136,65039,1,0
208,112,65155,2,0,B|160:56|24:32,1,200,0|12
24,112,65847,2,0,B|64:216|224:224,1,200
200,296,66539,1,8
280,288,66770,1,0
360,272,67001,1,0
360,272,67116,1,0
360,272,67232,1,0
432,240,67462,1,12
408,80,67924,6,0,B|320:120|192:80,1,200,0|8
136,120,68616,1,0
104,144,68731,1,0
88,184,68847,2,0,B|176:224|304:184,1,200,0|12
335,244,69539,2,0,B|463:164|399:68,1,200
328,80,70231,1,8
328,80,70347,1,0
248,80,70577,1,0
248,80,70693,1,0
168,80,70924,1,0
88,80,71154,1,12
112,240,71616,6,0,B|200:232|232:304,2,100,0|0|8
152,168,72308,1,0
232,176,72539,2,0,B|296:152|344:200,1,100
327,185,73000,1,12
360,256,73231,1,0
384,288,73346,1,0
424,272,73462,2,0,B|488:240|464:168,1,100
448,112,73923,1,8
384,64,74154,5,0
344,48,74269,1,0
304,40,74385,2,0,B|224:40|160:72,1,100
205,53,74846,1,12
205,53,75077,1,0
205,53,75308,1,0
56,96,75769,6,0,B|48:144|64:216,1,100,8|0
120,248,76231,1,0
192,208,76462,1,0
240,272,76692,2,0,B|328:208|312:176,1,100,8|0
336,128,77154,1,0
264,32,77500,2,0,B|152:56|192:168,1,150
120,176,78077,5,0
176,232,78308,1,0
112,272,78538,1,8
104,352,78769,1,0
176,312,79000,2,0,B|264:272|344:336|392:312,1,200
372,317,79577,1,0
372,317,79692,2,0,B|328:224|424:176|368:120,1,200
360,48,80384,5,8
296,88,80615,1,0
224,56,80846,2,0,B|160:64,1,50
128,128,81192,2,0,B|192:144,1,50,0|8
208,216,81538,1,0
368,232,82000,6,0,B|328:200|280:224,2,50,0|0|8
432,280,82461,1,0
376,336,82692,2,0,B|296:296|240:344,1,100
200,336,83153,2,0,B|104:296,1,100,8|0
96,216,83615,1,0
96,136,83846,2,0,B|192:104|224:168,1,100,0|8
264,168,84307,1,0
336,200,84538,2,0,B|424:144|480:208,2,150
304,232,85346,1,0
280,264,85461,1,0
200,288,85692,5,0
128,248,85922,1,8
72,192,86153,1,0
128,136,86384,2,0,B|176:64|272:96,2,150
256,232,87538,5,0
328,264,87768,1,8
384,208,87999,1,0
384,128,88230,2,0,B|336:56|240:88,2,150
256,224,89384,5,0
256,224,89499,1,0
256,224,89614,1,0
304,288,89845,1,0
224,304,90076,2,0,B|160:248|128:304|80:256,1,150
85,260,90537,1,8
80,184,90768,1,0
120,32,91230,6,0,B|168:88|248:48,1,100,0|8
288,56,91691,1,0
360,88,91922,2,0,B|424:64|504:144,2,150
376,128,92730,1,0
400,160,92845,1,0
432,232,93076,2,0,B|384:248|320:192,1,100,0|8
272,168,93537,5,0
208,216,93768,2,0,B|256:256|320:288,1,100
368,280,94230,2,0,B|400:328|384:376,1,100,8|0
304,360,94691,2,0,B|256:408|168:344,1,100
160,304,95153,1,8
96,256,95383,1,0
72,184,95614,2,0,B|48:72|176:56,2,150
152,176,96537,1,0
152,176,96652,1,0
152,176,96768,1,0
232,176,96999,1,8
208,16,97460,6,0,B|352:16,1,100
344,88,97922,2,0,B|240:136|136:80,1,200
152,168,98614,2,0,B|256:216|360:160,1,200
344,248,99306,2,0,B|240:296|136:240,1,200
152,328,99998,2,0,B|368:328,1,200
424,288,100691,5,0
384,216,100921,1,0
448,168,101152,2,0,B|392:112|328:128,1,100
328,56,101614,1,0
248,56,101844,1,0
96,120,102306,6,0,B|32:176|48:248,2,100
176,120,102998,1,0
256,256,103460,1,0
344,120,103921,1,0
176,120,104383,1,0
40,40,104844,6,0,B|136:16|224:104,1,200,0|8
288,144,105536,1,0
360,184,105767,2,0,B|456:176|472:248,2,100,0|0|12
312,240,106459,2,0,B|256:208|176:256,1,100
192,312,106921,1,0
272,312,107152,2,0,B|328:312,1,50,8|0
400,312,107498,2,0,B|344:312,1,50
328,232,107844,1,0
328,232,107959,1,0
328,232,108075,1,12
408,96,108536,6,0,B|344:64|192:64,1,200,0|8
152,112,109228,1,0
120,136,109344,1,0
88,160,109459,2,0,B|40:200|80:272,2,100,0|0|12
160,192,110151,2,0,B|240:160|288:232,1,100
264,280,110613,1,0
328,224,110844,1,8
328,224,110959,1,0
408,224,111190,1,0
408,224,111305,1,0
488,224,111536,1,0
488,224,111651,1,0
488,224,111767,1,12
440,72,112228,6,0,B|392:40|320:80,2,100,0|0|8
392,136,112920,1,0
440,200,113151,2,0,B|376:224|312:184,2,100,0|0|12
392,136,113843,2,0,B|264:136,1,100
208,136,114305,1,0
208,56,114536,2,0,B|88:64|32:200,1,200,8|0
64,240,115228,1,0
72,256,115343,1,0
80,272,115459,1,12
120,104,115920,5,0
184,152,116151,1,0
256,120,116382,1,8
296,192,116612,2,0,B|384:192|416:248,1,100
472,224,117074,1,0
416,280,117305,1,12
336,296,117535,6,0,B|240:312|200:288,1,100
8,240,118458,1,0
32,208,118574,1,0
48,176,118689,2,0,B|32:96|112:64,1,100
75,85,119151,1,12
232,64,119612,6,0,B|152:64|136:160,1,100
216,152,120074,2,0,B|237:198|273:158|291:246,1,100,8|0
256,296,120535,1,0
176,280,120766,1,0
104,248,120997,2,0,B|176:200|32:160|144:72,1,200,10|0
224,64,121689,1,0
304,64,121920,6,0,B|424:72|480:208,1,200,8|0
448,240,122612,1,0
440,256,122727,1,0
432,272,122843,1,10
288,224,123304,6,0,B|232:232|192:296|168:280,2,100,0|0|8
240,160,123996,1,0
272,136,124112,1,0
304,112,124227,2,0,B|352:56|488:32,1,200,0|10
488,112,124919,2,0,B|448:216|288:224,1,200
312,296,125612,1,8
232,288,125842,1,0
152,272,126073,1,0
152,272,126189,1,0
152,272,126304,1,0
80,240,126535,1,10
104,80,126996,6,0,B|192:120|320:80,1,200,0|8
376,120,127688,1,0
408,144,127804,1,0
424,184,127919,2,0,B|336:224|208:184,1,200,0|10
177,244,128611,2,0,B|49:164|113:68,1,200
184,80,129304,1,8
184,80,129419,1,0
264,80,129650,1,0
264,80,129765,1,0
344,80,129996,1,0
424,80,130227,1,10
400,240,130688,6,0,B|312:232|280:304,2,100,0|0|8
360,168,131380,1,0
280,176,131611,2,0,B|216:152|168:200,1,100
184,185,132073,1,10
152,256,132303,1,0
128,288,132419,1,0
88,272,132534,2,0,B|24:240|48:168,1,100
64,112,132996,1,8
128,64,133227,5,0
168,48,133342,1,0
208,40,133457,2,0,B|288:40|352:72,1,100
306,53,133919,1,10
306,53,134150,1,0
306,53,134380,1,0
384,328,149148,5,0
264,328,149494,1,0
264,328,149610,2,0,B|160:328,1,100,8|0
80,192,150302,1,0
80,192,150417,1,0
80,192,150533,1,8
240,200,150994,5,0
360,200,151340,2,0,B|304:200,1,50,0|8
312,120,151687,1,0
360,56,151917,1,0
280,56,152148,1,0
200,56,152379,1,8
112,192,152840,6,0,B|176:192,1,50
240,192,153187,2,0,B|176:192,1,50,0|8
192,272,153533,1,0
352,272,153994,2,0,B|456:272,1,100,0|8
400,120,154686,5,0
280,120,155033,1,0
280,120,155148,1,8
200,120,155379,1,0
40,120,155840,1,0
120,120,156071,1,8
256,208,156532,6,0,B|256:320,1,100
336,304,156994,1,8
416,304,157225,1,0
416,224,157455,2,0,B|432:144|376:104,1,100
336,80,157917,1,8
176,80,158378,6,0,B|96:80|96:112,1,50
96,160,158725,1,0
96,160,158840,1,0
168,200,159071,2,0,B|256:208|256:288,1,100
296,312,159532,1,0
296,312,159763,1,8
256,160,160224,1,0
256,192,160571,12,0,163570
472,40,163916,6,0,B|376:16|288:104,1,200,0|8
224,144,164609,1,0
152,184,164839,2,0,B|56:176|40:248,2,100,0|0|10
200,240,165532,2,0,B|256:208|336:256,1,100
320,312,165993,1,0
240,312,166224,2,0,B|184:312,1,50,8|0
112,312,166570,2,0,B|168:312,1,50
184,232,166916,1,0
184,232,167032,1,0
184,232,167147,1,10
104,96,167608,6,0,B|168:64|320:64,1,200,0|8
360,112,168301,1,0
392,136,168416,1,0
424,160,168531,2,0,B|472:200|432:272,2,100,0|0|10
352,192,169224,2,0,B|272:160|224:232,1,100
248,280,169685,1,0
184,224,169916,1,8
184,224,170031,1,0
104,224,170262,1,0
104,224,170377,1,0
24,224,170608,1,0
24,224,170724,1,0
24,224,170839,1,10
72,72,171300,6,0,B|120:40|192:80,2,100,0|0|8
120,136,171993,1,0
72,200,172224,2,0,B|136:224|200:184,2,100,0|0|10
120,136,172916,2,0,B|248:136,1,100
304,136,173377,1,0
304,56,173608,2,0,B|424:64|480:200,1,200,8|0
448,240,174300,1,0
440,256,174415,1,0
432,272,174531,1,10
392,104,174993,5,0
328,152,175223,1,0
256,120,175454,1,8
216,192,175685,2,0,B|128:192|96:248,1,100
40,224,176146,1,0
96,280,176377,1,10
176,296,176608,6,0,B|272:312|312:288,1,100
504,240,177531,1,0
480,208,177646,1,0
464,176,177762,2,0,B|480:96|400:64,1,100
436,85,178223,1,10
208,32,178685,6,0,B|176:80|240:144,1,100
296,152,179146,2,0,B|275:198|239:158|221:246,1,100,8|0
256,296,179608,1,0
336,280,179838,1,0
408,248,180069,2,0,B|336:200|480:160|368:72,1,200,12|0
288,64,180761,1,0
208,56,180992,6,0,B|88:64|32:200,1,200,8|0
64,240,181684,1,0
72,256,181799,1,0
80,272,181915,1,12
232,224,182377,6,0,B|288:232|328:296|352:280,2,100,0|0|8
272,160,183069,1,0
240,136,183184,1,0
208,112,183300,2,0,B|160:56|24:32,1,200,0|12
24,112,183992,2,0,B|64:216|224:224,1,200
200,296,184684,1,8
280,288,184915,1,0
360,272,185146,1,0
360,272,185261,1,0
360,272,185376,1,0
432,240,185607,1,12
408,80,186069,6,0,B|320:120|192:80,1,200,0|8
136,120,186761,1,0
104,144,186876,1,0
88,184,186992,2,0,B|176:224|304:184,1,200,0|12
335,244,187684,2,0,B|463:164|399:68,1,200
328,80,188376,1,8
328,80,188491,1,0
248,80,188722,1,0
248,80,188838,1,0
168,80,189068,1,0
88,80,189299,1,12
112,240,189761,6,0,B|200:232|232:304,2,100,0|0|8
152,168,190453,1,0
232,176,190684,2,0,B|296:152|344:200,1,100
327,185,191145,1,12
360,256,191376,1,0
384,288,191491,1,0
424,272,191607,2,0,B|488:240|464:168,1,100
448,112,192068,1,8
384,64,192299,5,0
344,48,192414,1,0
304,40,192530,2,0,B|224:40|160:72,1,100
205,53,192991,1,4
205,53,193222,1,4
205,53,193453,1,4
