osu file format v7

[General]
AudioFilename: Justin Bieber feat Ludacris - Baby.mp3
AudioLeadIn: 0
PreviewTime: 45656
Countdown: 1
SampleSet: Normal
StackLeniency: 0.7
Mode: 0
LetterboxInBreaks: 1

[Editor]
Bookmarks: 16225,30301,45762,60530,75298
DistanceSpacing: 1
BeatDivisor: 4
GridSize: 8

[Metadata]
Title:Baby
Artist:Justin Bieber ft. Ludacris
Creator:Kecco
Version:Easy
Source:
Tags:My worlds

[Difficulty]
HPDrainRate:3
CircleSize:3
OverallDifficulty:4
SliderMultiplier:1.1
SliderTickRate:2

[Events]
//Background and Video events
0,0,"There_Was_a_Time__Young_Leigh_by_JayAxer.jpg"
//Break Periods
//Storyboard Layer 0 (Background)
//Storyboard Layer 1 (Fail)
//Storyboard Layer 2 (Pass)
//Storyboard Layer 3 (Foreground)
//Storyboard Sound Samples
//Background Colour Transformations
3,100,163,162,255

[TimingPoints]
16236,461.502961310668,4,1,0,61,1,0
45762,-100,4,1,0,80,0,1
75298,-100,4,1,0,80,0,0

[Colours]
Combo1 : 255,0,0
Combo2 : 255,128,0
Combo3 : 0,0,0
Combo4 : 151,0,151

[HitObjects]
72,40,16236,2,0,B|176:48|160:192|288:216,1,220,0|0
336,200,17620,1,8
320,312,18082,2,0,B|248:272|224:328|136:280,1,110,0|8
104,280,19005,1,0
104,280,19466,1,8
104,168,19928,6,0,B|48:120|96:8,1,110,0|8
184,48,20851,2,0,B|336:48,1,110,0|8
384,112,21774,1,0
312,200,22235,1,8
424,216,22697,1,0
352,296,23158,1,8
240,280,23620,6,0,B|144:192|64:224,3,110,0|8|0|8
136,112,25466,2,0,B|232:24|312:56,3,110,0|8|0|8
336,80,27312,1,0
432,128,27773,1,8
344,192,28235,1,0
416,280,28696,1,8
312,320,29158,2,0,B|152:320,2,110,0|8|0
312,208,30542,6,0,B|144:208,1,110,8|0
112,144,31465,1,8
184,56,31927,2,0,B|328:32|368:88,1,110,0|8
400,72,32850,1,0
464,160,33311,1,8
408,256,33773,2,0,B|336:296|248:248,1,110,0|8
192,256,34696,6,0,B|80:184|160:112,1,110,0|8
160,64,35619,1,0
264,16,36080,1,8
360,64,36542,2,0,B|424:96|432:192,1,110,0|8
360,240,37465,1,0
264,296,37926,1,8
152,280,38388,6,0,B|80:264|80:184,1,110,0|8
184,184,39311,1,0
296,184,39772,1,8
408,184,40234,2,0,B|400:120|320:96,1,110,0|8
232,96,41157,1,0
120,96,41618,1,8
96,200,42080,6,0,B|400:200,1,220
416,160,43464,1,8
256,192,43926,12,0,45772
256,192,46233,5,8
144,168,46695,2,0,B|176:96|248:96,1,110,0|10
280,96,47387,2,0,B|333:95|365:167,1,110
368,224,48079,1,8
256,256,48541,1,0
144,224,49002,1,10
256,256,49464,6,0,B|224:192|304:144|240:144,1,110,0|8
200,56,50387,2,0,B|272:40|304:72|336:56,1,110,0|10
360,64,51079,2,0,B|470:75|464:128|462:123,1,110
456,160,51771,1,8
384,232,52233,1,0
304,160,52694,1,10
224,80,53156,6,0,B|160:48|96:80,1,110,0|8
72,176,54079,2,0,B|144:160|176:192|192:176,1,110,0|10
232,192,54771,2,0,B|304:176|336:208|368:192,1,110,0|0
384,232,55463,1,8
472,160,55925,1,0
376,104,56386,1,10
256,192,56848,12,0,60078
256,192,60540,5,0
160,136,61001,1,8
144,248,61463,1,0
240,304,61924,1,12
240,304,62155,2,0,B|296:272|352:264,1,110
392,248,62847,2,0,B|472:248|488:168,2,110,8|0|12
288,280,64232,5,0
216,200,64693,1,8
328,184,65155,1,0
256,96,65616,1,12
256,40,65847,2,0,B|208:0|144:32,1,110
104,56,66539,2,0,B|24:56|16:128,2,110,8|0|12
144,160,67924,5,0
208,248,68385,1,8
296,176,68847,1,0
368,264,69308,1,12
424,256,69539,2,0,B|496:192|480:152,1,110
456,120,70231,1,8
384,56,70693,1,0
296,120,71154,1,12
256,192,71616,12,4,75308
