osu file format v9

[General]
AudioFilename: Nightcore_ Baby.mp3
AudioLeadIn: 0
PreviewTime: 38173
Countdown: 1
SampleSet: Normal
StackLeniency: 0.8
Mode: 0
LetterboxInBreaks: 1

[Editor]
Bookmarks: 154934
DistanceSpacing: 0.8
BeatDivisor: 4
GridSize: 32

[Metadata]
Title:Baby (Nightcore Mix)
Artist:Justin Bieber feat. Ludacris
Creator:CDFA
Version:Baby
Source:
Tags:

[Difficulty]
HPDrainRate:2
CircleSize:5
OverallDifficulty:5
ApproachRate:8
SliderMultiplier:2
SliderTickRate:1

[Events]
//Background and Video events
0,0,"HQBG.jpg"
//Break Periods
2,62988,73769
2,112219,123769
//Storyboard Layer 0 (Background)
//Storyboard Layer 1 (Fail)
//Storyboard Layer 2 (Pass)
//Storyboard Layer 3 (Foreground)
//Storyboard Sound Samples
//Background Colour Transformations
3,100,163,162,255

[TimingPoints]
1250,384.615384615385,4,1,0,100,1,0
37019,-100,4,2,0,100,0,0
37884,-100,4,2,0,100,0,0
37980,-100,4,1,0,100,0,0
82115,-133.333333333333,4,1,0,100,0,0
82691,-200,4,1,0,100,0,0
83558,-100,4,1,0,100,0,0
126346,-100,4,2,0,3,0,0
126410,-100,4,1,0,100,0,0
128077,-200,4,1,0,100,0,0
128365,-100,4,1,0,100,0,0
133685,-100,4,2,0,100,0,0
136570,-100,4,1,0,100,0,0
154934,-100,4,1,0,100,0,0

[HitObjects]
40,192,12981,1,0
97,135,13173,1,0
153,191,13365,1,0
96,248,13557,2,0,B|93:304|135:341|211:342,1,150
313,341,14129,1,0
376,192,14519,5,0
433,135,14711,1,8
377,79,14904,1,0
320,136,15096,2,0,B|180:204|23:141,1,300
142,33,16057,5,0
142,113,16250,1,8
142,193,16442,1,0
142,273,16634,2,0,B|184:304|243:238|296:288,1,150
372,365,17211,1,0
485,252,17596,5,0
485,172,17788,2,0,B|486:126|433:88,1,100,8|0
378,33,18173,2,0,B|285:93|202:9|83:112,1,300
94,264,19134,5,0
150,320,19318,1,8
207,263,19503,1,0
150,206,19688,2,0,B|149:104|184:172|181:43,1,150
181,62,20288,1,0
328,120,20673,5,0
384,64,20865,1,8
441,121,21057,1,0
385,177,21250,2,0,B|320:296|224:168|104:312,1,300
80,136,22211,1,0
99,58,22404,1,8
179,58,22596,1,0
256,40,22788,6,2,B|256:144,1,100
384,192,23173,2,2,B|272:192,1,100,10|2
128,192,23557,2,2,B|240:192,1,100
256,336,23942,2,2,B|256:224,1,100,10|2
256,156,24327,2,0,B|256:48|144:48,2,150,0|0|8
256,316,25288,5,0
313,259,25481,2,0,B|364:270|401:208,1,100,8|0
453,159,25865,2,0,B|511:12,2,150,0|0|8
256,316,26827,5,0
199,259,27019,2,0,B|148:270|111:208,1,100,8|0
59,159,27404,2,0,B|1:12,2,150,0|0|8
59,319,28365,1,0
59,319,28557,1,8
59,319,28750,5,0
139,319,28942,2,2,B|232:363|348:306,1,200,2|10
389,256,29519,1,0
390,144,29904,5,0
333,87,30096,1,8
277,143,30288,1,0
334,200,30481,2,0,B|335:265|312:303|224:299,1,150
248,298,31057,1,8
128,192,31442,5,0
71,135,31634,1,8
127,79,31827,1,0
184,136,32019,2,2,B|256:80|288:216|352:112,1,150
408,61,32596,1,0
464,117,32788,1,0
407,174,32981,1,0
464,231,33173,1,8
408,287,33365,1,0
351,344,33558,2,0,B|197:374|45:344,1,300
256,192,34519,5,2
256,192,34711,1,10
256,192,35096,1,2
256,352,35481,2,0,B|256:248,2,100,8|0|0
176,352,36058,1,0
120,296,36250,1,8
63,239,36442,2,2,B|29:124|94:50,1,200
256,32,37211,5,0
256,112,37404,2,0,B|208:168|304:152|248:208,1,100
257,278,37788,1,0
128,352,38173,6,2,B|64:352|32:288|32:224|42:184,1,200,2|10
38,118,38750,1,0
94,61,38942,2,2,B|308:84,1,200,2|10
236,139,39519,2,2,B|449:165,1,200
434,243,40096,1,8
434,243,40192,1,0
377,299,40384,1,0
377,299,40480,1,0
299,318,40673,1,0
281,282,40769,1,0
258,249,40865,1,8
237,214,40961,1,0
218,178,41057,1,0
174,110,41250,6,2,B|267:77|386:121,1,200,2|10
313,171,41826,1,0
256,227,42019,2,2,B|256:341|373:379,1,200
422,319,42596,2,2,B|386:209|272:209,1,200
192,209,43173,2,0,B|35:242,1,150,8|0
45,239,43557,1,0
22,316,43750,1,0
101,316,43942,1,8
129,344,44038,1,0
157,315,44134,1,0
185,343,44231,1,0
212,315,44326,6,2,B|255:224|256:103,1,200,2|10
255,40,44903,1,0
256,121,45096,2,2,B|257:224|300:315,1,200,2|10
380,314,45673,2,2,B|422:223|423:120,1,200
343,120,46250,2,0,B|289:119|256:172|256:172|224:119|154:119,1,200,8|0
100,121,46826,1,0
71,149,46923,1,0
99,177,47019,1,8
70,205,47115,1,0
98,233,47211,1,0
256,192,47403,12,0,50096
384,352,50480,6,2,B|448:352|480:288|480:224|470:184,1,200,2|10
474,118,51057,1,0
418,61,51249,2,2,B|204:84,1,200,2|10
276,139,51826,2,2,B|63:165,1,200
78,243,52403,1,8
78,243,52499,1,0
135,299,52691,1,0
135,299,52787,1,0
213,318,52980,1,0
231,282,53076,1,0
254,249,53172,1,8
275,214,53268,1,0
294,178,53364,1,0
338,110,53557,6,2,B|245:77|126:121,1,200,2|10
199,171,54133,1,0
256,227,54326,2,2,B|256:341|139:379,1,200
90,319,54903,2,2,B|125:209|239:209,1,200
320,209,55480,2,0,B|477:242,1,150,8|0
466,239,55864,1,0
490,316,56057,1,0
411,316,56249,1,8
383,344,56345,1,0
355,315,56441,1,0
327,343,56538,1,0
300,315,56633,6,2,B|257:224|256:103,1,200,2|10
257,40,57210,1,0
255,121,57403,2,2,B|255:224|212:315,1,200
132,314,57980,2,2,B|89:223|88:120,1,200
169,120,58557,2,0,B|223:119|256:172|256:172|288:119|358:119,1,200,8|0
412,121,59133,1,0
441,149,59230,1,0
413,177,59326,1,8
442,205,59422,1,0
414,233,59518,1,0
256,192,59711,12,4,62788
256,344,74519,5,0
256,263,74711,2,0,B|230:216|252:160,1,100
249,86,75096,6,0,B|297:52|335:116|402:69,1,150
393,74,75481,1,8
473,74,75673,1,0
473,314,76250,5,8
473,314,76442,1,0
473,314,76634,2,0,B|433:344|377:304|321:328,1,150
326,325,77019,1,8
205,325,77211,1,0
256,56,77788,5,8
256,56,77981,1,0
256,56,78173,6,2,B|232:88|280:120|248:160,1,100
196,208,78558,1,8
196,208,78750,1,0
139,264,78942,2,2,B|117:291|156:326|131:368,1,100
72,312,79327,1,8
24,248,79519,1,0
24,168,79711,2,0,B|90:149|84:95|183:94,1,150
153,96,80096,1,8
233,96,80288,1,0
459,322,81058,5,0
459,242,81250,2,0,B|484:198|454:142,1,100
400,90,81634,6,2,B|256:256,1,200
199,171,82211,2,2,B|87:299,1,149.999995529652
232,288,82788,2,2,B|166:367,1,100
87,364,83365,1,2
87,184,83750,5,0
150,121,83942,1,0
214,57,84134,1,0
304,57,84327,2,0,B|371:137|318:246,1,200,2|0
318,244,84904,2,0,B|239:305|120:252,1,200,2|0
128,255,85481,1,0
128,255,85673,2,0,B|78:166|131:57,1,200,2|0
127,63,86250,2,0,B|175:39|223:62,1,100,2|0
223,62,86634,2,0,B|269:87|338:58,1,100,2|0
411,64,87019,1,2
411,64,87115,1,0
411,64,87211,1,8
411,64,87308,1,0
411,64,87403,6,0,B|454:159|418:272,1,200,4|8
365,315,87980,1,0
284,315,88173,2,2,B|187:356|86:316,1,200,2|10
89,236,88750,2,2,B|186:277|287:237,1,200
283,158,89326,2,2,B|186:199|85:159,1,200,10|2
31,103,89903,1,0
59,74,90000,1,0
87,45,90096,1,8
115,73,90192,1,0
143,101,90288,1,0
86,157,90480,6,2,B|92:257|92:257|142:235|199:267,1,200,2|10
245,318,91057,1,0
325,318,91250,2,2,B|535:319,1,200,2|10
468,375,91826,2,2,B|323:234,1,200
256,192,92403,1,8
256,192,92500,1,0
256,112,92692,1,0
256,112,92788,1,0
183,145,92980,1,0
143,145,93076,1,0
102,145,93173,1,8
62,145,93269,1,0
22,145,93365,1,0
22,224,93557,6,2,B|121:254|248:216,1,200,2|10
276,166,94134,1,0
332,109,94326,2,2,B|354:60|354:60|331:20|276:1|256:89,1,200,2|10
180,109,94903,2,2,B|158:60|158:60|181:20|236:1|256:89,1,200
255,168,95480,1,8
226,196,95576,1,0
254,224,95673,1,0
282,252,95769,1,0
253,280,95865,1,0
214,349,96057,1,0
253,349,96153,1,0
293,349,96250,1,8
253,280,96442,1,0
256,192,96634,5,0
256,192,96826,1,0
175,192,97019,2,2,B|156:142|161:82|197:40|247:31,1,200,10|2
245,111,97596,1,0
256,192,97788,12,8,99326
101,64,99711,6,0,B|58:159|94:272,1,200,4|8
147,315,100288,1,0
228,315,100481,2,2,B|325:356|426:316,1,200,2|10
423,236,101058,2,2,B|326:277|225:237,1,200
229,158,101634,2,2,B|326:199|427:159,1,200,10|2
481,103,102211,1,0
453,74,102308,1,0
425,45,102404,1,8
397,73,102500,1,0
369,101,102596,1,0
426,157,102788,6,2,B|420:257|420:257|370:235|313:267,1,200,2|10
267,318,103365,1,0
187,318,103558,2,2,B|-23:319,1,200,2|10
44,375,104134,2,2,B|189:234,1,200
256,192,104711,1,8
256,192,104808,1,0
256,112,105000,1,0
256,112,105096,1,0
329,145,105288,1,0
369,145,105384,1,0
410,145,105481,1,8
450,145,105577,1,0
490,145,105673,1,0
490,224,105865,6,2,B|391:254|264:216,1,200,2|10
236,166,106442,1,0
180,109,106634,2,2,B|158:60|158:60|181:20|236:1|256:89,1,200,2|10
332,109,107211,2,2,B|354:60|354:60|331:20|276:1|256:89,1,200
257,168,107788,1,8
286,196,107884,1,0
258,224,107981,1,0
230,252,108077,1,0
259,280,108173,1,0
298,349,108365,1,0
259,349,108461,1,0
219,349,108558,1,8
259,280,108750,1,0
256,192,108942,5,0
256,192,109134,1,0
337,192,109327,2,2,B|356:142|351:82|315:40|265:31,1,200,10|2
267,111,109904,1,0
256,192,110096,12,4,112019
256,24,124519,6,0,B|256:136,2,100,0|8|0
192,88,125096,2,2,B|120:176|176:288,1,200
395,275,125961,5,0
427,243,126057,1,0
395,211,126153,1,0
427,179,126249,2,0,B|427:126,1,50,8|0
395,97,126442,1,0
427,65,126538,1,0
395,33,126634,1,0
363,1,126730,1,0
331,33,126826,1,0
299,1,126922,1,0
267,33,127019,1,8
267,33,127211,1,0
192,192,127596,5,0
192,192,127788,1,8
192,282,127981,1,0
192,282,128077,1,0
192,282,128173,2,2,B|240:336|248:248|288:304,1,100
451,347,128942,1,4
451,257,129134,5,0
483,225,129231,1,0
451,193,129327,2,2,B|393:193,1,50,10|2
356,193,129519,2,2,B|303:194,1,50,10|0
261,194,129711,1,0
229,162,129808,1,0
261,130,129904,1,0
238,91,130000,1,0
206,59,130096,2,2,B|162:38|105:64,1,100,10|2
24,224,130673,5,0
80,280,130865,1,8
137,223,131058,1,0
194,280,131250,1,0
250,224,131442,1,0
307,281,131634,2,2,B|401:328|501:280,1,200,10|2
500,200,132211,1,0
444,144,132404,1,8
387,201,132596,1,0
331,145,132788,1,0
274,202,132981,1,0
217,145,133173,2,2,B|120:104|16:144,1,200,10|2
22,222,133750,5,0
78,278,133942,1,2
135,335,134134,1,0
215,335,134327,1,0
272,278,134519,1,0
329,221,134711,2,2,B|349:161|463:151|490:91,1,200
428,45,135288,5,0
348,45,135481,2,0,B|299:24|242:44,1,100,2|0
170,41,135865,2,0,B|102:39|136:139,1,100,2|0
128,192,136250,1,2
128,192,136346,1,0
128,192,136442,1,2
128,192,136538,1,0
128,192,136634,6,2,B|224:227|341:194,1,200,6|2
268,141,137211,1,8
268,141,137307,1,0
268,141,137403,2,2,B|137:329,1,200
73,305,137980,2,2,B|62:361|88:404|155:402|207:368,1,200
263,311,138557,1,8
263,311,138653,1,0
319,254,138846,1,0
319,254,138942,1,0
262,197,139134,1,0
262,157,139230,1,0
262,117,139326,1,8
262,76,139423,1,0
262,36,139519,1,0
182,36,139711,6,2,B|256:132|353:45,1,200
433,45,140288,1,8
433,45,140384,1,0
433,45,140480,2,2,B|433:259,1,200
489,188,141057,2,2,B|281:189,1,200
208,188,141634,1,8
179,159,141730,1,0
150,187,141826,1,0
93,243,142019,1,0
64,271,142115,1,0
35,242,142211,1,0
35,162,142403,2,0,B|104:87,1,100,8|0
159,31,142788,6,2,B|393:30,1,200
415,86,143365,1,8
443,114,143461,1,0
414,142,143557,2,2,B|209:143,1,200
157,199,144134,2,2,B|386:200,1,200
448,192,144711,2,2,B|448:320|256:333|64:320|64:192,1,500
63,112,145865,5,0
119,55,146057,1,0
175,111,146250,2,2,B|257:194|257:194|257:284,1,200
257,357,146826,1,0
352,224,147211,2,0,B|384:160|256:-91|128:160|160:224,2,400
282,182,148942,6,2,B|253:101|228:182,1,100
228,260,149326,2,2,B|229:370,1,100
295,314,149711,2,2,B|329:314|373:370|373:370|435:315|459:316,1,200
457,235,150288,2,2,B|445:187|381:132|321:186|318:229,1,200
256,288,150865,1,8
227,316,150961,1,0
198,344,151057,1,0
169,372,151153,1,0
140,343,151250,1,0
111,314,151346,1,0
82,285,151442,1,0
53,256,151538,1,0
81,227,151634,1,8
109,198,151730,1,0
137,169,151826,1,0
165,140,151923,1,0
193,168,152019,6,2,B|292:140|292:140|313:141|349:161|335:228,1,200
256,224,152596,1,8
256,224,152692,1,0
256,224,152788,2,2,B|256:320|256:320|256:333|308:363|359:340|360:321,1,200
256,224,153365,2,2,B|256:320|256:320|256:333|204:363|153:340|152:321,1,200
162,254,153942,2,2,B|161:161|257:126|352:160|352:256,1,300
351,253,154711,1,8
256,192,154904,12,4,161250
