osu file format v9

[General]
AudioFilename: Nightcore_ Baby.mp3
AudioLeadIn: 0
PreviewTime: 38173
Countdown: 1
SampleSet: Normal
StackLeniency: 0.7
Mode: 0
LetterboxInBreaks: 1

[Editor]
Bookmarks: 154934
DistanceSpacing: 0.8
BeatDivisor: 2
GridSize: 8

[Metadata]
Title:Baby (Nightcore Mix)
Artist:Justin Bieber feat. Ludacris
Creator:CDFA
Version:Adult
Source:
Tags:

[Difficulty]
HPDrainRate:2
CircleSize:3
OverallDifficulty:2
ApproachRate:4
SliderMultiplier:0.999999999999999
SliderTickRate:1

[Events]
//Background and Video events
0,0,"HQBG.jpg"
//Break Periods
2,62988,73776
2,112218,123391
//Storyboard Layer 0 (Background)
//Storyboard Layer 1 (Fail)
//Storyboard Layer 2 (Pass)
//Storyboard Layer 3 (Foreground)
//Storyboard Sound Samples
//Background Colour Transformations
3,100,163,162,255

[TimingPoints]
1250,384.615384615385,4,1,0,100,1,0

[HitObjects]
256,24,13557,2,0,B|224:64|256:120,1,99.9999999999999
311,174,14326,1,0
256,328,15096,2,0,B|256:272|168:272,2,99.9999999999999
416,328,16634,1,0
501,192,17403,1,0
415,57,18173,2,0,B|325:141|233:53,1,200
153,61,19326,5,0
153,61,19711,2,0,B|152:280,1,200
209,318,20865,1,0
209,318,21250,2,0,B|413:318,1,200
512,192,22788,2,0,B|510:75,4,99.9999999999999
336,192,25096,1,0
176,192,25865,6,0,B|64:192,2,99.9999999999999
336,192,27403,2,0,B|440:192,2,99.9999999999999
288,40,28942,5,0
288,40,29326,1,0
288,200,30096,5,0
288,280,30480,2,0,B|376:348|488:271|488:272,1,200
476,118,32019,6,0,B|396:38|269:93,2,200
362,231,34326,1,0
256,192,34711,12,0,36826
256,32,38173,6,0,B|256:152,1,99.9999999999999
256,212,38942,2,0,B|439:210,2,150
96,212,40865,1,0
96,292,41250,6,0,B|96:352|176:352,1,99.9999999999999
242,351,42019,2,0,B|352:352|352:240,2,150
242,191,43942,1,0
242,111,44326,6,0,B|289:98|344:113,1,99.9999999999999
398,169,45096,2,0,B|398:232|469:233|468:303,2,150
315,32,47019,1,0
256,192,47403,12,0,49519
256,352,50480,6,0,B|256:232,1,99.9999999999999
256,172,51250,2,0,B|439:174,2,150
96,172,53173,1,0
96,92,53557,6,0,B|96:32|176:32,1,99.9999999999999
242,33,54326,2,0,B|352:32|352:144,2,150
242,193,56250,1,0
242,273,56634,6,0,B|289:286|344:271,1,99.9999999999999
398,215,57403,2,0,B|398:152|469:151|468:81,2,150
315,352,59326,1,0
256,192,59711,12,4,62788
256,40,75096,6,0,B|240:96|256:152,2,99.9999999999999
369,153,76634,2,0,B|416:256|360:368,1,200
256,234,78173,2,0,B|232:192|280:192|248:128,3,99.9999999999999
252,137,79711,1,0
252,137,80096,1,0
40,32,81250,1,0
40,32,81635,6,0,B|179:34|128:384|408:352,1,499.999999999999
431,204,84326,5,0
318,91,85096,1,0
163,131,85865,2,0,B|164:20,3,99.9999999999999
256,32,87403,6,0,B|256:152,1,99.9999999999999
256,212,88172,2,0,B|439:210,2,150
96,212,90095,1,0
96,292,90480,6,0,B|96:352|176:352,1,99.9999999999999
242,351,91249,2,0,B|352:352|352:240,2,150
242,191,93172,1,0
242,111,93556,6,0,B|289:98|344:113,1,99.9999999999999
398,169,94326,2,0,B|398:232|469:233|468:303,2,150
315,32,96249,1,0
256,192,96633,12,0,98749
256,352,99710,6,0,B|256:232,1,99.9999999999999
256,172,100480,2,0,B|439:174,2,150
96,172,102403,1,0
96,92,102787,6,0,B|96:32|176:32,1,99.9999999999999
242,33,103556,2,0,B|352:32|352:144,2,150
242,193,105480,1,0
242,273,105864,6,0,B|289:286|344:271,1,99.9999999999999
398,215,106633,2,0,B|398:152|469:151|468:81,2,150
315,352,108556,1,0
256,192,108941,12,4,112018
256,192,124711,6,0,B|256:80,2,99.9999999999999
256,352,126250,2,0,B|184:280|192:128,1,200
305,55,127788,1,0
305,55,128173,2,0,B|288:112|336:112|296:168,1,99.9999999999999
193,265,129326,6,0,B|104:336,2,99.9999999999999
306,152,130865,5,0
363,95,131250,1,0
420,152,131635,2,0,B|440:200|392:200|432:256,1,99.9999999999999
368,304,132403,5,0
313,361,132788,1,0
256,304,133173,2,0,B|256:192,1,99.9999999999999
256,192,133942,12,0,135865
256,32,136634,6,0,B|256:88|328:88,1,99.9999999999999
323,167,137403,2,0,B|323:226|446:227,2,150
256,352,139326,1,0
256,352,139711,6,0,B|256:296|184:296,1,99.9999999999999
189,217,140480,2,0,B|189:158|66:157,2,150
256,72,142403,1,0
256,152,142788,6,0,B|256:256,1,99.9999999999999
256,332,143557,2,0,B|306:359|353:314|415:358,2,150
256,168,145480,1,0
256,192,145865,12,0,147980
256,352,148942,6,0,B|256:296|184:296,1,99.9999999999999
189,217,149711,2,0,B|189:158|66:157,2,150
256,32,151634,1,0
256,32,152019,6,0,B|256:88|328:88,1,99.9999999999999
323,167,152788,2,0,B|323:226|446:227,2,150
256,312,154711,1,0
256,232,155096,6,0,B|256:128,1,99.9999999999999
256,52,155865,2,0,B|206:25|159:70|97:26,2,150
256,216,157788,1,0
256,192,158173,12,4,161250
