osu file format v12

[General]
AudioFilename: Justin Bieber - Runaway Love.mp3
AudioLeadIn: 0
PreviewTime: 56039
Countdown: 0
SampleSet: Normal
StackLeniency: 0.7
Mode: 0
LetterboxInBreaks: 1
WidescreenStoryboard: 0

[Editor]
Bookmarks: 36712,39309
DistanceSpacing: 1
BeatDivisor: 4
GridSize: 4

[Metadata]
Title:Runaway Love
TitleUnicode:Runaway Love
Artist:Justin Bieber
ArtistUnicode:Justin Bieber
Creator:CDFA
Version:Easy
Source:
Tags:
BeatmapID:275719
BeatmapSetID:22854

[Difficulty]
HPDrainRate:2
CircleSize:4
OverallDifficulty:2
ApproachRate:4
SliderMultiplier:1.2
SliderTickRate:1

[Events]
//Background and Video events
0,0,"041846.jpg",0,0
//Break Periods
2,38931,54142
2,92585,109527
2,129220,137219
2,149989,152796
//Storyboard Layer 0 (Background)
//Storyboard Layer 1 (Fail)
//Storyboard Layer 2 (Pass)
//Storyboard Layer 3 (Foreground)
//Storyboard Sound Samples
//Background Colour Transformations
3,100,0,0,0

[TimingPoints]
78,576.923076923077,4,3,0,70,1,0
55462,-100,4,1,0,70,0,1
64693,-100,4,1,0,71,0,0
73924,-100,4,2,0,71,0,0
110847,-100,4,1,0,70,0,1
120078,-100,4,1,0,72,0,0
138539,-100,4,1,0,52,0,0
147770,-100,4,2,0,29,0,0
154693,-100,4,1,0,70,0,1
161616,-100,4,1,0,71,0,0
173155,-100,4,1,0,70,0,1
180078,-100,4,1,0,70,0,0

[Colours]
Combo1 : 242,242,242
Combo2 : 0,0,102
Combo3 : 83,0,83
Combo4 : 176,176,255

[HitObjects]
56,36,20270,5,8,2:0:0:0:
40,156,20847,2,0,P|112:152|208:24,1,240,4|0,3:0|0:0,0:0:0:0:
304,27,22578,2,0,P|400:152|472:156,1,240,8|8,2:0|2:0,0:0:0:0:
512,48,24308,6,0,L|384:12,1,120,4|8,0:0|2:0,0:0:0:0:
316,104,25462,2,0,L|176:100,1,120,4|8,0:0|2:0,0:0:0:0:
176,220,26616,2,0,B|92:292|92:292|104:352|164:352,2,180,4|4|0,0:0|0:0|0:0,0:0:0:0:
256,132,28924,5,4,0:0:0:0:
360,192,29501,1,8,2:0:0:0:
432,96,30078,2,0,P|464:164|408:288,2,180,4|4|8,0:0|0:0|2:0,0:0:0:0:
320,56,32385,6,0,L|124:56,1,180,0|2,0:0|0:0,0:0:0:0:
79,56,33539,2,0,P|56:128|200:212,1,240,4|4,0:0|0:0,0:0:0:0:
256,140,35270,1,8,2:0:0:0:
343,221,35847,2,0,P|456:128|433:56,1,240,0|0,0:0|0:0,0:0:0:0:
256,192,37289,12,0,38731,0:0:0:0:
256,60,55462,5,4,0:0:0:0:
184,156,56039,2,0,P|256:180|380:80,1,240,8|8,0:0|0:0,0:0:0:0:
476,24,57770,2,0,L|496:148,1,120,4|8,3:0|0:0,0:0:0:0:
504,264,58924,2,0,B|448:268|448:268|384:236|384:236|304:236,2,180,4|2|8,3:0|3:0|0:0,0:0:0:0:
500,144,61231,5,4,3:0:0:0:
392,88,61808,1,8,0:0:0:0:
288,144,62385,2,0,L|200:272,1,120,4|8,3:0|0:0,0:0:0:0:
124,172,63539,2,0,P|104:236|196:348,2,180,4|4|8,3:0|0:0|0:0,0:0:0:0:
208,88,65847,6,0,P|284:76|380:168,2,180,0|0|8,0:0|0:0|0:0,0:0:0:0:
123,172,68154,2,0,P|124:240|256:216,1,240,0|0,0:0|0:0,0:0:0:0:
256,104,69885,1,8,0:0:0:0:
257,222,70462,2,0,P|388:240|389:172,1,240,0|0,0:0|0:0,0:0:0:0:
232,352,72770,6,0,L|484:352,1,240,4|4,3:0|2:0,0:0:0:0:
12,36,75654,5,8,0:0:0:0:
4,156,76231,2,0,P|64:168|120:112,1,120,4|8,3:0|0:0,0:0:0:0:
192,48,77385,2,0,P|264:40|356:156,2,180,4|2|8,3:0|3:0|0:0,0:0:0:0:
216,164,79693,2,0,L|324:240,1,120,4|8,3:0|0:0,0:0:0:0:
432,216,80847,6,0,L|328:140,1,120,4|8,3:0|0:0,0:0:0:0:
232,80,82001,2,0,P|164:92|144:232,2,180,4|4|8,3:0|0:0|0:0,0:0:0:0:
312,168,84308,5,4,3:0:0:0:
432,152,84885,1,8,0:0:0:0:
460,268,85462,2,0,P|432:328|344:348,1,120,4|8,3:0|0:0,0:0:0:0:
265,350,86616,2,0,B|196:344|136:384|56:360,1,180,4|2,3:0|3:0,0:0:0:0:
36,192,88347,5,8,0:0:0:0:
156,192,88924,2,0,L|156:128,1,60,4|4,3:0|3:0,0:0:0:0:
260,192,89789,2,0,L|260:64,2,120,0|4|4,0:0|3:0|3:0,0:0:0:0:
364,136,91520,2,8,L|364:212,1,60
484,192,92385,5,4,0:0:0:0:
256,60,110847,5,4,0:0:0:0:
328,156,111424,2,0,P|256:180|132:80,1,240,8|8,0:0|0:0,0:0:0:0:
36,24,113155,2,0,L|16:148,1,120,4|8,3:0|0:0,0:0:0:0:
8,264,114309,2,0,B|64:268|64:268|128:236|128:236|208:236,2,180,4|2|8,3:0|3:0|0:0,0:0:0:0:
12,144,116616,5,4,3:0:0:0:
120,88,117193,1,8,0:0:0:0:
224,144,117770,2,0,L|312:272,1,120,4|8,3:0|0:0,0:0:0:0:
388,172,118924,2,0,P|408:236|316:348,2,180,4|4|8,3:0|0:0|0:0,0:0:0:0:
304,88,121232,6,0,P|228:76|132:168,2,180,0|0|8,0:0|0:0|0:0,0:0:0:0:
389,172,123539,2,0,P|388:240|256:216,1,240,0|0,0:0|0:0,0:0:0:0:
256,104,125270,1,8,0:0:0:0:
254,222,125847,2,0,P|124:240|123:172,1,240,0|0,0:0|0:0,0:0:0:0:
336,280,128155,6,0,L|108:280,1,180,4|4,3:0|1:0,0:0:0:0:
80,60,138539,6,0,P|144:56|176:292,1,360,4|8,0:0|0:0,0:0:0:0:
136,176,140847,2,0,L|408:176,1,240,0|4,0:0|3:0,0:0:0:0:
321,283,142578,2,0,P|368:56|432:60,1,360,8|4,0:0|3:0,0:0:0:0:
492,164,144885,5,8,0:0:0:0:
472,284,145462,2,0,P|436:352|332:336,2,180,4|8|8,3:0|3:0|0:0,0:0:0:0:
408,184,147770,5,0,0:0:0:0:
256,192,148058,12,2,149789,0:0:0:0:
256,40,154116,5,12,1:0:0:0:
256,160,154693,2,0,L|200:280,1,120,4|8,3:0|0:0,0:0:0:0:
92,232,155847,2,0,P|88:308|164:380,2,180,0|2|8,0:0|3:0|0:0,0:0:0:0:
112,112,158154,5,4,3:0:0:0:
224,68,158731,1,8,0:0:0:0:
268,180,159308,2,0,P|328:204|388:160,1,120,4|8,3:0|0:0,0:0:0:0:
460,96,160462,2,0,P|504:180|480:264,2,180,4|4|8,3:0|0:0|1:0,0:0:0:0:
344,72,162770,6,0,P|288:64|212:176,2,180,0|0|8,0:0|0:0|0:0,0:0:0:0:
276,172,165078,2,0,L|104:116,2,180,0|0|8,0:0|0:0|0:0,0:0:0:0:
392,200,167385,6,0,P|388:276|144:268,1,360,0|8,0:0|0:0,0:0:0:0:
75,218,169693,2,0,P|136:188|276:272,1,240,4|0,3:0|0:0,0:0:0:0:
0,36,172578,5,8,0:0:0:0:
12,156,173154,2,0,P|100:164|124:136,1,120,4|8,3:0|0:0,0:0:0:0:
212,76,174308,2,0,P|284:68|344:212,1,240,4|0,3:0|0:0,0:0:0:0:
288,304,176039,5,8,0:0:0:0:
176,348,176616,2,0,P|104:364|60:324,1,120,4|8,3:0|0:0,0:0:0:0:
69,219,177770,2,0,P|141:203|185:243,1,120,4|8,3:0|0:0,0:0:0:0:
256,316,178924,2,0,P|320:312|332:196,2,180,4|4|8,3:0|0:0|0:0,0:0:0:0:
184,220,181231,5,4,3:0:0:0:
124,116,181808,1,8,0:0:0:0:
244,128,182385,2,0,P|304:140|356:104,1,120,0|8,0:0|0:0,0:0:0:0:
256,36,183539,2,0,P|336:16|448:52,2,180,4|2|8,3:0|3:0|0:0,0:0:0:0:
140,16,185847,6,0,P|140:84|296:124,1,240,0|0,0:0|0:0,0:0:0:0:
396,96,187578,1,8,0:0:0:0:
500,156,188154,2,0,P|488:224|328:240,1,240,4|4,3:0|0:0,0:0:0:0:
