osu file format v9

[General]
AudioFilename: Justimusfilms_-_Heiluvat_Kassit.mp3
AudioLeadIn: 0
PreviewTime: 29538
Countdown: 0
SampleSet: Normal
StackLeniency: 0.7
Mode: 0
LetterboxInBreaks: 0

[Editor]
DistanceSpacing: 1
BeatDivisor: 4
GridSize: 4

[Metadata]
Title:Heiluvat Kassit
Artist:Justimusfilms
Creator:LunaticMara
Version:PERKELE
Source:
Tags:finnish nohitter kurosanyan swinging balls xgor

[Difficulty]
HPDrainRate:7
CircleSize:4
OverallDifficulty:8
ApproachRate:8
SliderMultiplier:2.4
SliderTickRate:2

[Events]
//Background and Video events
0,0,"nam.jpg"
Video,0,"KASSIT.flv"
//Break Periods
2,88845,106356
//Storyboard Layer 0 (Background)
//Storyboard Layer 1 (Fail)
//Storyboard Layer 2 (Pass)
//Storyboard Layer 3 (Foreground)
//Storyboard Sound Samples
//Background Colour Transformations
3,100,163,162,255

[TimingPoints]
30,461.538461538462,4,1,0,75,1,0
107076,-100,4,2,0,75,0,0
126807,-50,4,1,0,75,0,0
127153,-100,4,1,0,75,0,0
127414,-100,4,1,0,75,0,1
142183,-100,4,1,0,75,0,0

[HitObjects]
104,144,14799,2,0,B|136:80|216:80,1,120,4|0
408,144,15260,2,0,B|376:80|296:80,1,120,8|0
208,232,15837,1,0
184,288,15953,1,0
200,344,16068,1,0
256,352,16183,1,8
304,344,16299,1,0
336,288,16414,1,0
304,232,16530,1,0
400,72,16876,5,0
400,312,17106,1,8
320,144,17337,1,0
320,240,17568,1,0
240,72,17799,1,0
240,312,18030,1,8
240,192,18260,1,0
344,192,18491,6,0,B|464:192,1,120,4|0
168,192,18953,2,0,B|48:192,1,120,8|0
256,48,19530,5,0
232,104,19645,1,0
256,160,19760,1,0
280,216,19876,1,8
256,272,19991,1,0
224,328,20106,1,0
288,328,20222,1,0
408,192,20568,5,0
288,192,20799,1,8
384,120,21030,1,0
312,264,21260,1,0
312,264,21376,1,0
144,320,21606,1,0
72,152,21953,1,0
160,72,22183,6,0,B|232:96|232:176,1,120,4|0
352,312,22645,2,0,B|280:288|280:208,1,120,8|0
160,112,23222,5,0
192,64,23337,1,0
224,112,23453,1,0
256,64,23568,1,8
288,112,23683,1,0
320,64,23799,1,0
352,112,23914,1,0
256,272,24260,6,0,B|128:272,1,120,0|8
256,112,24722,2,0,B|384:112,1,120
256,352,25183,1,0
256,40,25414,1,8
256,192,25645,1,0
376,192,25876,6,0,B|456:88,1,120,4|0
136,192,26337,2,0,B|56:296,1,120,8|0
360,320,26914,5,0
312,288,27030,1,0
296,232,27145,1,0
248,200,27260,1,8
224,144,27376,1,0
176,120,27491,1,0
136,80,27606,1,0
72,248,27953,6,0,B|48:320|16:352,2,120,0|8|0
128,144,28645,1,0
128,144,28760,1,0
256,328,28991,1,0
448,200,29337,1,0
440,88,29568,6,0,B|352:88|304:152,1,120,4|0
232,192,30030,1,8
184,232,30145,1,0
136,272,30260,1,0
56,184,30491,2,0,B|32:128|56:48,2,120,0|0|8
256,304,31414,5,4
312,288,31530,1,0
360,256,31645,1,0
400,208,31760,1,0
424,152,31876,1,8
304,152,32106,1,0
184,152,32337,1,0
376,40,32568,1,0
304,288,32799,1,8
240,40,33030,1,0
304,152,33260,6,0,B|200:272,1,120,4|0
208,152,33722,2,0,B|312:272,1,120,8|0
384,320,34183,1,0
440,296,34299,1,0
464,240,34414,1,0
352,192,34645,1,8
240,144,34876,1,0
240,264,35106,5,4
360,264,35337,1,0
360,144,35568,1,8
240,144,35799,1,0
300,328,36030,1,0
416,208,36260,1,0
300,80,36491,1,8
176,204,36722,1,0
96,288,36953,5,4
72,232,37068,1,0
96,176,37183,1,0
200,112,37414,2,0,B|256:74|312:112,1,120,8|0
408,176,37876,1,0
440,232,37991,1,0
416,288,38106,1,0
256,312,38337,2,0,B|256:192,1,120,8|0
376,312,38799,5,4
136,312,39030,1,0
312,240,39260,2,0,B|384:208|400:152,1,120,8|0
200,240,39722,2,0,B|128:208|112:152,1,120
256,168,40183,1,8
256,104,40299,1,0
256,48,40414,1,0
368,72,40645,6,0,B|384:144|504:96,1,120
144,72,41106,2,0,B|128:144|8:96,1,120
144,312,41568,2,0,B|128:240|8:288,1,120
368,312,42030,2,0,B|384:240|504:288,1,120
256,192,42491,1,4
256,192,44106,5,0
288,136,44222,1,0
320,88,44337,2,0,B|376:56|456:56,2,120,4|0|8
192,296,45030,2,0,B|136:328|56:328,2,120
296,240,45722,1,8
216,144,45953,1,0
176,256,46183,5,4
336,128,46414,1,0
416,216,46645,1,8
104,168,46876,2,0,B|216:224|336:168,1,240
440,120,47568,5,8
440,240,47799,1,0
360,56,48030,1,4
360,328,48260,1,0
352,192,48491,2,0,B|208:192,1,120,8|0
72,56,48953,1,0
72,328,49183,1,0
208,192,49414,2,0,B|88:192,1,120,8|0
288,192,49876,6,0,B|432:192|472:360,1,240,4|8
288,192,50568,2,0,B|408:192|472:24,1,240
288,192,51260,5,8
168,192,51491,1,0
56,144,51722,1,4
88,96,51837,1,0
136,56,51953,1,0
232,120,52183,2,0,B|352:120,1,120,8|0
352,120,52530,1,0
352,120,52645,1,0
416,224,52876,2,0,B|416:304|304:304,1,120,0|8
340,301,53222,1,0
340,301,53337,1,0
224,304,53568,6,0,B|144:304|144:224,1,120,4|0
200,128,54030,2,0,B|200:48|280:48,1,120,8|0
368,112,54491,2,0,B|448:112|448:192,1,120
448,304,54953,1,8
448,80,55183,1,0
448,192,55414,6,0,B|344:256,1,120,4|0
320,136,55876,2,0,B|216:72,1,120,8|0
176,184,56337,2,0,B|72:248,1,120,0|0
64,128,56799,1,8
168,64,57030,1,0
272,128,57260,5,4
272,320,57491,1,0
376,224,57722,1,8
176,224,57953,1,0
128,184,58068,1,0
112,128,58183,1,0
208,56,58414,2,0,B|296:56|296:152,1,120,0|8
293,122,58876,1,0
256,192,59106,12,0,59799
88,160,60145,5,0
144,152,60260,1,0
200,168,60376,1,0
248,200,60491,1,8
304,224,60606,1,0
368,224,60722,1,0
416,192,60837,1,0
256,192,60953,12,0,61645
224,152,61876,6,0,B|168:128|128:64,1,120
288,232,62337,2,0,B|344:256|384:320,1,120,8|0
256,192,62799,12,0,63491
304,80,63837,5,0
320,136,63953,1,0
296,192,64068,1,0
256,240,64183,1,8
200,264,64299,1,0
144,272,64414,1,0
88,256,64530,1,0
256,192,64645,12,0,65337
168,104,65568,5,0
168,104,65683,1,0
288,96,65914,1,0
328,272,66260,1,0
256,192,66491,12,0,67183
136,288,67530,5,0
176,248,67645,1,0
232,224,67760,1,0
272,176,67876,1,8
328,152,67991,1,0
368,112,68106,1,0
424,88,68222,1,0
256,192,68337,12,0,69030
344,192,69260,6,0,B|416:200|440:272,1,120
168,192,69722,2,0,B|96:184|72:112,1,120
256,192,70183,12,0,70876
360,320,71222,5,0
304,320,71337,1,0
248,312,71453,1,0
192,288,71568,1,8
144,256,71683,1,0
104,208,71799,1,0
80,152,71914,1,0
256,192,72030,12,0,72722
256,296,72953,5,0
256,296,73068,1,0
256,176,73299,1,0
424,232,73645,1,0
256,48,73876,6,0,B|136:80,1,120,4|0
256,336,74337,2,0,B|376:304,1,120,8|0
48,144,74799,2,0,B|80:264,1,120
464,240,75260,2,0,B|432:120,1,120,8|0
256,192,75722,5,4
304,80,75953,1,0
208,304,76183,1,8
208,80,76414,1,0
304,304,76645,1,0
256,192,76876,2,0,B|320:152|400:208,2,120,0|8|0
144,144,77568,6,0,B|56:144|56:48,1,120,4|0
368,240,78030,2,0,B|456:240|456:336,1,120,8|0
296,152,78491,2,0,B|296:64|392:64,1,120
216,232,78953,2,0,B|216:320|120:320,1,120,8|0
104,64,79414,5,4
224,80,79645,1,0
344,96,79876,1,8
416,192,80106,2,0,B|456:256|416:312,2,120
344,96,80799,1,8
224,80,81030,1,0
84,184,81260,6,0,B|108:272,2,80
168,184,81722,1,0
248,184,81876,1,0
272,264,82030,1,0
352,264,82183,2,0,B|408:208,2,60
360,64,82645,2,0,B|280:64|280:152,1,120,8|0
272,264,83106,5,4
376,320,83337,1,0
480,264,83568,1,8
368,40,83799,1,0
368,104,83914,1,0
368,168,84030,1,0
368,288,84260,2,0,B|472:180,1,120,0|8
451,202,84722,1,0
236,192,84953,6,0,B|168:124,2,80
280,264,85414,1,8
320,192,85568,1,0
360,264,85722,1,0
400,192,85876,5,0
360,96,86030,1,0
320,192,86183,1,0
280,96,86337,1,8
240,192,86491,1,0
200,96,86645,1,0
160,192,86799,5,0
200,312,86953,1,0
240,192,87106,1,0
280,312,87260,1,8
320,192,87414,1,0
360,312,87568,1,0
400,192,87722,5,0
360,40,87876,1,0
320,192,88030,1,0
280,40,88183,1,8
240,192,88337,1,0
200,40,88491,1,0
160,192,88645,1,4
256,336,107106,5,4
256,48,107453,1,0
256,192,107799,1,0
440,192,108260,6,0,B|408:128|280:120,1,180
40,192,108953,2,0,B|176:328,1,180,4|0
416,64,109645,1,0
256,192,110106,5,0
408,192,110453,2,0,B|480:192|480:40,1,180,0|4
408,192,111145,1,0
104,192,111491,1,0
256,192,111953,5,0
448,56,112299,1,0
64,328,112645,1,4
64,56,112991,1,0
448,328,113337,1,0
120,192,113799,6,0,B|40:192|40:336,1,180
392,192,114491,2,0,B|472:192|472:48,1,180,4|0
256,192,115183,1,0
256,56,115645,6,0,B|160:72|152:184,1,180
256,328,116337,2,0,B|352:312|360:200,1,180,4|0
256,192,117030,1,0
184,192,117491,6,0,B|48:72,1,180
328,192,118183,2,0,B|464:312,1,180,4|0
256,192,118876,1,0
256,336,119337,5,0
256,48,119683,1,0
256,192,120030,5,4
376,192,120260,1,0
376,72,120491,1,8
256,72,120722,1,0
316,136,120953,5,0
316,256,121183,1,0
196,256,121414,1,8
196,136,121645,1,0
256,192,121876,5,0
256,312,122106,1,0
136,312,122337,1,8
136,192,122568,1,0
196,88,122799,5,0
256,312,123030,1,0
312,88,123260,1,8
368,312,123491,1,0
400,192,123722,5,4
392,192,123837,1,0
384,192,123953,1,0
376,192,124068,1,0
368,192,124183,1,8
360,192,124299,1,0
352,192,124414,1,0
344,192,124530,1,0
336,192,124645,1,0
328,192,124760,1,0
320,192,124876,1,0
312,192,124991,1,0
304,192,125106,1,8
296,192,125222,1,0
288,192,125337,1,0
280,192,125453,1,0
272,192,125568,1,0
256,192,126837,6,2,B|256:376,1,120,2|2
256,192,127414,12,0,128106
296,304,128453,5,0
256,256,128568,1,0
216,208,128683,1,0
256,168,128799,1,8
296,128,128914,1,0
256,80,129030,1,0
216,40,129145,1,0
256,192,129260,12,0,129953
176,336,130183,6,0,B|80:320|72:240,1,120
336,48,130645,2,0,B|432:64|440:144,1,120,8|0
256,192,131106,12,0,131799
88,136,132145,5,0
144,112,132260,1,0
200,96,132376,1,0
256,80,132491,1,8
312,96,132606,1,0
368,112,132722,1,0
424,136,132837,1,0
256,192,132953,12,0,133645
256,136,133876,6,0,B|256:56,1,60
256,272,134222,1,0
424,200,134568,1,0
256,192,134799,12,0,135491
400,72,135837,5,0
352,112,135953,1,0
304,152,136068,1,0
256,192,136183,1,8
208,232,136299,1,0
160,272,136414,1,0
112,312,136530,1,0
256,192,136645,12,0,137337
328,56,137568,6,0,B|408:56|408:144,1,120
184,328,138030,2,0,B|104:328|104:240,1,120,8|0
256,192,138491,12,0,139183
120,72,139530,5,0
160,112,139645,1,0
208,152,139760,1,0
256,192,139876,1,8
304,232,139991,1,0
352,272,140107,1,0
400,312,140222,1,0
256,192,140337,12,0,141030
256,192,141260,5,0
256,192,141376,1,0
256,72,141606,1,0
256,344,141953,1,0
464,192,142183,6,4,B|432:112|336:48|256:376|168:48|72:112|40:192,1,480,4|0
136,272,143337,1,0
136,64,143568,1,8
216,272,143799,1,0
360,80,144260,5,0
464,272,144722,1,0
408,272,144837,1,0
360,240,144953,1,0
240,240,145183,1,0
304,136,145414,1,8
184,136,145645,1,0
48,192,145876,6,0,B|192:128|192:368|320:368|320:128|464:192,1,480,4|0
376,56,147030,1,0
312,160,147260,1,8
248,56,147491,1,0
32,168,147953,6,0,B|48:232|136:240,1,120,0|8
232,240,148414,1,0
352,240,148645,1,0
408,232,148760,1,0
448,192,148876,1,0
448,72,149106,2,0,B|384:48|304:80,1,120,8|0
80,160,149568,6,0,B|256:96|208:192|256:472|296:192|256:96|456:160,1,480,4|0
416,296,150722,1,8
96,296,150953,1,8
256,192,151183,1,0
456,48,151645,5,0
48,48,152106,1,0
96,168,152337,1,8
128,232,152453,1,0
176,280,152568,1,0
312,280,152799,2,0,B|376:280|424:208,1,120
256,228,153260,6,0,B|232:172|148:200|116:108|188:28|256:80|256:80|324:28|396:108|364:200|280:172|288:208,1,480,4|0
256,192,154414,12,4,156953
