osu file format v9

[General]
AudioFilename: Justimusfilms_-_Heiluvat_Kassit.mp3
AudioLeadIn: 0
PreviewTime: 29538
Countdown: 0
SampleSet: Normal
StackLeniency: 0.7
Mode: 0
LetterboxInBreaks: 0

[Editor]
DistanceSpacing: 1
BeatDivisor: 4
GridSize: 4

[Metadata]
Title:Heiluvat Kassit
Artist:Justimusfilms
Creator:LunaticMara
Version:Hard
Source:
Tags:finnish nohitter kurosanyan swinging balls xgor

[Difficulty]
HPDrainRate:4
CircleSize:4
OverallDifficulty:5
ApproachRate:5
SliderMultiplier:1.4
SliderTickRate:2

[Events]
//Background and Video events
0,0,"nam.jpg"
Video,0,"KASSIT.flv"
//Break Periods
2,88845,105906
//Storyboard Layer 0 (Background)
//Storyboard Layer 1 (Fail)
//Storyboard Layer 2 (Pass)
//Storyboard Layer 3 (Foreground)
//Storyboard Sound Samples
//Background Colour Transformations
3,100,163,162,255

[TimingPoints]
30,461.538461538462,4,1,0,75,1,0
40645,-100,4,2,0,75,0,0
42722,-100,4,1,0,75,0,0
107076,-100,4,2,0,75,0,0
126807,-50,4,1,0,75,0,0
127153,-100,4,1,0,75,0,0
127414,-100,4,1,0,75,0,1
142183,-100,4,1,0,75,0,0

[HitObjects]
164,192,14799,1,4
256,144,15145,1,0
348,192,15491,1,0
256,248,15837,2,0,B|256:312,6,35,0|0|0|8|0|0|0
288,348,16876,6,0,B|364:380|416:324,1,140,0|8
444,260,17568,2,0,B|468:212|468:164,1,70,0|0
468,124,18030,2,0,B|444:60|420:44,1,70,0|8
372,36,18491,5,4
272,64,18837,1,0
276,168,19183,1,0
368,112,19530,2,0,B|424:112,6,35,0|0|0|8|0|0|0
468,76,20568,2,0,B|492:148|464:240,1,140
424,268,21260,2,0,B|376:308,1,35
332,312,21606,1,0
256,236,21953,1,0
256,168,22183,6,0,B|224:128|296:88|232:48,2,105,4|0|0
256,280,23222,2,0,B|256:336,6,35,0|0|0|8|0|0|0
328,192,24260,6,0,B|272:160|232:160,1,70,0|8
280,88,24722,2,0,B|336:120|376:120,1,70,0|0
400,160,25183,2,0,B|416:240,1,70,0|8
424,304,25645,1,0
344,304,25876,5,4
256,224,26222,1,0
168,144,26568,1,0
256,64,26914,2,0,B|296:64,6,35,0|0|0|8|0|0|0
344,144,27953,5,0
272,144,28183,1,8
208,168,28414,1,0
152,208,28645,2,0,B|192:248|256:264,1,105,0|0
336,216,29337,1,0
384,136,29568,6,0,B|384:88|384:80,2,35,4|0|0
440,184,30030,1,8
384,240,30260,1,0
384,312,30491,2,0,B|312:312|312:312|288:272|288:272|248:272,1,140,0|8
272,128,31414,6,0,B|208:80|144:128,1,140,4|8
108,264,32337,1,0
164,312,32568,1,0
236,292,32799,1,8
344,208,33260,6,0,B|344:116|436:116,1,140,4|8
464,176,33953,1,0
476,244,34183,1,0
464,312,34414,1,0
400,340,34645,2,0,B|344:332|328:300,1,70,8|0
312,248,35106,6,0,B|304:208,2,35,4|0|0
264,304,35568,1,8
192,304,35799,1,0
152,248,36030,2,0,B|144:208,2,35,4|0|0
104,304,36491,1,8
56,248,36722,1,0
56,176,36953,6,0,B|56:88,1,70,4|0
128,120,37414,2,0,B|168:56,1,70,8|0
208,120,37876,2,0,B|296:88,1,70,0|0
288,168,38337,2,0,B|384:168,1,70,8|0
432,168,38799,5,4
432,168,39030,1,0
400,232,39260,1,8
400,232,39491,1,0
344,280,39722,1,0
344,280,39953,1,0
280,304,40183,1,8
280,304,40414,1,0
256,192,40645,12,0,42491
256,192,44337,6,0,B|336:192,1,70,4|0
384,152,44799,1,8
384,224,45030,1,0
440,192,45260,2,0,B|480:216|480:304|424:320,1,140,0|8
368,312,45953,1,0
300,312,46183,2,0,B|140:312,1,140,0|8
180,244,46876,2,0,B|340:244,1,140
376,200,47568,5,8
392,128,47799,1,0
352,64,48030,1,4
304,120,48260,2,0,B|280:168|296:208,1,70,0|8
344,232,48722,2,0,B|368:280|352:320,1,70,0|0
288,320,49183,2,0,B|232:336|200:320,1,70,0|8
152,328,49645,1,0
80,324,49876,2,0,B|68:232|148:204,1,140,4|8
208,208,50568,2,0,B|248:144|216:72,1,140
152,96,51260,5,8
80,112,51491,1,0
128,168,51722,2,0,B|144:224,2,35,4|0|0
200,152,52183,1,8
264,136,52414,2,0,B|304:136|304:184,1,70
304,256,52876,1,0
304,328,53106,2,0,B|360:328,2,35,8|0|0
232,328,53568,6,0,B|152:328,1,70,4|0
152,256,54030,2,0,B|240:256,1,70,8|0
236,188,54491,2,0,B|208:148,1,35
272,120,54837,2,0,B|296:72|376:72,1,105
432,72,55414,6,0,B|464:152,1,70,4|0
400,184,55876,2,0,B|376:256,1,70,8|0
328,304,56337,1,0
264,328,56568,1,0
192,328,56799,1,8
128,304,57030,1,0
160,240,57260,5,4
224,200,57491,1,0
272,256,57722,1,8
320,200,57953,2,0,B|368:200|368:144,1,70,0|0
368,88,58414,2,0,B|368:40|424:40,1,70,0|8
480,40,58876,1,0
440,104,59106,6,0,B|440:320,1,210,4|0
336,336,60145,2,0,B|280:352,6,35,0|0|0|8|0|0|0
336,336,60953,6,0,B|336:256|320:176|256:120,1,210,4|0
216,104,61876,2,0,B|128:64,1,70,0|0
80,72,62337,2,0,B|32:152,1,70,8|0
48,200,62799,6,0,B|264:200,1,210,4|0
360,200,63837,2,0,B|400:200,6,35,0|0|0|8|0|0|0
360,200,64645,6,0,B|360:288|328:336|280:352|224:352,1,210,4|0
176,352,65568,2,0,B|128:344,1,35
72,332,65914,1,0
144,256,66260,1,0
152,184,66491,6,0,B|208:112|352:104,1,210,0|0
388,196,67530,2,0,B|436:196,6,35,0|0|0|8|0|0|0
360,176,68337,6,0,B|304:104|160:96,1,210,0|0
112,152,69260,2,0,B|80:240,1,70,0|0
160,232,69722,2,0,B|160:328,1,70,8|0
224,328,70183,6,0,B|456:328,1,210,4|0
352,256,71222,2,0,B|384:216,6,35,0|0|0|8|0|0|0
352,256,72030,6,0,B|256:256|256:136|256:88,1,210,4|0
272,28,72953,2,0,B|300:48,1,35
352,96,73299,1,0
424,176,73645,1,0
424,248,73876,6,0,B|424:336,1,70,4|0
352,304,74337,2,0,B|280:352,1,70,8|0
248,288,74799,2,0,B|168:304,1,70,0|0
184,232,75260,2,0,B|104:232,1,70,8|0
112,160,75722,6,0,B|192:160,1,70,4|0
192,88,76183,2,0,B|272:72,1,70,8|0
328,72,76645,2,0,B|416:88,1,70,0|0
464,104,77106,1,8
464,104,77337,1,0
464,176,77568,6,0,B|464:272|360:272,1,140,4|8
312,272,78260,1,0
240,272,78491,2,0,B|144:272|144:168,1,140,0|8
112,128,79183,1,0
184,128,79414,6,0,B|184:48,1,70,4|0
256,64,79876,2,0,B|256:152,1,70,8|0
256,208,80337,1,0
256,280,80568,1,0
224,344,80799,1,8
296,344,81030,1,0
364,324,81260,6,0,B|420:308,6,46.6666666666667,4|0|0|8|0|0|0
296,300,82414,1,0
328,232,82645,1,8
272,184,82876,1,0
304,120,83106,6,0,B|328:64|376:56,1,70,4|0
416,40,83568,2,0,B|472:64|480:112,1,70,8|0
432,144,84030,2,0,B|472:176,2,35,0|0|0
384,192,84491,1,8
320,224,84722,1,0
248,224,84953,6,0,B|248:168,3,46.6666666666667,4|0|0|8
320,296,85876,2,0,B|320:368,3,46.6666666666667,0|0|0|8
392,224,86799,2,8,B|392:152,3,46.6666666666667,4|0|0|8
464,296,87722,2,0,B|464:232,3,46.6666666666667,0|0|0|8
432,112,88645,1,4
344,192,107106,6,0,B|256:296|160:184,1,210,4|0
256,88,108260,1,0
256,192,108606,1,0
256,296,108953,1,12
344,240,109299,1,0
344,136,109645,1,0
216,192,110106,6,0,B|104:192,1,105
168,104,110799,1,12
256,48,111145,1,0
344,104,111491,1,0
256,216,111953,5,0
344,272,112299,1,0
256,328,112645,1,12
168,272,112991,1,0
80,216,113337,1,0
168,104,113799,6,0,B|224:104|256:176,1,105
288,264,114491,1,12
344,176,114837,1,0
400,264,115183,1,0
464,136,115645,6,0,B|464:88|392:56,1,105
296,56,116337,1,12
192,56,116683,1,0
88,56,117030,1,0
144,184,117491,6,0,B|160:248|224:272,1,105
304,312,118183,1,12
408,312,118530,1,0
360,216,118876,1,0
304,88,119337,1,0
408,88,119683,1,0
448,184,120030,6,0,B|400:264,1,70,4|0
360,288,120491,2,0,B|272:312,1,70,8|0
224,312,120953,2,0,B|144:312,1,70,0|0
80,312,121414,2,0,B|32:248,1,70,8|0
40,184,121876,6,0,B|80:112,1,70,4|0
120,72,122337,2,0,B|192:40,1,70,8|0
256,40,122799,2,0,B|296:104,1,70,0|0
240,144,123260,2,0,B|240:240,1,70,8|0
256,192,123722,12,4,125568
256,192,126953,5,2
152,104,127414,6,0,B|368:104,1,210,4|0
424,184,128453,2,0,B|480:208,6,35,0|0|0|8|0|0|0
424,184,129260,6,0,B|352:136|280:208|200:152,1,210,4|0
152,136,130183,2,0,B|80:104,1,70,0|0
48,168,130645,2,0,B|136:208,1,70,8|0
176,224,131106,6,0,B|264:256|384:200,1,210,4|0
448,120,132145,2,0,B|448:80,6,35,0|0|0|8|0|0|0
448,120,132953,6,0,B|448:240|304:240,1,210,4|0
244,272,133876,2,0,B|240:236,1,35
244,168,134222,1,0
144,200,134568,1,0
144,128,134799,6,0,B|256:56|368:120,1,210,4|0
440,160,135837,2,0,B|488:184,6,35,0|0|0|8|0|0|0
440,160,136645,6,0,B|368:264|248:264,1,210,4|0
192,264,137568,1,0
128,240,137799,1,0
80,192,138030,1,8
56,128,138260,1,0
56,56,138491,6,0,B|152:56|272:104,1,210,4|0
360,144,139530,2,0,B|400:160,6,35,0|0|0|8|0|0|0
360,144,140337,6,0,B|304:256|184:256,1,210,4|0
128,268,141260,2,0,B|104:292,1,35,0|0
40,324,141606,1,0
40,220,141953,1,0
108,200,142183,6,0,B|196:200|196:200|284:136|284:136|380:136,1,280,4|0
436,148,143337,1,0
416,216,143568,1,8
464,264,143799,1,0
336,328,144260,1,0
216,264,144722,1,0
248,200,144953,2,0,B|288:176,2,35
184,168,145414,2,0,B|152:144,2,35,8|0|0
200,240,145876,6,0,B|200:320|200:320|312:320|312:320|360:280|360:280|408:280,1,280,4|0
448,240,147030,1,0
472,176,147260,1,8
472,104,147491,1,0
352,176,147953,1,0
256,72,148414,1,0
256,144,148645,2,0,B|256:224,1,70,0|0
184,232,149106,2,0,B|184:136,1,70,8|0
112,176,149568,6,0,B|112:88|112:88|160:32|160:32|288:32,1,280,4|0
344,56,150722,1,0
408,80,150953,1,8
472,112,151183,1,0
440,248,151645,2,0,B|368:280|280:256,1,140
232,240,152337,2,0,B|192:224,2,35
272,184,152799,1,8
312,128,153030,1,0
352,72,153260,1,0
256,192,153491,12,4,156953
