osu file format v5

[General]
AudioFilename: Knights of Round - Green-Eyed Jealousy.mp3
AudioLeadIn: 0
PreviewTime: -1
Countdown: 1
SampleSet: Soft
StackLeniency: 0.7
Mode: 0
LetterboxInBreaks: 1

[Metadata]
Title:Green-Eyed Jealousy
Artist:Justice is Dead
Creator:lukewarmholiday
Version:Insane
Source:
Tags:

[Difficulty]
HPDrainRate:7
CircleSize:5
OverallDifficulty:7
SliderMultiplier:2.6
SliderTickRate:2

[Events]
//Background and Video events
//Break Periods
//Storyboard Layer 0 (Background)
//Storyboard Layer 1 (Failing)
//Storyboard Layer 2 (Passing)
//Storyboard Layer 3 (Foreground)
//Storyboard Sound Samples
//Background Colour Transformations
3,100,163,162,255

[TimingPoints]
28788,550.45871559633,4,2,0,70,1
43369,-100,4,1,0,70,0
66494,560.728571428569,4,2,0,70,1

[HitObjects]
128,192,30164,2,0,B|264:192,1,130
256,64,30714,1,0
256,192,30989,1,2
256,192,31127,1,4
480,192,32365,6,0,B|480:280|392:280,1,130
288,280,32916,1,0
256,168,33191,1,2
256,168,33329,1,4
24,192,34567,6,2,B|24:336|128:336,1,195
280,264,35393,1,0
280,264,35531,2,0,B|280:152|152:144,1,195
32,144,36219,2,2,B|32:240,1,65
40,328,36632,2,0,B|152:328|160:200,1,195
160,80,37320,2,2,B|256:80,1,65
344,80,37732,2,0,B|344:224,1,130
344,264,38145,1,2
344,144,38421,2,4,B|224:144|216:272,1,195
32,32,39521,5,0
32,152,39797,1,0
32,152,39934,1,0
200,88,40347,5,0
320,88,40622,1,0
264,192,40898,1,0
200,296,41173,1,0
320,296,41448,1,0
264,192,41723,1,0
256,72,41999,1,0
256,72,42136,1,0
256,72,42274,2,2,B|168:48|152:168|64:104,2,195
312,272,43375,1,0
312,272,43443,1,0
312,272,43512,1,0
312,272,43581,1,0
312,272,43650,1,0
312,272,43719,1,0
312,272,43788,1,0
312,272,43856,1,0
312,272,43925,1,0
312,272,43994,1,0
312,272,44063,1,0
312,272,44132,1,0
312,272,44200,1,0
312,272,44269,1,0
312,272,44338,1,0
312,272,44407,1,0
312,272,44476,2,4,B|384:280|424:360,2,130,4|0|0
312,272,45164,1,0
256,272,45301,5,0
200,272,45439,2,0,B|56:272|56:136,1,195
112,64,46127,1,0
160,96,46265,1,0
168,152,46402,1,0
168,208,46540,2,0,B|168:320|304:320,1,195
416,320,47228,5,0
416,264,47365,1,0
392,208,47503,1,0
360,160,47641,1,0
312,128,47778,2,0,B|256:80|192:128,3,130
160,176,48742,6,0,B|160:296|288:296,1,195
280,176,49430,1,0
280,176,49567,1,0
280,56,49843,6,0,B|400:56|400:184,1,195
280,176,50531,1,0
280,176,50668,1,0
192,96,50943,6,0,B|88:176|200:264,1,195
280,176,51632,1,0
280,176,51769,1,0
384,120,52044,5,0
384,120,52182,2,0,B|416:184|384:248,3,130
360,296,53145,5,0
240,296,53421,1,0
184,296,53558,1,0
152,184,53833,1,0
208,184,53971,1,0
264,184,54109,1,0
320,184,54246,2,0,B|416:184|416:80|320:80,1,195
208,80,54934,5,0
152,96,55072,1,0
112,136,55210,1,0
96,192,55347,2,0,B|96:304|232:304,1,195
344,304,56035,5,0
336,248,56173,1,0
312,192,56310,1,0
264,152,56448,1,0
208,136,56586,2,0,B|72:136,3,130
80,80,57549,1,0
192,80,57824,1,0
248,80,57962,1,0
360,80,58237,1,0
360,136,58375,1,0
360,248,58650,5,0
240,248,58925,1,0
184,248,59063,1,0
64,248,59338,1,0
64,192,59476,1,0
144,112,59751,5,0
144,224,60026,1,0
144,280,60164,1,0
256,248,60439,1,0
256,192,60576,1,0
256,72,60852,1,0
256,72,60989,2,0,B|256:216,3,130
256,192,61953,12,0,63191
160,80,64292,5,0
216,80,64430,5,0
248,80,64499,1,0
280,80,64567,1,0
312,80,64636,1,0
344,80,64705,1,4
344,136,64843,5,0
312,136,64911,1,0
280,136,64980,1,0
248,136,65049,1,0
216,136,65118,1,4
160,136,65255,5,0
344,320,65531,5,0
312,320,65599,1,0
280,320,65668,1,0
248,320,65737,1,0
216,320,65806,1,0
184,320,65875,1,0
152,320,65943,1,0
152,264,66081,5,0
152,264,66150,1,0
152,264,66219,1,0
152,144,66494,5,0
256,200,66774,1,0
312,200,66914,1,0
464,112,67335,1,0
368,200,67615,1,0
248,200,67895,5,0
192,200,68036,2,0,B|40:200,1,130
56,56,68596,1,0
496,192,69858,2,0,B|496:352|296:344,1,260
328,168,70839,2,0,B|256:72|136:40|32:48|16:184|24:328|216:328,1,585
