osu file format v12

[General]
AudioFilename: Jupiter - Scarlet.mp3
AudioLeadIn: 0
PreviewTime: 99349
Countdown: 0
SampleSet: None
StackLeniency: 0.7
Mode: 0
LetterboxInBreaks: 1
WidescreenStoryboard: 1

[Editor]
Bookmarks: 279183
DistanceSpacing: 0.8
BeatDivisor: 4
GridSize: 16

[Metadata]
Title:Scarlet
TitleUnicode:Scarlet
Artist:Jupiter
ArtistUnicode:Jupiter
Creator:DJ Yashiro
Version:Tsujo no
Source:
Tags:Jupiter Scarlet Rose Lily Big Black One Ok Rock
BeatmapID:355603
BeatmapSetID:141372

[Difficulty]
HPDrainRate:4
CircleSize:4
OverallDifficulty:4
ApproachRate:7
SliderMultiplier:1.4
SliderTickRate:1

[Events]
//Background and Video events
0,0,"0.jpg",0,0
//Break Periods
2,59216,66783
//Storyboard Layer 0 (Background)
//Storyboard Layer 1 (Fail)
//Storyboard Layer 2 (Pass)
//Storyboard Layer 3 (Foreground)
//Storyboard Sound Samples
//Background Colour Transformations
3,100,163,162,255

[TimingPoints]
532.435854158623,329.67032967033,4,2,1,80,1,0
3368,329.67032967033,4,2,1,80,1,0
6005,333.333333333333,4,2,1,80,1,0
11350,333.333333333333,4,1,1,60,1,0
15849,-100,4,3,1,60,0,0
16683,-100,4,1,1,60,0,0
22016,-100,4,1,1,70,0,0
33516,-100,4,2,1,70,0,0
35349,-100,4,1,1,70,0,0
35683,-100,4,3,0,70,0,0
38016,-100,4,1,1,70,0,0
40516,-100,4,3,0,70,0,0
43183,-100,4,1,1,70,0,0
46183,-100,4,1,1,60,0,0
59016,-100,4,1,1,30,0,0
67516,-100,4,2,1,60,0,0
78016,-100,4,1,1,60,0,0
88349,-133.333333333333,4,2,1,60,0,0
93183,-133.333333333333,4,1,1,60,0,0
94016,-133.333333333333,4,2,1,60,0,0
96849,-133.333333333333,4,1,1,70,0,0
97516,-133.333333333333,4,2,1,60,0,0
99016,-100,4,1,1,60,0,0
99516,-100,4,1,1,60,0,1
102016,-133.333333333333,4,1,1,60,0,0
102849,-100,4,1,1,60,0,0
108349,-100,4,2,1,60,0,0
108683,-100,4,2,1,50,0,0
109016,-100,4,2,1,40,0,0
109349,-100,4,2,1,30,0,0
109683,-100,4,2,1,20,0,0
110016,-66.6666666666667,4,1,1,60,0,1
115349,-100,4,1,1,60,0,0
120849,-100,4,1,1,60,0,1
130016,-100,4,1,1,60,0,0
134849,-100,4,1,1,10,0,0
136433,-100,4,1,1,60,0,0
139349,-100,4,1,1,60,0,0
142016,-100,4,1,1,60,0,0
144683,-100,4,1,1,60,0,0
147349,-100,4,1,1,60,0,0
150016,-133.333333333333,4,2,1,60,0,0
160016,-100,4,2,1,60,0,0
160683,-100,4,1,1,60,0,0
171516,-66.6666666666667,4,1,1,60,0,1
192683,-133.333333333333,4,1,1,60,0,0
203349,-100,4,1,1,60,0,0
205849,-133.333333333333,4,1,1,60,0,0
207516,-100,4,1,1,60,0,0
208683,-100,4,2,1,60,0,0
215349,-66.6666666666667,4,1,1,60,0,1
215516,-66.6666666666667,4,1,1,60,0,1
220683,-100,4,1,1,60,0,1
226116,-66.6666666666667,4,1,1,60,0,1
228599,-100,4,1,1,60,0,1
235349,-100,4,1,1,60,0,0
243349,-100,4,1,1,60,0,0
249016,-100,4,1,1,60,0,0
250016,-100,4,1,1,60,0,0
250349,-100,4,1,1,60,0,0
251349,-100,4,1,1,60,0,0
251683,-100,4,1,1,60,0,0
252683,-100,4,1,1,60,0,0
253016,-100,4,1,1,60,0,0
254016,-100,4,1,1,60,0,0
254349,-100,4,1,1,60,0,0
255349,-100,4,1,1,60,0,0
255683,-100,4,1,1,60,0,0
258016,-100,4,1,1,60,0,0
258516,-100,4,1,1,60,0,0
259016,-100,4,1,1,60,0,0
259349,-100,4,1,1,60,0,0
260683,-100,4,1,1,60,0,0
262016,-100,4,1,1,60,0,0
263349,-100,4,1,1,60,0,0
264683,-100,4,1,1,60,0,0
266016,-100,4,1,1,60,0,0
267349,-100,4,1,1,60,0,0
268683,-100,4,1,1,60,0,0
270016,-100,4,1,1,60,0,0
270683,-100,4,1,1,60,0,0
271349,-100,4,1,1,60,0,0
271433,-100,4,2,1,5,0,0
278016,-100,4,2,0,5,0,0

[Colours]
Combo1 : 0,64,128
Combo2 : 128,0,255
Combo3 : 0,0,255
Combo4 : 255,0,0

[HitObjects]
88,80,532,1,0,0:0:0:0:
160,168,862,1,0,0:0:0:0:
248,80,1191,1,0,0:0:0:0:
336,168,1521,1,0,0:0:0:0:
432,80,1851,2,0,P|456:160|440:224,2,140
384,32,2675,1,0,0:0:0:0:
320,32,2840,1,0,0:0:0:0:
256,32,3004,1,0,0:0:0:0:
192,32,3169,1,0,0:0:0:0:
144,96,3368,6,0,P|96:208|112:232,2,140
208,160,4357,2,0,P|208:248|168:272,2,140
272,160,5181,1,0,0:0:0:0:
336,160,5346,1,0,0:0:0:0:
336,96,5510,1,0,0:0:0:0:
400,96,5675,1,0,0:0:0:0:
400,32,5840,1,0,0:0:0:0:
256,48,6005,6,0,P|184:80|144:144,2,140
208,160,6838,1,0,0:0:0:0:
192,256,7004,2,0,P|272:240|304:184,2,140
304,312,7838,2,0,L|384:256,1,70
392,208,8171,2,0,L|416:128,1,70
400,80,8504,2,0,L|336:24,1,70
128,112,8838,5,0,0:0:0:0:
128,208,9004,2,0,L|128:288,2,70
216,208,9504,2,0,P|264:248|344:240,1,140
384,160,10004,1,0,0:0:0:0:
384,80,10171,2,0,L|384:0,2,70
304,80,10671,2,0,P|224:40|160:40,1,140
88,80,11171,1,0,0:0:0:0:
64,200,11350,6,0,P|112:256|184:256,1,140
168,184,12016,2,0,L|256:160,1,70
280,224,12349,2,0,L|352:272,1,70
408,144,12849,2,0,L|392:56,1,70
296,120,13183,2,0,L|256:48,1,70
144,64,13516,2,0,P|192:144|256:176,1,140
400,304,14183,5,0,0:0:0:0:
304,304,14349,1,0,0:0:0:0:
208,304,14516,2,0,P|160:272|144:240,1,70
128,192,14849,2,0,L|128:112,2,70
128,304,15349,1,0,0:0:0:0:
64,240,15516,2,0,L|64:160,1,70
112,96,15849,6,0,L|272:80,2,140
240,144,16683,2,0,L|336:176,1,70
224,256,17016,2,0,L|144:288,1,70
320,304,17349,2,0,P|368:320|464:272,1,140
464,208,17849,2,0,L|464:128,1,70
416,96,18183,1,0,0:0:0:0:
352,80,18349,2,0,P|288:64|144:96,2,210
272,160,19516,6,0,P|192:208|64:192,1,210
112,288,20183,2,0,L|176:320,1,70
224,272,20516,2,0,L|304:288,1,70
320,224,20849,2,0,L|400:224,1,70
384,144,21183,2,0,L|448:112,1,70
336,80,21516,1,0,0:0:0:0:
240,80,21683,1,0,0:0:0:0:
144,80,22016,6,0,P|128:176|224:256,1,210
272,256,22683,2,0,L|368:256,3,70
416,208,23349,2,0,P|464:128|416:16,1,210
320,32,24016,2,0,L|224:32,3,70
144,64,24683,2,0,P|96:96|80:192,1,140
80,256,25183,1,0,0:0:0:0:
176,256,25349,2,0,L|256:256,3,70
320,256,26016,2,0,P|384:176|352:64,1,210
272,64,26683,2,0,L|176:64,3,70
192,144,27349,6,0,P|288:160|400:96,1,210
464,42,28016,2,0,L|464:112,3,70
464,208,28683,2,0,P|432:288|320:320,1,210
224,320,29349,2,0,L|144:320,3,70
96,272,30016,2,0,P|64:208|64:128,1,140
64,48,30516,1,0,0:0:0:0:
160,48,30683,2,0,P|240:48|384:176,2,280
112,112,32349,5,0,0:0:0:0:
192,224,32683,1,0,0:0:0:0:
304,144,33016,1,0,0:0:0:0:
224,48,33349,1,0,0:0:0:0:
256,192,33516,12,0,35349,0:0:0:0:
208,80,35683,5,0,0:0:0:0:
144,160,36016,2,0,P|112:240|144:288,2,140
240,160,37016,1,0,0:0:0:0:
336,160,37349,1,0,0:0:0:0:
432,160,37683,2,0,L|432:256,2,70
384,80,38183,5,0,0:0:0:0:
384,80,38349,2,0,L|288:48,1,70
240,48,38683,2,0,L|160:48,1,70
96,80,39016,2,0,L|64:144,1,70
64,224,39349,2,0,L|112:304,1,70
160,336,39683,2,0,L|240:336,1,70
304,304,40016,2,0,L|352:240,1,70
352,160,40349,1,0,0:0:0:0:
304,80,40683,6,0,P|224:112|176:224,2,210
384,80,42016,1,0,0:0:0:0:
384,80,42349,1,0,0:0:0:0:
384,80,42683,1,0,0:0:0:0:
368,176,43016,2,0,L|352:256,1,70
240,288,43349,6,0,L|96:240,1,140
80,160,43849,1,0,0:0:0:0:
128,80,44016,2,0,L|224:96,1,70
256,144,44349,2,0,L|320:208,1,70
336,288,44683,2,0,L|256:288,1,70
201,256,45016,2,0,L|176:192,1,70
240,80,45349,6,0,L|240:144,8,35
304,256,46183,6,0,P|416:176|416:160,1,140
416,96,46683,1,0,0:0:0:0:
336,96,46849,1,0,0:0:0:0:
336,16,47016,1,0,0:0:0:0:
256,16,47183,1,0,0:0:0:0:
176,16,47349,1,0,0:0:0:0:
176,96,47516,1,0,0:0:0:0:
96,96,47683,1,0,0:0:0:0:
96,176,48016,6,0,P|128:272|160:304,2,140
176,176,48849,2,0,L|272:176,2,70
176,96,49349,2,0,L|176:16,1,70
256,96,49683,2,0,L|256:16,1,70
336,96,50016,2,0,L|336:16,1,70
416,96,50349,2,0,L|416:192,1,70
336,176,50683,2,0,L|336:256,1,70
256,176,51016,2,0,L|256:256,1,70
176,176,51349,6,0,P|96:160|64:96,2,140
326,176,52183,2,0,L|256:176,3,70
176,176,52850,1,0,0:0:0:0:
96,176,53017,1,0,0:0:0:0:
96,96,53183,1,0,0:0:0:0:
176,96,53350,1,0,0:0:0:0:
239,136,53517,1,0,0:0:0:0:
134,240,53683,1,0,0:0:0:0:
32,136,53850,1,0,0:0:0:0:
136,32,54017,1,0,0:0:0:0:
272,48,55016,6,0,P|352:48|464:208,2,280
256,192,56683,12,0,59016,0:0:0:0:
80,160,67683,6,0,P|160:144|208:96,1,140
192,208,68349,2,0,P|240:256|272:320,1,140
352,224,69016,2,0,L|464:128,1,140
288,112,69683,2,0,P|224:64|160:48,2,140
192,208,70683,5,0,0:0:0:0:
288,272,71016,1,0,0:0:0:0:
352,176,71349,1,0,0:0:0:0:
256,112,71683,1,0,0:0:0:0:
160,128,72016,6,0,L|80:64,4,70
176,224,73016,2,0,P|208:272|288:304,1,140
384,256,73683,2,0,P|416:176|416:112,1,140
336,64,74349,2,0,P|240:48|176:80,1,140
304,176,75016,5,0,0:0:0:0:
208,256,75349,1,0,0:0:0:0:
128,160,75683,1,0,0:0:0:0:
224,80,76016,1,0,0:0:0:0:
320,80,76349,6,0,P|368:112|400:256,2,210
304,80,78016,6,0,L|208:64,1,70
160,128,78349,2,0,L|80:144,1,70
160,192,78683,2,0,L|240:224,1,70
160,256,79016,2,0,L|96:288,1,70
160,320,79349,2,0,P|208:352|288:352,2,140
160,192,80349,1,0,0:0:0:0:
256,192,80683,2,0,P|336:192|384:256,2,140
160,192,81683,2,0,L|160:48,1,140
224,48,82183,1,0,0:0:0:0:
288,48,82349,6,0,P|384:80|400:112,2,140
256,48,83183,1,0,0:0:0:0:
240,48,83266,1,0,0:0:0:0:
224,48,83349,1,0,0:0:0:0:
128,96,83516,6,0,L|48:128,1,70
128,192,83849,2,0,L|96:272,1,70
192,224,84183,2,0,L|256:160,1,70
256,256,84516,2,0,L|256:336,1,70
336,256,84849,2,0,P|416:224|432:96,2,210
256,192,86183,12,0,87349,0:0:0:0:
256,192,87516,5,0,0:0:0:0:
256,192,87683,2,0,L|256:96,3,70
176,64,88683,6,0,P|96:80|64:112,1,105.000004005432
96,208,89349,2,0,P|112:240|160:288,1,105.000004005432
272,288,90016,2,0,P|336:256|352:208,1,105.000004005432,0|2,0:0|0:0,0:0:0:0:
368,144,90683,2,0,P|336:80|304:48,1,105.000004005432
240,80,91349,2,0,L|240:192,1,105.000004005432,0|2,0:0|0:0,0:0:0:0:
240,240,92016,2,0,L|240:352,1,105.000004005432,0|2,0:0|0:0,0:0:0:0:
320,336,92683,5,0,0:0:0:0:
384,304,92849,1,0,0:0:0:0:
288,256,93016,1,0,0:0:0:0:
352,224,93183,1,0,0:0:0:0:
256,176,93349,1,0,0:0:0:0:
320,144,93516,1,0,0:0:0:0:
224,112,93683,1,0,0:0:0:0:
288,80,93849,1,0,0:0:0:0:
192,48,94016,1,0,0:0:0:0:
96,80,94349,6,0,P|48:112|32:160,1,105.000004005432
48,240,95016,2,0,P|80:288|128:288,1,105.000004005432
224,272,95683,2,0,P|258:250|272:176,1,105.000004005432
256,112,96350,2,0,P|236:64|176:48,1,105.000004005432
112,128,96849,5,0,0:0:0:0:
144,208,97016,1,0,0:0:0:0:
208,256,97183,1,0,0:0:0:0:
288,256,97349,1,0,0:0:0:0:
256,192,97516,12,0,98849,0:0:0:0:
352,176,99016,6,0,B|336:144|336:144|288:144|288:144|352:112|352:112|304:112|304:112|288:80,1,210
192,80,99683,6,0,L|112:64,1,70
128,144,100016,2,0,L|48:192,1,70
128,240,100349,2,0,L|80:304,1,70
176,304,100683,2,0,L|160:384,1,70
256,336,101016,2,0,L|320:368,1,70
336,288,101349,2,0,L|416:288,1,70
384,208,101683,2,0,L|448:160,1,70
304,112,102016,6,0,P|256:64|208:64,2,105.000004005432
256,192,102849,1,0,0:0:0:0:
192,272,103016,1,0,0:0:0:0:
96,256,103266,1,0,0:0:0:0:
48,176,103516,2,0,P|48:112|112:48,2,140
