osu file format v14

[General]
AudioFilename: enemyattack.mp3
AudioLeadIn: 0
PreviewTime: 57008
Countdown: 0
SampleSet: Soft
StackLeniency: 0.7
Mode: 0
LetterboxInBreaks: 0
WidescreenStoryboard: 0

[Editor]
Bookmarks: 1094,35407
DistanceSpacing: 0.6
BeatDivisor: 2
GridSize: 4
TimelineZoom: 2.4

[Metadata]
Title:Tekishuu
TitleUnicode:敵襲
Artist:Junya Nakano
ArtistUnicode:順也 仲野
Creator:Irreversible
Version:Hyper
Source:Final Fantasy X
Tags:Parachute Desperate-kun Mao tidus yuna wakka lulu kimahri ronso auron rikku Enemy Attack
BeatmapID:687228
BeatmapSetID:307116

[Difficulty]
HPDrainRate:5
CircleSize:4.5
OverallDifficulty:5
ApproachRate:7.5
SliderMultiplier:1.66
SliderTickRate:1

[Events]
//Background and Video events
0,0,"Yuna_1.jpg",0,0
//Break Periods
//Storyboard Layer 0 (Background)
//Storyboard Layer 1 (Fail)
//Storyboard Layer 2 (Pass)
//Storyboard Layer 3 (Foreground)
//Storyboard Sound Samples

[TimingPoints]
538,392.156862745098,6,2,1,60,1,0
57008,-100,6,2,1,60,0,1
66420,-100,6,2,1,60,0,0

[Colours]
Combo1 : 143,32,255
Combo2 : 255,128,192
Combo3 : 240,240,240
Combo4 : 255,255,0

[HitObjects]
168,288,538,6,0,L|64:300,1,83,12|0,0:0|0:0,0:0:0:0:
256,356,930,1,0,0:0:0:0:
344,288,1126,2,0,L|448:300,2,83,8|0|0,0:0|0:0|0:0,0:0:0:0:
184,192,1714,2,0,P|168:152|173:106,1,83,8|0,0:0|0:0,0:0:0:0:
256,12,2106,2,0,L|256:95,1,83,8|0,0:0|0:0,0:0:0:0:
328,192,2498,2,0,P|344:152|339:106,1,83,8|0,0:0|0:0,0:0:0:0:
184,192,2890,6,0,L|16:176,1,166,8|0,0:0|0:0,0:0:0:0:
92,328,3479,2,0,L|257:343,1,166,8|0,0:0|0:0,0:0:0:0:
352,260,4067,2,0,P|392:276|424:324,1,83,8|0,0:0|0:0,0:0:0:0:
428,192,4459,2,0,L|511:192,1,83,8|0,0:0|0:0,0:0:0:0:
352,124,4851,2,0,P|392:108|424:60,1,83,8|0,0:0|0:0,0:0:0:0:
256,28,5243,5,10,0:0:0:0:
160,124,5439,2,0,L|60:112,1,83,0|0,0:0|0:0,0:0:0:0:
256,192,5832,1,8,0:0:0:0:
160,288,6028,2,0,L|60:276,1,83,0|0,0:0|0:0,0:0:0:0:
220,352,6420,2,0,P|248:304|248:256,1,83,8|0,0:0|0:0,0:0:0:0:
184,144,6812,2,0,P|153:118|135:80,1,83,8|0,0:0|0:0,0:0:0:0:
332,153,7204,2,0,P|371:139|412:143,1,83,8|0,0:0|0:0,0:0:0:0:
328,268,7596,6,0,L|328:372,2,83,8|0|0,0:0|0:0|0:0,0:0:0:0:
184,268,8185,2,0,L|184:372,2,83,8|0|0,0:0|0:0|0:0,0:0:0:0:
88,192,8773,1,10,0:0:0:0:
88,192,8969,1,0,0:0:0:0:
140,120,9165,2,0,P|92:100|44:108,1,83,8|0,0:0|0:0,0:0:0:0:
61,282,9557,2,0,P|103:282|139:264,1,83,8|0,0:0|0:0,0:0:0:0:
256,120,9949,6,0,P|304:96|316:200,1,166,10|0,0:0|0:0,0:0:0:0:
166,177,10538,2,0,P|182:104|256:120,1,166,8|0,0:0|0:0,0:0:0:0:
136,276,11126,2,0,P|80:296|48:284,1,83,8|0,0:0|0:0,0:0:0:0:
256,200,11518,2,0,L|256:292,1,83,8|0,0:0|0:0,0:0:0:0:
376,276,11910,2,0,P|432:296|464:284,1,83,8|0,0:0|0:0,0:0:0:0:
392,116,12302,6,0,P|351:111|315:130,2,83,8|0|0,0:0|0:0|0:0,0:0:0:0:
196,130,12890,2,0,P|160:111|120:116,2,83,8|0|0,0:0|0:0|0:0,0:0:0:0:
256,268,13479,1,8,0:0:0:0:
256,56,13675,1,0,0:0:0:0:
184,212,13871,2,0,L|92:212,1,83,10|0,0:0|0:0,0:0:0:0:
328,212,14263,2,0,L|420:212,1,83,10|0,0:0|0:0,0:0:0:0:
333,313,14655,6,0,P|257:345|185:309,1,166,14|0,0:0|0:0,0:0:0:0:
136,196,15243,1,8,0:0:0:0:
136,196,15341,1,0,0:0:0:0:
136,196,15439,2,0,L|116:100,1,83,0|0,0:0|0:0,0:0:0:0:
256,15,15832,2,0,L|345:15,1,83,8|0,0:0|0:0,0:0:0:0:
119,114,16224,2,0,L|36:114,1,83,8|0,0:0|0:0,0:0:0:0:
398,192,16616,2,0,L|481:192,1,83,8|0,0:0|0:0,0:0:0:0:
352,292,17008,5,8,0:0:0:0:
456,348,17204,1,0,0:0:0:0:
352,292,17400,1,0,0:0:0:0:
256,360,17596,1,8,0:0:0:0:
256,360,17694,1,0,0:0:0:0:
256,360,17792,2,0,L|160:364,1,83
88,192,18185,2,0,P|88:112|112:88,1,83,10|0,0:0|0:0,0:0:0:0:
256,24,18577,2,0,P|336:24|360:48,1,83,8|0,0:0|0:0,0:0:0:0:
424,192,18970,2,0,P|424:272|400:296,1,83,8|0,0:0|0:0,0:0:0:0:
256,296,19361,6,0,P|272:228|368:248,1,166,14|0,0:0|0:0,0:0:0:0:
256,376,19949,1,8,0:0:0:0:
256,376,20047,1,0,0:0:0:0:
256,376,20145,1,0,0:0:0:0:
96,284,20341,1,0,0:0:0:0:
256,192,20538,2,0,L|256:104,1,83,8|0,0:0|0:0,0:0:0:0:
184,233,20930,2,0,L|256:192,1,83,8|0,0:0|0:0,0:0:0:0:
327,233,21322,2,0,L|256:192,1,83,8|0,0:0|0:0,0:0:0:0:
416,192,21714,6,0,P|428:264|328:328,1,166,8|0,0:0|0:0,0:0:0:0:
256,280,22302,1,8,0:0:0:0:
256,280,22400,1,0,0:0:0:0:
256,280,22498,1,0,0:0:0:0:
145,325,22694,1,0,0:0:0:0:
92,192,22890,2,0,P|80:152|92:96,1,83,8|0,0:0|0:0,0:0:0:0:
256,32,23283,2,0,L|256:115,1,83,8|0,0:0|0:0,0:0:0:0:
420,192,23675,2,0,P|432:152|420:96,1,83,8|0,0:0|0:0,0:0:0:0:
256,256,24067,6,0,B|352:240|352:240|376:276|416:272,1,166,8|0,0:0|0:0,0:0:0:0:
352,144,24655,1,8,0:0:0:0:
352,144,24753,1,0,0:0:0:0:
352,144,24851,6,0,L|340:76,3,41.5,2|0|0|0,0:0|0:0|0:0|0:0,0:0:0:0:
256,84,25243,2,0,L|256:16,3,41.5,10|0|0|0,0:0|0:0|0:0|0:0,0:0:0:0:
256,164,25636,2,0,L|256:205,3,41.5,10|0|0|0,0:0|0:0|0:0|0:0,0:0:0:0:
160,144,26028,2,0,L|167:103,3,41.5,10|0|0|0,0:0|0:0|0:0|0:0,0:0:0:0:
96,192,26420,5,6,0:0:0:0:
96,352,26616,1,2,0:0:0:0:
256,352,26812,1,0,0:0:0:0:
256,192,27008,2,0,P|328:188|340:280,2,166,0|8|10,0:0|0:0|0:0,0:0:0:0:
162,266,27988,2,0,P|179:191|256:192,1,166,10|2,0:0|0:0,0:0:0:0:
256,340,28577,1,2,0:0:0:0:
136,340,28773,5,14,0:0:0:0:
376,340,28969,1,2,0:0:0:0:
256,340,29165,1,0,0:0:0:0:
132,192,29361,2,0,P|112:144|120:112,2,83,6|0|8,0:0|0:0|0:0,0:0:0:0:
256,72,29949,1,4,0:0:0:0:
256,72,30145,1,10,0:0:0:0:
380,191,30341,2,0,P|398:155|393:115,1,83,14|0,0:0|0:0,0:0:0:0:
256,232,30734,6,0,L|256:260,8,20.75,0|0|0|0|0|0|0|0|14,0:0|0:0|0:0|0:0|0:0|0:0|0:0|0:0|0:0,0:0:0:0:
60,320,31714,1,4,0:0:0:0:
256,376,32106,1,8,0:0:0:0:
256,376,32204,1,0,0:0:0:0:
256,376,32302,1,4,0:0:0:0:
256,260,32498,1,8,0:0:0:0:
452,320,32694,2,0,P|500:296|512:244,1,83,14|0,0:0|0:0,0:0:0:0:
511,112,33087,2,0,P|489:77|450:63,1,83,2|2,0:0|0:0,0:0:0:0:
260,160,33479,6,0,B|180:193|180:137|95:168,1,166,14|0,0:0|0:0,0:0:0:0:
292,74,34067,1,0,0:0:0:0:
256,264,34263,1,0,0:0:0:0:
436,192,34459,1,8,0:0:0:0:
436,192,34557,1,0,0:0:0:0:
436,192,34655,1,0,0:0:0:0:
256,336,34851,1,10,0:0:0:0:
68,192,35047,2,0,P|60:136|76:104,1,83,10|0,0:0|0:0,0:0:0:0:
324,200,35439,2,0,P|332:256|316:288,1,83,10|0,0:0|0:0,0:0:0:0:
107,265,35832,6,0,B|132:256|144:228|144:228|256:240,1,166,14|0,0:0|0:0,0:0:0:0:
76,196,36420,1,0,0:0:0:0:
152,96,36616,1,0,0:0:0:0:
256,240,36812,2,0,L|256:288,2,41.5,8|0|0,0:0|0:0|0:0,0:0:0:0:
360,96,37204,1,10,0:0:0:0:
436,196,37400,2,0,P|444:248|412:296,1,83,8|0,0:0|0:0,0:0:0:0:
288,128,37792,2,0,P|280:76|312:28,1,83,2|2,0:0|0:0,0:0:0:0:
368,236,38185,6,0,B|256:256|256:256|272:284|256:312,1,166,10|0,0:0|0:0,0:0:0:0:
96,192,38773,1,0,0:0:0:0:
188,288,38969,2,0,L|80:304,1,83,0|8,0:0|0:0,0:0:0:0:
105,300,39263,1,0,0:0:0:0:
105,300,39361,1,0,0:0:0:0:
324,288,39557,2,0,L|432:304,2,83,10|8|0,0:0|0:0|0:0,0:0:0:0:
256,88,40145,1,2,0:0:0:0:
256,240,40341,1,2,0:0:0:0:
320,60,40538,6,0,P|254:16|190:60,1,166,14|0,0:0|0:0,0:0:0:0:
120,192,41126,2,0,P|72:208|8:184,1,83,2|0,0:0|0:0,0:0:0:0:
256,244,41518,1,10,0:0:0:0:
256,256,41616,1,0,0:0:0:0:
256,268,41714,1,0,0:0:0:0:
176,336,41910,1,10,0:0:0:0:
320,360,42106,2,0,L|420:360,1,83,8|2,0:0|0:0,0:0:0:0:
504,192,42498,1,2,0:0:0:0:
503,163,42596,1,0,0:0:0:0:
492,136,42694,1,2,0:0:0:0:
472,115,42792,1,0,0:0:0:0:
445,103,42890,5,10,0:0:0:0:
352,192,43087,1,2,0:0:0:0:
68,192,43479,1,0,0:0:0:0:
184,260,43675,1,0,0:0:0:0:
184,124,43871,1,8,0:0:0:0:
184,124,43969,1,0,0:0:0:0:
184,124,44067,1,0,0:0:0:0:
68,192,44263,1,10,0:0:0:0:
256,192,44459,2,0,L|352:160,1,83,10|0,0:0|0:0,0:0:0:0:
352,252,44851,2,0,L|448:284,1,83,0|0,0:0|0:0,0:0:0:0:
480,156,45243,6,0,P|496:96|408:28,1,166,12|0,0:0|0:0,0:0:0:0:
328,108,45832,2,0,P|256:144|184:108,1,166,10|2,0:0|0:0,0:0:0:0:
385,62,46420,2,0,P|401:102|385:150,1,83,8|2,0:0|0:0,0:0:0:0:
119,139,46812,2,0,P|111:98|127:61,1,83,8|2,0:0|0:0,0:0:0:0:
299,244,47204,2,0,L|216:244,1,83,8|2,0:0|0:0,0:0:0:0:
32,156,47596,6,0,P|16:96|104:28,1,166,8|0,0:0|0:0,0:0:0:0:
184,108,48185,2,0,P|256:144|328:108,1,166,10|2,0:0|0:0,0:0:0:0:
127,62,48773,2,0,P|111:102|127:150,1,83,8|2,0:0|0:0,0:0:0:0:
392,139,49165,2,0,P|400:98|384:61,1,83,12|2,0:0|0:0,0:0:0:0:
213,244,49557,2,0,L|296:244,1,83,8|2,0:0|0:0,0:0:0:0:
336,368,49949,6,0,L|144:368,1,166,8|0,0:0|0:0,0:0:0:0:
72,272,50538,2,0,P|32:192|80:136,1,166,10|2,0:0|0:0,0:0:0:0:
216,96,51126,2,0,B|255:96|255:96|295:112,1,83,8|2,0:0|0:0,0:0:0:0:
376,192,51518,2,0,L|488:192,1,83,8|2,0:0|0:0,0:0:0:0:
295,272,51910,2,0,B|255:288|255:288|216:288,1,83,8|2,0:0|0:0,0:0:0:0:
176,368,52302,6,0,L|368:368,1,166,8|2,0:0|0:0,0:0:0:0:
440,272,52891,2,0,P|480:192|432:136,1,166,10|2,0:0|0:0,0:0:0:0:
296,96,53479,2,0,B|256:96|256:96|216:112,1,83,8|2,0:0|0:0,0:0:0:0:
136,192,53871,2,0,L|24:192,1,83,12|2,0:0|0:0,0:0:0:0:
216,272,54263,2,0,B|256:288|256:288|296:288,1,83,8|2,0:0|0:0,0:0:0:0:
380,192,54655,5,8,0:0:0:0:
256,104,54851,1,2,0:0:0:0:
256,104,54949,1,2,0:0:0:0:
256,104,55047,1,2,0:0:0:0:
132,192,55243,2,0,P|88:204|80:112,1,166,10|2,0:0|0:0,0:0:0:0:
200,232,55832,2,0,P|152:276|108:280,1,83,8|2,0:0|0:0,0:0:0:0:
318,220,56224,2,0,P|380:240|406:276,1,83,12|2,0:0|0:0,0:0:0:0:
249,123,56616,2,0,P|235:59|253:19,1,83,8|2,0:0|0:0,0:0:0:0:
404,192,57008,5,14,0:0:0:0:
404,352,57204,1,2,0:0:0:0:
256,272,57400,1,0,0:0:0:0:
108,192,57596,1,2,0:0:0:0:
108,352,57792,1,0,0:0:0:0:
256,272,57988,2,0,P|320:264|432:312,1,166,8|10,0:0|0:0,0:0:0:0:
256,272,58577,2,0,P|192:264|80:312,1,166,10|0,0:0|0:0,0:0:0:0:
256,360,59165,1,2,0:0:0:0:
256,152,59361,5,10,0:0:0:0:
92,152,59557,1,2,0:0:0:0:
176,20,59753,1,0,0:0:0:0:
256,152,59949,1,2,0:0:0:0:
420,152,60145,1,0,0:0:0:0:
336,284,60341,2,0,P|304:344|256:288,1,166,8|10,0:0|0:0,0:0:0:0:
256,95,60930,2,0,P|212:39|176:100,1,166,14|0,0:0|0:0,0:0:0:0:
256,192,61518,1,2,0:0:0:0:
408,104,61714,5,10,0:0:0:0:
408,280,61910,1,2,0:0:0:0:
256,192,62106,1,0,0:0:0:0:
104,280,62302,1,2,0:0:0:0:
104,104,62498,1,0,0:0:0:0:
104,280,62694,2,0,B|160:264|160:264|156:344|208:368,1,166,8|10,0:0|0:0,0:0:0:0:
408,280,63283,2,0,B|352:264|352:264|356:344|304:368,1,166,10|0,0:0|0:0,0:0:0:0:
108,188,63871,1,2,0:0:0:0:
256,68,64067,5,10,0:0:0:0:
404,188,64263,1,2,0:0:0:0:
404,188,64361,1,2,0:0:0:0:
404,188,64459,1,2,0:0:0:0:
256,316,64655,1,2,0:0:0:0:
168,136,64851,2,0,P|132:112|80:112,1,83,0|8,0:0|0:0,0:0:0:0:
344,136,65243,2,0,P|380:112|432:112,1,83,0|10,0:0|0:0,0:0:0:0:
256,336,65636,6,0,L|256:56,1,249,14|2,0:0|0:0,0:0:0:0:
168,44,66420,5,8,0:0:0:0:
336,44,66616,1,0,0:0:0:0:
168,76,66812,1,0,0:0:0:0:
336,76,67008,1,8,0:0:0:0:
156,156,67204,2,0,P|105:131|88:81,1,83,0|0,0:0|0:0,0:0:0:0:
356,155,67596,2,0,P|394:142|419:109,1,83,8|0,0:0|0:0,0:0:0:0:
256,80,67988,1,0,0:0:0:0:
256,240,68185,1,0,0:0:0:0:
256,160,68381,1,0,0:0:0:0:
256,320,68578,1,0,0:0:0:0:
112,240,68773,6,0,L|24:240,1,83,8|0,0:0|0:0,0:0:0:0:
184,144,69165,1,0,0:0:0:0:
392,144,69361,2,0,L|480:144,1,83,8|0,0:0|0:0,0:0:0:0:
328,240,69753,1,0,0:0:0:0:
256,32,69949,5,12,0:0:0:0:
256,352,70341,1,8,0:0:0:0:
45,192,70734,1,8,0:0:0:0:
464,192,71126,5,4,0:0:0:0:
