osu file format v5

[General]
AudioFilename: 114 Battle 2.mp3
AudioLeadIn: 3000
PreviewTime: -1
Countdown: 1
SampleSet: Normal
StackLeniency: 0.7
Mode: 0

[Metadata]
Title:FFIV- Boss Battle
Artist:Junya Nakano
Creator:ZeroFactor
Version:Hard
Source:
Tags:

[Difficulty]
HPDrainRate:3
CircleSize:5
OverallDifficulty:7
SliderMultiplier:0.8
SliderTickRate:2

[Events]
//Background and Video events
0,0,"illust_4s.jpg"
//Break Periods
2,39997,47324
2,101996,109505
//Storyboard Layer 0 (Background)
//Storyboard Layer 1 (Failing)
//Storyboard Layer 2 (Passing)
//Storyboard Layer 3 (Foreground)
//Storyboard Sound Samples
//Background Colour Transformations
3,100,11,11,17

[TimingPoints]
3496,352.93177570093,4,1,0,100

[HitObjects]
256,192,3495,1,0
320,128,3848,1,0
384,64,4201,2,0,B|384:320,1,240
352,320,5437,1,0
320,320,5613,1,0
288,320,5790,1,0
256,320,5966,1,0
224,320,6142,1,0
192,320,6319,2,0,B|64:320|64:320|64:96,1,320
64,96,8084,1,0
64,64,8437,5,0
96,64,8789,1,0
128,64,9142,2,0,B|416:64,1,280
416,128,10554,2,0,B|96:128,1,280
128,192,11966,2,0,B|416:192,1,280
416,256,13378,2,0,B|128:256,1,280
256,192,17613,2,0,B|288:160,14,40
352,160,20436,5,0
384,192,20789,1,0
352,224,21142,2,0,B|224:288|128:192|96:192,1,240
96,160,22377,1,0
96,128,22554,1,0
96,96,22730,1,0
128,96,22907,1,0
160,96,23083,1,0
192,96,23260,2,0,B|448:96|448:96|448:128,1,280
448,160,24848,1,0
352,224,25201,1,0
256,288,25554,1,0
192,320,25907,6,0,B|192:32,1,280
128,32,27318,2,0,B|128:320,1,280
64,320,28907,2,0,B|64:32,1,280
128,32,30318,2,0,B|416:32,1,280
224,192,34553,2,0,B|288:192,13,40
320,224,37200,5,0
352,192,37377,1,0
352,256,37906,1,0
384,224,38083,1,0
384,288,38789,1,0
416,256,38965,1,0
416,320,39495,1,0
448,288,39671,1,0
256,192,48494,5,0
320,192,48847,1,0
384,192,49200,1,0
448,128,49553,1,0
384,96,49906,6,0,B|320:96,6,40
256,96,51494,5,0
192,160,51847,1,0
128,224,52200,1,0
192,288,52553,1,0
288,288,52906,2,0,B|352:288|320:288,6,40
384,224,54318,5,0
352,192,54494,1,0
320,160,54671,2,0,B|160:96|64:256|256:288|384:320|352:320,1,400
416,320,56788,1,0
448,256,57141,2,0,B|352:64|64:32,1,440
128,96,59435,1,0
128,192,59788,2,0,B|0:320|0:320|192:320|384:160,1,600
256,192,62788,5,0
256,192,63317,1,0
256,192,63847,1,0
256,192,64376,1,0
320,192,64906,1,0
256,256,65259,5,0
160,256,65611,1,0
128,192,65964,2,0,B|128:96|352:96,1,240
352,128,67553,1,0
384,160,67729,1,0
416,192,67906,1,0
448,224,68082,1,0
480,256,68258,1,0
480,288,68435,1,0
448,288,68611,2,0,B|352:288|160:192,1,280
128,128,70200,5,0
224,96,70553,1,0
320,96,70905,1,0
416,128,71258,2,0,B|416:256|160:320,1,320
160,256,72847,2,0,B|256:224|352:96,1,240
288,64,74082,2,0,B|160:160|32:192,1,280
32,128,75494,2,0,B|160:64|384:128,1,320
256,192,79729,5,0
224,256,80082,6,0,B|288:256,2,40
224,320,80788,6,0,B|288:320,2,40
320,320,81493,6,0,B|320:256,2,40
352,192,82552,5,0
288,128,82905,1,0
224,64,83258,2,0,B|64:192|64:256,1,240
64,288,84493,5,0
96,320,84670,1,0
128,288,84846,1,0
160,320,85023,1,0
192,288,85199,1,0
224,320,85376,1,0
256,288,85552,2,0,B|448:96,1,240
352,64,86964,5,0
288,128,87317,1,0
224,192,87670,1,0
160,256,88023,2,0,B|288:320|448:160,1,320
416,128,89611,2,0,B|288:224|128:192,1,280
128,128,91023,2,0,B|288:128|384:64,1,240
384,128,92258,2,0,B|224:320,1,240
256,192,93846,12,0,95434
320,160,96669,5,0
288,224,97022,2,0,B|352:224,2,40
288,288,97728,2,0,B|352:288,2,40
224,288,98434,2,0,B|160:288,2,40
96,160,99493,5,0
128,128,99669,1,0
128,192,100199,1,0
160,160,100375,1,0
160,224,100905,1,0
192,192,101081,1,0
192,256,101611,1,0
224,224,101787,1,0
256,192,110787,5,0
256,128,111140,1,0
256,64,111493,1,0
320,64,111846,1,0
384,64,112198,2,0,B|384:128,4,40
448,96,113257,1,0
384,160,113610,5,0
352,224,113963,1,0
320,288,114316,1,0
256,288,114669,1,0
224,224,115022,2,0,B|288:224,4,40
256,160,116081,1,0
160,96,116257,5,0
128,128,116434,1,0
96,160,116610,2,0,B|128:224|448:320,1,360
448,256,118551,1,0
448,192,118904,1,0
448,128,119257,2,0,B|32:128|32:288,1,480
192,288,121728,1,0
256,288,122081,2,0,B|480:32|480:32|160:32,1,640
256,192,125433,1,0
256,192,125963,1,0
320,192,126492,1,0
352,192,127022,1,0
384,192,127375,1,0
256,192,127727,12,0,136551
