osu file format v5

[General]
AudioFilename: PistoleroMix2.mp3
AudioLeadIn: 1070
PreviewTime: 45743
Countdown: 1
SampleSet: Normal
StackLeniency: 0.7
Mode: 0
LetterboxInBreaks: 1

[Editor]
Bookmarks: 18100,104897
DistanceSpacing: 0.800000011920929
BeatDivisor: 4
GridSize: 16

[Metadata]
Title:Pistolero
Artist:Juno Reactor
Creator:LuigiHann
Version:Normal
Source:Once Upon a Time in Mexico
Tags:western

[Difficulty]
HPDrainRate:4
CircleSize:4
OverallDifficulty:4
SliderMultiplier:1.4
SliderTickRate:0.5

[Events]
//Background and Video events
//Break Periods
//Storyboard Layer 0 (Background)
//Storyboard Layer 1 (Fail)
//Storyboard Layer 2 (Pass)
//Storyboard Layer 3 (Foreground)
//Storyboard Sound Samples
//Background Colour Transformations
3,100,163,162,255

[TimingPoints]
1045,425.471564317117,4,1,0,37,1,0
17100,-100,4,1,0,100,0,0
17684,425.471564317118,4,1,0,100,1,0
45717,425.471564317118,4,1,0,100,1,0

[HitObjects]
96,64,1045,1,0
240,240,1683,1,0
208,312,1895,2,0,B|264:344|384:328|472:240|464:48,1,420
320,120,3597,6,0,B|264:152|216:112,3,93.3333333333333
48,256,5086,2,0,B|48:296|112:304,1,70
328,296,7001,6,0,B|376:336|408:280,3,93.3333333333333
464,144,8384,2,0,B|480:120|456:88,2,46.6666666666667
256,192,9554,12,0,11256
216,152,12532,6,0,B|168:104,2,35
352,208,14234,6,0,B|376:168,2,35
280,80,15936,6,0,B|240:64|208:112,2,70
352,120,16681,1,0
344,296,17684,5,0
248,328,18109,6,0,B|168:336|112:248,1,140
80,120,18960,2,0,B|168:128|192:32,1,140
336,64,19811,2,0,B|400:72|400:120,2,70
400,200,20662,6,0,B|368:264|288:272,1,105
240,352,21300,1,0
168,320,21513,2,0,B|136:248|48:280|56:208,1,140
72,152,22151,2,0,B|88:72|184:152|224:128|232:24,1,210
352,144,23215,2,0,B|408:152|424:96,2,70
424,320,24066,6,0,B|360:264|304:320,1,105
216,336,24704,2,0,B|184:368|128:328,1,70
64,128,25555,1,0
112,64,25767,2,0,B|184:40|232:160|320:120|384:48,1,280
464,208,27469,6,0,B|440:288|392:296,1,105
296,320,28108,1,0
216,328,28320,2,0,B|120:336|72:264,3,140
328,88,30448,5,0
400,64,30660,1,0
320,280,31299,1,0
224,152,31724,6,0,B|144:160|88:72,1,140
72,248,32575,2,0,B|160:240|184:336,1,140
336,320,33426,2,0,B|400:312|400:264,2,70
400,184,34277,6,0,B|368:120|288:112,1,105
240,32,34915,1,0
168,64,35128,2,0,B|136:136|48:104|56:176,1,140
72,232,35766,2,0,B|88:312|184:232|224:256|232:360,1,210
352,240,36830,2,0,B|408:232|424:288,2,70
424,64,37681,6,0,B|360:120|304:64,1,105
216,48,38319,2,0,B|184:16|128:56,1,70
64,256,39170,1,0
112,320,39382,2,0,B|184:344|232:224|320:264|384:336,1,280
464,176,41084,6,0,B|440:96|392:88,1,105
296,64,41723,1,0
216,56,41935,2,0,B|120:48|72:120,3,140
216,176,43637,2,0,B|120:168|72:240,3,140
256,192,45717,12,0,46993
392,48,48482,6,0,B|440:80|416:136,1,70
296,296,49333,1,0
224,328,49546,2,0,B|144:360|96:256,3,140
72,128,51248,6,0,B|112:56|160:80,1,105
256,120,51886,1,0
312,168,52099,2,0,B|392:216|472:152,1,140
440,304,52950,2,0,B|388:350|308:302,1,140
232,96,54651,6,0,B|280:56|304:56|336:72,1,105
376,120,55236,1,0
448,208,55502,2,0,B|496:272|376:336,1,140
328,352,56141,2,0,B|288:368|272:344,2,35
184,304,56779,5,0
72,200,57204,1,0
160,72,57630,1,0
312,64,58055,6,0,B|392:56|416:104,1,105
456,200,58693,1,0
456,200,58906,1,0
232,264,59544,2,0,B|184:272|176:328,1,70
344,48,61033,5,0
272,80,61246,1,0
416,256,61884,1,0
288,336,62310,6,0,B|192:344|160:264,1,140
136,208,62948,1,0
120,136,63161,2,0,B|136:56|240:56,3,140
360,128,64863,2,0,B|408:160|464:112,1,105
464,216,65448,1,0
400,288,65714,2,0,B|320:320|272:248,1,140
232,192,66352,1,0
232,192,66565,1,0
136,72,66990,2,0,B|56:128|96:200,2,140
288,56,68266,5,0
376,112,68586,1,0
424,200,68905,2,0,B|416:256|464:272,1,70,0|4
216,312,69756,1,0
216,312,69968,1,0
120,184,70394,5,0
224,72,70819,1,0
360,136,71245,1,0
464,248,71670,6,0,B|448:296|368:312,1,105
280,320,72308,2,0,B|240:288|192:304,1,70
104,96,73159,2,0,B|64:136|72:184,1,70
224,168,73798,5,0
360,96,74223,1,0
400,240,74649,1,0
360,96,75074,1,0
224,168,75500,1,0
256,320,75925,6,0,B|280:288,2,35
184,328,76350,1,0
112,240,76776,2,0,B|104:192|152:168,2,70
264,328,77627,6,0,B|344:336|400:248,1,140
432,120,78478,2,0,B|344:128|320:32,1,140
176,64,79329,2,0,B|112:72|112:120,2,70
112,200,80180,6,0,B|144:264|224:272,1,105
272,352,80818,1,0
344,320,81031,2,0,B|376:248|464:280|456:208,1,140
440,152,81669,2,0,B|424:72|328:152|288:128|280:24,1,210
160,144,82733,2,0,B|104:152|88:96,2,70
88,320,83584,6,0,B|152:264|208:320,1,105
296,336,84222,2,0,B|328:368|384:328,1,70
448,128,85073,1,0
400,64,85285,2,0,B|328:40|280:160|192:120|128:48,1,280
48,208,86987,6,0,B|72:288|120:296,1,105
216,320,87626,1,0
296,328,87838,2,0,B|392:336|440:264,1,140
256,192,88689,12,0,89966
264,56,91242,6,0,B|344:48|400:136,1,140
432,264,92093,2,0,B|344:256|320:352,1,140
176,320,92944,2,0,B|112:312|112:264,2,70
112,184,93795,6,0,B|144:120|224:112,1,105
272,32,94433,1,0
344,64,94646,2,0,B|376:136|464:104|456:176,1,140
440,232,95284,2,0,B|424:312|328:232|288:256|280:360,1,210
160,240,96348,2,0,B|104:232|88:288,2,70
88,64,97199,6,0,B|152:120|208:64,1,105
296,48,97837,2,0,B|328:16|384:56,1,70
448,256,98688,1,0
400,320,98900,2,0,B|328:344|280:224|192:264|128:336,1,280
48,176,100602,6,0,B|72:96|120:88,1,105
216,64,101241,1,0
296,56,101453,2,0,B|392:48|440:120,3,140
448,264,103581,5,0
392,208,103793,1,0
200,336,104432,1,0
104,216,104857,5,0
200,96,105283,2,0,L|240:40|248:120|296:56|328:120,1,280
424,240,106559,5,0
280,288,106984,2,0,L|216:336|200:256|152:296|128:224,1,280
288,216,108261,5,0
256,192,108686,12,0,110601
144,272,111665,5,0
288,320,112090,2,0,L|344:312|328:248|408:280|400:200,1,280
256,152,113366,5,0
136,56,113792,2,0,L|88:80|120:104|88:128|72:152|88:192|128:184|136:240,1,280
272,272,115068,5,0
256,192,115494,12,0,118472
