osu file format v14

[General]
AudioFilename: 3-02 Focus.mp3
AudioLeadIn: 0
PreviewTime: 16057
Countdown: 0
SampleSet: Soft
StackLeniency: 0.7
Mode: 0
LetterboxInBreaks: 0
WidescreenStoryboard: 0

[Editor]
DistanceSpacing: 1.3
BeatDivisor: 2
GridSize: 4
TimelineZoom: 1

[Metadata]
Title:Focus
TitleUnicode:Focus
Artist:Juno
ArtistUnicode:Juno
Creator:Nozhomi
Version:Easy
Source:かたわ少女
Tags:katawa shoujo enigmatic box of sound four leaf studios trailer krfawy
BeatmapID:705309
BeatmapSetID:316562

[Difficulty]
HPDrainRate:2
CircleSize:2.5
OverallDifficulty:2
ApproachRate:3
SliderMultiplier:0.8
SliderTickRate:1

[Events]
//Background and Video events
0,0,"ktws.jpg",0,0
//Break Periods
//Storyboard Layer 0 (Background)
//Storyboard Layer 1 (Fail)
//Storyboard Layer 2 (Pass)
//Storyboard Layer 3 (Foreground)
//Storyboard Sound Samples

[TimingPoints]
141,333.333333333333,4,2,1,60,1,0
14640,-100,4,2,1,50,0,0
16140,-100,4,2,1,75,0,0
26807,-100,4,2,2,85,0,0
37474,-100,4,2,2,85,0,1
48140,-100,4,2,1,60,0,0
50807,-100,4,2,1,50,0,0
52140,-100,4,2,1,40,0,0
52807,-100,4,2,1,30,0,0
53224,-100,4,2,1,15,0,0

[Colours]
Combo1 : 248,241,195
Combo2 : 234,179,184
Combo3 : 145,120,149
Combo4 : 215,171,146
Combo5 : 189,111,116

[HitObjects]
140,251,5474,6,0,B|256:283|256:283|371:251,1,240,2|0,0:0|0:0,0:0:0:0:
312,176,6807,2,0,B|256:192|256:192|197:176,2,120,2|2|2,0:0|0:0|0:0,0:0:0:0:
404,148,8140,6,0,B|408:236|455:289|455:289|400:300|373:318,1,240,2|0,0:0|0:0,0:0:0:0:
295,375,9474,2,0,P|279:319|295:262,2,120,2|2|2,0:0|0:0|0:0,0:0:0:0:
374,318,10807,6,0,P|368:198|261:171,1,240,2|0,0:0|0:0,0:0:0:0:
188,220,12140,2,0,P|164:272|104:308,2,120,2|2|2,0:0|0:0|0:0,0:0:0:0:
184,124,13474,6,0,P|224:132|262:123,1,80,2|0,0:0|0:0,0:0:0:0:
356,104,14140,2,0,P|394:169|356:235,1,160
24,44,16140,6,0,L|76:200,1,160,4|2,0:0|0:0,0:0:0:0:
201,340,17474,2,0,P|256:360|311:340,2,120,0|2|0,0:0|0:0|0:0,0:0:0:0:
148,260,18807,6,0,P|119:187|151:116,1,160,0|2,3:0|0:0,0:0:0:0:
343,145,20140,2,0,P|359:202|344:260,2,120,0|2|0,0:0|0:0|0:0,0:0:0:0:
268,84,21474,6,0,P|344:104|419:79,1,160,0|2,3:0|0:0,0:0:0:0:
504,252,22807,2,0,P|452:276|368:288,2,120,0|2|0,0:0|0:0|0:0,0:0:0:0:
508,156,24140,6,0,B|508:96|508:96|472:68|396:96,1,160,0|2,3:0|0:0,0:0:0:0:
316,257,25474,2,0,B|256:269|256:269|198:257,2,120,0|2|0,0:0|0:0|0:0,0:0:0:0:
336,162,26807,6,0,B|256:178|256:178|156:158,1,160,6|0,0:0|0:0,0:0:0:0:
84,140,27807,1,8,0:0:0:0:
148,68,28140,2,0,L|226:83,1,80,2|8,0:0|0:0,0:0:0:0:
304,28,28807,2,0,L|382:43,1,80,2|8,0:0|0:0,0:0:0:0:
476,64,29474,6,0,B|480:112|464:144|464:144|488:180|484:218,1,160,2|0,0:0|0:0,0:0:0:0:
460,312,30474,1,8,0:0:0:0:
368,292,30807,2,0,L|316:232,1,80,2|8,0:0|0:0,0:0:0:0:
260,308,31474,2,0,L|208:248,1,80,0|8,0:0|0:0,0:0:0:0:
140,180,32140,6,0,P|85:228|30:180,1,160,2|0,0:0|0:0,0:0:0:0:
84,100,33140,1,8,0:0:0:0:
180,104,33474,2,0,P|217:118|256:119,1,80,2|8,0:0|0:0,0:0:0:0:
352,104,34140,2,0,P|391:105|428:119,1,80,2|0,0:0|0:0,0:0:0:0:
456,212,34807,6,0,B|436:241|436:241|400:267,1,80,2|8,0:0|0:0,0:0:0:0:
308,296,35474,2,0,B|278:276|278:276|252:240,1,80,0|8,0:0|0:0,0:0:0:0:
248,144,36140,2,0,B|272:144|328:132|328:132|344:144|364:148,2,120,2|0|8,0:0|0:0|0:0,0:0:0:0:
160,100,37474,6,0,P|149:144|157:184,1,80,6|8,0:0|0:0,0:0:0:0:
242,221,38140,2,0,P|253:177|245:137,1,80,0|8,0:0|0:0,0:0:0:0:
244,48,38807,2,0,P|300:44|360:18,2,120,2|0|0,0:0|0:0|0:0,0:0:0:0:
148,44,40140,6,0,L|168:132,1,80,2|8,0:0|0:0,0:0:0:0:
194,214,40807,1,0,0:0:0:0:
256,140,41140,1,8,0:0:0:0:
296,227,41474,2,0,P|271:280|296:333,2,120,2|0|8,0:0|0:0|0:0,0:0:0:0:
372,168,42807,5,10,0:0:0:0:
482,326,43474,1,10,0:0:0:0:
297,377,44140,1,10,0:0:0:0:
344,191,44807,1,0,3:0:0:0:
388,4,45474,6,0,L|309:17,1,80,2|8,0:0|0:0,0:0:0:0:
214,38,46140,2,0,P|202:75|214:113,1,80,0|8,0:0|0:0,0:0:0:0:
304,148,46807,2,0,B|416:128,2,80,2|8|2,0:0|0:0|0:0,0:0:0:0:
224,200,47807,1,8,0:0:0:0:
144,148,48140,6,0,P|153:263|288:272,1,240,6|0,0:0|0:0,0:0:0:0:
344,244,49474,2,0,B|400:232|400:232|461:245,2,120,2|2|2,0:0|0:0|0:0,0:0:0:0:
256,279,50807,6,0,P|171:224|256:169,1,240,2|0,0:0|0:0,0:0:0:0:
256,192,52140,12,2,53307,0:0:0:0:
