osu file format v9

[General]
AudioFilename: Kizamu Kisetsu (TV-EDIT cho.2).mp3
AudioLeadIn: 1500
PreviewTime: 612
Countdown: 0
SampleSet: Soft
StackLeniency: 0.7
Mode: 0
LetterboxInBreaks: 0

[Editor]
Bookmarks: 21102,37102,53102,89102
DistanceSpacing: 1.3
BeatDivisor: 4
GridSize: 4

[Metadata]
Title:Kizamu Kisetsu (TV Size)
Artist:Junko Okada
Creator:Kert
Version:Energetic
Source:ef - a tale of memories
Tags:minori kei shaft CXu

[Difficulty]
HPDrainRate:6
CircleSize:4
OverallDifficulty:7
ApproachRate:7
SliderMultiplier:1.6
SliderTickRate:2

[Events]
//Background and Video events
0,0,"272157.jpg"
//Break Periods
//Storyboard Layer 0 (Background)
//Storyboard Layer 1 (Fail)
//Storyboard Layer 2 (Pass)
//Storyboard Layer 3 (Foreground)
//Storyboard Sound Samples
//Background Colour Transformations
3,100,163,162,255

[TimingPoints]
1112.70210436928,500,4,2,0,80,1,0
20612,-100,4,2,0,75,0,0
21112,-100,4,2,0,65,0,0
22112,-133.333333333333,4,2,0,50,0,0
33862,-133.333333333333,4,2,0,40,0,0
34612,-133.333333333333,4,2,0,30,0,0
35612,-133.333333333333,4,2,0,40,0,0
36112,-133.333333333333,4,2,0,55,0,0
36612,-133.333333333333,4,2,0,65,0,0
37112,-100,4,2,0,70,0,0
45112,-100,4,2,0,75,0,0
47112,-100,4,2,0,80,0,0
49112,-100,4,2,0,70,0,0
51112,-100,4,2,0,60,0,0
51612,-100,4,2,0,70,0,0
52112,-100,4,2,0,80,0,0
52612,-100,4,2,0,90,0,0
53112,-100,4,2,0,80,0,1
79112,-100,4,2,0,80,0,0

[Colours]
Combo1 : 255,135,197
Combo2 : 135,183,255
Combo3 : 255,135,248
Combo4 : 135,255,172

[HitObjects]
76,68,612,1,0
76,68,1112,2,0,B|100:156|196:180,1,160,2|0
272,124,1862,1,0
304,128,1987,1,0
332,144,2112,1,0
408,216,2362,1,0
472,296,2612,5,0
472,296,3112,2,0,B|392:336|304:304,1,160,2|0
232,264,3862,2,0,B|161:208|153:115,1,160,0|0
208,48,4612,1,2
308,76,4862,5,0
340,68,4987,1,0
372,60,5112,1,2
468,100,5362,1,0
480,128,5487,1,0
480,160,5612,1,0
460,260,5862,2,0,B|424:312|356:312,2,120,0|0|2
384,188,6862,6,0,B|360:152|320:124,1,80,0|2
183,130,7362,2,0,B|152:152|128:188,1,80,0|2
148,304,7862,2,0,B|192:344|256:352|256:352|320:344|364:304,1,240,0|2
256,128,9112,1,2
452,60,9862,6,0,B|508:20,2,40,0|0|0
376,132,10362,2,0,B|320:92,2,40,0|0|2
460,192,10862,1,0
472,296,11112,1,2
472,296,11612,2,0,B|396:340|320:296,1,160,2|0
244,224,12362,5,0
156,172,12612,1,2
52,188,12862,1,0
40,88,13112,6,0,B|116:44|192:88,1,160,2|0
272,156,13862,1,0
292,180,13987,1,0
320,196,14112,1,0
376,108,14362,1,0
408,104,14487,1,0
440,100,14612,1,2
492,188,14862,1,0
440,280,15112,6,0,B|416:332|364:344|364:344|296:324,1,160,2|0
204,328,15862,2,0,B|148:344|148:344|96:332|72:280,1,160
80,176,16612,1,2
140,92,16862,1,0
236,48,17112,6,0,B|312:32|364:64,2,120,2|0|0
256,148,18112,2,0,B|280:180|332:200,1,80
416,236,18612,2,0,B|404:276|368:300,1,80,2|0
276,336,19112,6,0,B|200:352|148:320,2,120,2|0|0
256,236,20112,1,0
160,196,20362,1,0
56,208,20612,1,2
132,332,21112,5,0
380,332,22112,5,0
440,280,22362,1,0
472,208,22612,1,2
456,132,22862,2,0,B|412:40|304:48,1,179.999994635582,0|0
288,124,23862,6,0,B|352:236,1,119.999996423721,0|0
412,276,24612,1,2
340,308,24862,2,0,B|235:339|178:259,1,179.999994635582
0,128,26112,5,0
60,176,26362,1,0
100,108,26612,1,2
172,76,26862,2,0,B|276:44|333:124,1,179.999994635582
320,200,27862,2,0,B|432:248,1,119.999996423721
476,312,28612,1,2
324,352,29112,6,0,B|244:344|212:292,1,119.999996423721
196,228,29862,1,0
256,180,30112,6,0,B|280:124,1,59.9999982118607,2|0
256,48,30612,1,2
256,48,30862,1,0
64,184,31862,5,0
100,116,32112,2,0,B|120:92|148:80,1,59.9999982118607,2|0
224,92,32612,1,2
288,44,32862,6,0,B|388:28|452:104,1,179.999994635582,0|0
452,180,33862,2,0,B|312:164,1,119.999996423721,0|0
256,160,34612,1,0
100,144,35112,1,0
96,296,35612,5,0
248,328,36112,1,0
380,244,36612,1,0
360,40,37112,6,0,B|424:40|464:92,1,120,2|0
448,224,37862,2,0,B|422:313|337:327,1,160,0|0
264,280,38612,1,0
320,212,38862,1,0
260,148,39112,6,0,B|212:80|108:56|40:100,1,240,2|0
36,272,40362,2,0,B|92:344|180:320,1,160
256,280,41112,1,2
256,280,41612,1,0
312,212,41862,5,0
384,160,42112,1,0
472,144,42362,1,0
412,80,42612,1,2
332,44,42862,6,0,B|192:4|108:88,1,240,0|0
56,160,43862,1,0
56,160,44362,5,0
24,244,44612,1,0
32,344,45112,6,0,B|120:336|176:256,1,160,2|0
264,304,45862,2,0,B|316:233|294:138,1,160,2|0
256,56,46612,1,0
480,40,47112,6,0,B|392:48|336:128,1,160,2|0
248,80,47862,2,0,B|195:150|217:245,1,160,0|0
256,328,48612,1,2
460,136,49112,6,0,B|424:176|388:224|308:180|256:252|256:252|204:180|124:224|88:176|52:136,1,480,2|2
256,96,51112,1,0
376,344,51612,5,0
172,296,52112,1,0
80,112,52612,1,0
276,44,53112,6,0,B|360:44|424:100,1,160,2|0
236,140,53862,2,0,B|152:140|88:196,1,160,2|0
124,292,54612,1,0
220,332,54862,5,0
248,320,54987,1,0
276,308,55112,1,2
364,256,55362,1,0
396,264,55487,1,2
428,272,55612,1,0
476,180,55862,2,0,B|496:88|452:12,1,160
316,68,56612,5,2
256,192,56862,1,0
196,316,57112,2,0,B|156:332|108:332,1,80,2|0
36,264,57612,1,0
124,208,57862,2,0,B|90:180|67:138,1,80,2|0
91,42,58362,1,0
188,84,58612,2,0,B|280:72,1,80,2|0
372,88,59112,6,0,B|452:116|492:228|440:312,2,240,2|2|0
200,304,61112,6,0,B|236:276|248:236,1,80,2|0
236,136,61612,1,0
184,48,61862,2,0,B|88:48|44:116,1,160
56,216,62612,1,2
124,292,62862,1,0
208,232,63112,6,0,B|268:172|356:176,1,160,2|0
408,88,63862,2,0,B|468:148|464:236,1,160,2|0
420,328,64612,1,2
320,304,64862,5,0
296,284,64987,1,0
268,268,65112,2,0,B|188:228|112:268,1,160,2|0
180,328,65862,2,0,B|220:248|180:172,2,160,2|2|0
92,272,67112,6,0,B|52:192|92:116,1,160,0|2
188,80,67862,1,2
220,84,67987,1,0
252,88,68112,1,2
284,92,68237,1,0
316,96,68362,1,2
416,72,68612,1,2
512,32,68862,5,2
512,32,68987,1,0
512,32,69112,2,0,B|528:136|484:212,1,160
440,280,69862,2,0,B|264:308,1,160,2|0
180,288,70612,1,0
80,264,70862,6,0,B|24:188|60:104,2,160,2|2|2
160,196,72112,2,0,B|240:172,1,80,0|0
340,192,72612,1,2
436,236,72862,5,0
456,212,72987,1,0
476,184,73112,2,0,B|472:88|400:44,1,160,2|0
316,100,73862,2,0,B|236:164|172:32|92:100,1,240,0|2
120,308,75112,6,0,B|144:344|180:360,2,80,2|0|0
92,208,75862,2,0,B|118:122|201:100,1,160,2|0
300,124,76612,1,2
400,100,76862,5,0
424,120,76987,1,0
444,144,77112,2,0,B|472:176|476:216,1,80,2|0
448,316,77612,1,0
348,348,77862,2,0,B|264:300|272:216,1,160,2|0
344,140,78612,2,0,B|328:100|296:76,1,80,2|0
200,40,79112,5,2
200,40,79612,1,0
104,80,79862,6,0,B|16:136|36:228,1,160,2|0
60,312,80612,1,0
156,352,80862,1,0
244,296,81112,6,0,B|284:216|368:204,1,160,2|0
272,156,81862,2,0,B|232:76|148:64,1,160
72,136,82612,1,2
16,244,82862,5,0
36,268,82987,1,0
64,284,83112,2,0,B|140:328|216:284,1,160,2|0
312,320,83862,2,0,B|356:244|312:168,1,160
232,100,84612,2,0,B|308:72,1,80,2|0
408,44,85112,5,2
460,136,85362,1,0
460,136,85487,2,0,B|460:188|460:188|484:228|472:272,1,120,0|2
380,292,86112,2,0,B|304:272,1,80
200,248,86612,1,2
156,156,86862,6,0,B|132:100,2,40,0|0|2
256,132,87362,1,0
356,104,87612,1,0
256,36,87862,1,6
