osu file format v14

[General]
AudioFilename: Yellow Smile.mp3
AudioLeadIn: 2000
PreviewTime: 42822
Countdown: 0
SampleSet: Soft
StackLeniency: 0.7
Mode: 0
LetterboxInBreaks: 0
WidescreenStoryboard: 0

[Editor]
Bookmarks: 11098,22132,33167,44201,49719,55236,57995,60753,63512,66270,69029,71788,74546,77305,82822,93857,99374,104891,110408,115236
DistanceSpacing: 1.3
BeatDivisor: 2
GridSize: 4
TimelineZoom: 1.5

[Metadata]
Title:Yellow Smile(bms edit)
TitleUnicode:Yellow Smile(bms edit)
Artist:Junk
ArtistUnicode:Junk
Creator:rui
Version:Normal
Source:BMS
Tags:G2R2014 wring リア充とは何だったのか Trance Step
BeatmapID:540884
BeatmapSetID:226133

[Difficulty]
HPDrainRate:3
CircleSize:3.5
OverallDifficulty:4
ApproachRate:5
SliderMultiplier:1
SliderTickRate:1

[Events]
//Background and Video events
0,0,"2cbfc478.png",0,0
//Break Periods
//Storyboard Layer 0 (Background)
//Storyboard Layer 1 (Fail)
//Storyboard Layer 2 (Pass)
//Storyboard Layer 3 (Foreground)
//Storyboard Sound Samples

[TimingPoints]
64,344.827586206897,4,1,1,30,1,0
5581,-100,4,1,1,30,0,0
11098,-100,4,2,1,60,0,0
16615,-100,4,2,2,60,0,0
19374,-100,4,3,1,40,0,0
20753,-100,4,1,1,40,0,0
22132,-100,4,2,1,40,0,0
38684,-100,4,2,2,60,0,0
41443,-100,4,1,1,40,0,0
43684,-100,4,1,1,40,0,0
44546,-100,4,1,1,30,0,0
55236,-100,4,1,1,40,0,0
55581,-100,4,2,1,40,0,0
57995,-100,4,1,1,30,0,0
60753,-100,4,1,1,40,0,0
61098,-100,4,2,1,40,0,0
63167,-100,4,1,1,40,0,0
63512,-100,4,1,1,30,0,0
66270,-100,4,1,1,40,0,0
66615,-100,4,2,1,40,0,0
68684,-100,4,1,1,40,0,0
69029,-100,4,1,1,30,0,0
71788,-100,4,1,1,40,0,0
72132,-100,4,2,1,40,0,0
74201,-100,4,1,1,40,0,0
74546,-100,4,1,1,30,0,0
76270,-100,4,2,1,40,0,0
76788,-100,4,2,1,40,0,0
78684,-100,4,2,1,20,0,0
79029,-100,4,2,1,25,0,0
79374,-100,4,2,1,30,0,0
79719,-100,4,2,1,35,0,0
80064,-100,4,2,1,40,0,0
80408,-100,4,2,1,45,0,0
80753,-100,4,1,1,50,0,0
81443,-100,4,2,1,10,0,0
82477,-100,4,2,2,60,0,0
82822,-100,4,2,1,50,0,1
93770,-100,4,2,1,50,0,0
93857,-100,4,2,1,50,0,1
99374,-100,4,1,1,50,0,1
103512,-100,4,1,1,40,0,1
104891,-100,4,2,1,40,0,0
110408,-100,4,2,2,60,0,0
113167,-100,4,1,1,40,0,0
115236,-100,4,1,1,50,0,0

[Colours]
Combo1 : 255,104,104
Combo2 : 255,255,128
Combo3 : 128,255,255
Combo4 : 128,255,128

[HitObjects]
92,148,64,6,0,P|144:144|192:128,1,100,4|8,0:0|0:0,0:0:0:0:
312,88,753,1,8,0:0:0:0:
376,68,926,1,8,0:0:0:0:
364,132,1098,1,8,0:0:0:0:
336,260,1443,5,8,0:0:0:0:
236,180,1788,2,0,L|296:160,1,50,8|8,0:0|0:0,0:0:0:0:
200,64,2305,2,0,L|148:75,1,50,8|8,0:0|0:0,0:0:0:0:
28,28,2822,6,0,P|20:80|32:140,1,100,8|8,0:0|0:0,0:0:0:0:
52,256,3512,1,8,0:0:0:0:
72,320,3684,1,8,0:0:0:0:
116,272,3857,1,8,0:0:0:0:
188,164,4201,6,0,L|240:156,1,50,8|8,0:0|0:0,0:0:0:0:
284,112,4546,2,0,L|336:104,1,50,8|8,0:0|0:0,0:0:0:0:
452,160,5064,2,0,L|400:168,1,50,8|8,0:0|0:0,0:0:0:0:
296,240,5581,6,0,P|252:224|200:228,1,100,8|8,0:0|0:0,0:0:0:0:
72,248,6270,2,0,L|48:304,2,50,8|8|8,0:0|0:0|0:0,0:0:0:0:
120,128,6960,5,8,0:0:0:0:
248,108,7305,2,0,L|267:62,1,50,8|8,0:0|0:0,0:0:0:0:
392,28,7822,2,0,L|372:73,1,50,8|8,0:0|0:0,0:0:0:0:
336,200,8339,6,0,P|336:252|368:308,1,100,8|8,0:0|0:0,0:0:0:0:
464,224,9029,2,0,P|480:208|496:184,2,50,8|8|8,0:0|0:0|0:0,0:0:0:0:
372,132,9719,5,2,1:3:0:0:
248,168,10064,1,2,1:3:0:0:
212,292,10408,2,0,P|204:320|192:340,1,50,0|8,0:0|1:3,0:0:0:0:
128,348,10753,2,0,P|120:320|108:300,1,50,8|0,1:3|0:0,0:0:0:0:
72,248,11098,6,0,P|32:184|52:104,2,150,4|0|2,1:3|0:0|0:0,0:0:0:0:
192,296,12477,2,0,P|244:280|288:248,1,100,2|0,0:0|0:0,0:0:0:0:
412,272,13167,2,0,L|428:200,2,50,2|0|2,0:0|0:0|0:0,0:0:0:0:
316,184,13857,2,0,P|264:168|220:136,1,100,2|0,0:0|0:0,0:0:0:0:
100,172,14547,2,0,L|90:124,2,50,2|0|2,0:0|0:0|0:0,0:0:0:0:
124,232,15064,6,0,P|176:248|220:280,1,100,2|0,0:0|0:0,0:0:0:0:
260,320,15581,1,2,0:0:0:0:
292,192,15926,1,2,0:0:0:0:
324,68,16270,2,0,L|392:56,1,50,2|0,0:0|0:0,0:0:0:0:
440,52,16615,5,2,0:0:0:0:
396,176,16960,1,2,0:0:0:0:
280,232,17305,1,2,0:0:0:0:
156,188,17650,1,2,0:0:0:0:
100,72,17995,5,2,0:0:0:0:
224,28,18340,1,2,0:0:0:0:
340,84,18685,1,2,0:0:0:0:
384,208,19030,1,2,0:0:0:0:
332,328,19374,6,0,L|224:316,1,100,8|8,0:0|0:0,0:0:0:0:
124,244,20064,2,0,L|232:232,1,100,8|8,0:0|0:0,0:0:0:0:
332,160,20753,6,0,L|384:152,1,50
440,120,21098,2,0,L|432:70,1,50
392,20,21443,2,0,L|342:27,1,50
280,36,21788,1,0,0:0:0:0:
280,36,22132,6,0,L|176:44,1,100,4|0,3:0|1:0,0:0:0:0:
52,76,22822,2,0,L|-12:56,2,50,0|0|0,0:0|0:0|1:0,0:0:0:0:
168,132,23512,5,0,0:0:0:0:
232,120,23684,1,0,0:0:0:0:
296,140,23857,2,0,L|360:120,2,50,0|0|0,1:0|0:0|0:0,0:0:0:0:
224,248,24546,1,0,1:0:0:0:
148,352,24891,6,0,P|192:372|256:368,1,100,0|0,0:0|1:0,0:0:0:0:
364,324,25581,2,0,L|412:336,2,50,0|0|0,0:0|0:0|1:0,0:0:0:0:
336,196,26270,6,0,L|344:144,2,50,0|0|0,0:0|0:0|1:0,0:0:0:0:
276,224,26788,1,0,0:0:0:0:
212,216,26960,2,0,P|160:204|120:176,1,100,0|0,0:0|1:0,0:0:0:0:
128,48,27650,6,0,P|180:60|220:88,1,100,0|0,0:0|1:0,0:0:0:0:
288,196,28339,2,0,P|316:188|344:176,2,50,0|0|0,0:0|0:0|1:0,0:0:0:0:
172,252,29029,5,0,0:0:0:0:
112,276,29201,1,0,0:0:0:0:
48,268,29374,2,0,L|-4:256,2,50,0|0|0,1:0|0:0|0:0,0:0:0:0:
96,148,30064,1,0,1:0:0:0:
172,252,30408,6,0,P|228:256|280:280,1,100,0|0,0:0|1:0,0:0:0:0:
384,328,31098,1,0,0:0:0:0:
440,296,31270,1,0,0:0:0:0:
452,232,31443,1,0,1:0:0:0:
424,104,31788,6,0,L|404:48,2,50,0|0|0,0:0|0:0|1:0,0:0:0:0:
480,140,32305,1,0,0:0:0:0:
424,176,32477,2,0,P|376:184|324:208,1,100,0|0,0:0|1:0,0:0:0:0:
252,312,33167,6,0,L|192:300,1,50,2|0,0:0|0:0,0:0:0:0:
152,264,33512,2,0,L|164:204,1,50,2|2,1:2|0:0,0:0:0:0:
200,160,33857,2,0,L|260:172,1,50,2|0,0:0|0:0,0:0:0:0:
300,208,34201,2,0,L|288:268,1,50,2|2,1:2|0:0,0:0:0:0:
252,312,34546,6,0,P|200:308|148:276,1,100,2|2,0:0|1:2,0:0:0:0:
128,228,35064,1,0,0:0:0:0:
128,164,35236,2,0,P|172:140|221:137,1,100,0|0,0:0|1:0,0:0:0:0:
348,168,35926,6,0,L|407:182,1,50,2|0,0:0|0:0,0:0:0:0:
458,166,36271,2,0,L|472:106,1,50,2|0,1:2|0:0,0:0:0:0:
459,52,36616,2,0,L|399:37,1,50,2|0,0:0|0:0,0:0:0:0:
348,53,36960,2,0,L|333:112,1,50,2|0,1:2|0:0,0:0:0:0:
348,168,37305,6,0,P|337:224|312:268,1,100,2|2,0:0|1:2,0:0:0:0:
256,288,37822,1,0,0:0:0:0:
200,252,37995,2,0,P|177:207|168:158,1,100,0|0,0:0|1:0,0:0:0:0:
240,52,38684,6,0,P|312:32|388:36,2,150,0|0|0,1:0|1:0|1:0,0:0:0:0:
168,160,40064,2,0,P|96:140|20:144,2,150,0|0|0,1:0|1:0|1:0,0:0:0:0:
276,236,41443,6,0,P|304:232|336:208,1,50
364,172,41788,2,0,P|374:145|369:106,1,50
352,64,42132,2,0,P|334:41|297:26,1,50
252,20,42477,2,0,P|223:24|192:48,1,50
160,80,42822,2,0,P|112:104|56:112,2,100,2|2|2,1:3|1:3|1:3,0:0:0:0:
224,88,43684,5,2,0:0:0:0:
280,120,43857,1,2,0:0:0:0:
292,184,44029,1,2,0:0:0:0:
252,236,44201,1,6,0:0:0:0:
172,336,44546,5,8,0:0:0:0:
124,216,44891,2,0,L|72:208,2,50,8|8|8,0:0|0:0|0:0,0:0:0:0:
252,236,45581,2,0,P|296:248|352:252,1,100,8|8,0:0|0:0,0:0:0:0:
412,228,46098,1,8,0:0:0:0:
404,164,46270,2,0,P|356:152|304:148,1,100,0|8,0:0|0:0,0:0:0:0:
212,60,46960,6,0,P|160:68|100:88,1,100,8|8,0:0|0:0,0:0:0:0:
12,164,47650,2,0,L|-8:224,2,50,8|8|8,0:0|0:0|0:0,0:0:0:0:
128,220,48339,2,0,L|148:280,2,50,8|8|8,0:0|0:0|0:0,0:0:0:0:
192,220,48857,1,8,0:0:0:0:
256,232,49029,2,0,P|276:192|276:120,1,100,0|8,0:0|0:0,0:0:0:0:
180,52,49719,6,0,P|160:92|160:164,1,100,8|8,0:0|0:0,0:0:0:0:
260,224,50408,1,8,0:0:0:0:
320,248,50581,1,8,0:0:0:0:
272,288,50753,1,8,0:0:0:0:
160,356,51098,6,0,L|138:294,1,50,8|0,0:0|0:0,0:0:0:0:
146,243,51443,2,0,L|124:181,1,50,8|8,0:0|0:0,0:0:0:0:
140,132,51788,2,0,L|116:64,2,50,0|8|8,0:0|0:0|0:0,0:0:0:0:
228,228,52477,6,0,P|252:248|284:266,1,50,8|0,0:0|0:0,0:0:0:0:
308,208,52822,2,0,P|338:219|374:225,1,50,8|0,0:0|0:0,0:0:0:0:
380,164,53167,2,0,P|412:164|448:157,1,50,8|8,1:3|1:3,0:0:0:0:
460,104,53512,2,0,P|490:93|522:74,2,50,8|0|8,1:3|1:3|1:3,0:0:0:0:
348,40,54201,6,0,P|317:29|285:10,1,50,2|2,1:3|1:3,0:0:0:0:
264,76,54546,2,0,P|216:76|156:96,1,100,2|2,1:3|1:3,0:0:0:0:
108,124,55064,1,2,1:3:0:0:
68,176,55236,5,2,0:0:0:0:
84,304,55581,2,0,L|128:352,1,50,2|2,0:0|0:0,0:0:0:0:
176,316,55926,2,0,L|220:364,1,50,2|0,0:0|0:0,0:0:0:0:
268,328,56270,2,0,L|312:376,1,50,2|0,0:0|0:0,0:0:0:0:
364,340,56615,6,0,P|416:340|464:304,1,100,2|2,1:0|1:0,0:0:0:0:
496,264,57132,1,2,1:0:0:0:
488,200,57305,1,2,1:0:0:0:
508,72,57650,1,2,1:0:0:0:
384,112,57995,6,0,P|328:100|280:76,1,100,8|8,0:0|0:0,0:0:0:0:
168,36,58684,2,0,P|148:28|120:24,2,50,8|8|8,0:0|0:0|0:0,0:0:0:0:
104,148,59374,2,0,P|104:196|128:252,1,100,8|8,0:0|0:0,0:0:0:0:
160,296,59891,1,8,0:0:0:0:
224,284,60064,2,0,P|240:268|252:240,2,50,8|8|8,0:0|0:0|0:0,0:0:0:0:
344,328,60753,5,2,0:0:0:0:
460,268,61098,2,0,L|480:221,1,50,2|0,0:0|0:0,0:0:0:0:
431,176,61443,2,0,L|451:129,1,50,2|0,0:0|0:0,0:0:0:0:
403,88,61788,2,0,L|423:41,1,50,2|0,0:0|0:0,0:0:0:0:
372,0,62132,6,0,B|352:48|292:72,1,100,2|2,1:0|1:0,0:0:0:0:
244,84,62650,1,2,1:0:0:0:
184,104,62822,2,0,B|133:123|113:171,1,100,2|2,1:0|1:0,0:0:0:0:
240,208,63512,6,0,P|252:256|252:320,1,100,8|8,0:0|0:0,0:0:0:0:
372,356,64201,1,8,0:0:0:0:
376,292,64374,1,8,0:0:0:0:
392,228,64546,1,8,0:0:0:0:
472,124,64891,6,0,P|444:136|408:144,1,50,8|8,0:0|0:0,0:0:0:0:
360,148,65236,2,0,P|337:159|316:173,1,50,8|8,0:0|0:0,0:0:0:0:
284,228,65581,2,0,P|232:228|192:192,1,100,8|8,0:0|0:0,0:0:0:0:
168,72,66270,5,2,0:0:0:0:
44,32,66615,2,0,P|36:56|32:96,1,50,2|0,0:0|0:0,0:0:0:0:
84,120,66960,2,0,P|76:144|72:184,1,50,2|0,0:0|0:0,0:0:0:0:
128,204,67305,2,0,P|120:228|116:268,1,50,2|0,0:0|0:0,0:0:0:0:
148,308,67650,6,0,P|200:308|252:280,1,100,2|2,1:0|1:0,0:0:0:0:
284,236,68167,1,2,1:0:0:0:
308,176,68339,2,0,P|317:124|298:68,1,100,2|2,1:0|0:0,0:0:0:0:
188,20,69029,6,0,P|175:68|184:116,1,100,8|8,0:0|0:0,0:0:0:0:
244,232,69719,2,0,P|266:248|280:274,2,50,8|8|8,0:0|0:0|0:0,0:0:0:0:
152,324,70408,2,0,P|104:316|56:284,1,100,8|8,0:0|0:0,0:0:0:0:
36,228,70926,1,8,0:0:0:0:
20,164,71098,2,0,P|-8:144|-28:124,2,50,8|8|8,0:0|0:0|0:0,0:0:0:0:
16,36,71788,5,2,0:0:0:0:
116,120,72132,2,0,P|120:152|128:180,1,50,2|0,0:0|0:0,0:0:0:0:
180,136,72477,2,0,P|194:164|211:188,1,50,2|0,0:0|0:0,0:0:0:0:
256,140,72822,2,0,P|279:161|303:178,1,50,2|0,0:0|0:0,0:0:0:0:
320,112,73167,6,0,P|360:132|416:140,1,100,2|2,1:0|1:0,0:0:0:0:
468,176,73684,1,2,1:0:0:0:
416,212,73857,2,0,P|384:220|360:232,2,50,2|2|2,1:0|1:0|1:0,0:0:0:0:
404,340,74546,6,0,P|352:344|304:324,1,100,8|8,0:0|0:0,0:0:0:0:
264,280,75064,1,8,0:0:0:0:
244,216,75236,2,0,L|224:136,2,50,8|8|8,0:0|0:0|0:0,0:0:0:0:
116,240,75926,2,0,L|124:188,1,50,2|0,1:0|0:0,0:0:0:0:
104,128,76270,2,0,L|96:78,2,50,2|0|2,1:0|1:0|1:0,0:0:0:0:
356,68,77305,6,0,P|304:76|240:88,1,100,2|2,0:0|0:0,0:0:0:0:
140,144,77995,2,0,L|189:152|238:160,1,100,2|2,0:0|0:0,0:0:0:0:
352,220,78684,2,0,P|300:228|236:240,1,100,2|2,1:2|1:2,0:0:0:0:
136,296,79374,2,0,L|185:304|234:312,1,100,2|2,1:2|1:2,0:0:0:0:
256,192,80064,12,0,81443,0:0:0:0:
108,164,82477,5,4,0:0:0:0:
140,40,82822,5,4,0:0:0:0:
233,132,83167,1,0,1:0:0:0:
336,52,83512,2,0,P|358:96|383:139,1,100,0|0,0:0|1:0,0:0:0:0:
448,252,84201,2,0,P|392:268|328:256,1,100,0|0,0:0|1:0,0:0:0:0:
288,240,84719,1,0,0:0:0:0:
240,200,84891,2,0,P|212:156|204:96,1,100,0|0,0:0|1:0,0:0:0:0:
96,36,85581,6,0,P|86:84|59:126,1,100,0|0,0:0|1:0,0:0:0:0:
128,236,86270,2,0,P|169:263|218:273,1,100,0|0,0:0|1:0,0:0:0:0:
312,184,86960,2,0,P|270:156|221:146,1,100,0|0,0:0|1:0,0:0:0:0:
156,152,87477,1,0,0:0:0:0:
180,212,87650,2,0,P|221:239|270:249,1,100,0|0,0:0|1:0,0:0:0:0:
400,256,88339,6,0,B|420:220|424:180|424:180|452:199|496:224,2,150,0|0|0,0:0|0:0|1:0,0:0:0:0:
340,372,89719,1,0,0:0:0:0:
300,248,90064,2,0,P|280:260|256:272,1,50,0|0,1:0|0:0,0:0:0:0:
200,308,90408,1,0,0:0:0:0:
80,360,90753,1,0,1:0:0:0:
96,232,91098,6,0,B|76:196|72:156|72:156|44:176|0:200,2,150,0|0|0,0:0|0:0|1:0,0:0:0:0:
200,308,92477,1,0,0:0:0:0:
328,284,92822,2,0,P|336:264|344:236,1,50,0|0,1:0|0:0,0:0:0:0:
380,182,93167,2,0,P|373:161|361:134,2,50,0|0|0,0:0|0:0|1:0,0:0:0:0:
468,84,93857,6,0,P|432:36|384:12,1,100,4|0,0:0|1:0,0:0:0:0:
288,84,94546,2,0,P|239:94|199:123,1,100,0|0,0:0|1:0,0:0:0:0:
104,216,95236,2,0,P|80:171|45:136,1,100,0|0,0:0|1:0,0:0:0:0:
52,72,95753,1,0,0:0:0:0:
116,68,95926,2,0,P|152:101|198:122,1,100,0|0,0:0|1:0,0:0:0:0:
284,24,96615,6,0,P|299:71|327:112,1,100,0|0,0:0|1:0,0:0:0:0:
456,136,97305,2,0,P|452:192|436:248,1,100,0|0,0:0|1:0,0:0:0:0:
332,308,97995,2,0,P|316:260|288:219,1,100,0|0,0:0|1:0,0:0:0:0:
248,168,98512,1,0,0:0:0:0:
188,140,98684,2,0,P|159:180|144:228,1,100,0|0,0:0|1:0,0:0:0:0:
164,356,99374,5,0,0:0:0:0:
356,328,99891,1,0,0:0:0:0:
236,176,100408,1,0,0:0:0:0:
188,296,100753,5,0,0:0:0:0:
380,268,101270,1,0,0:0:0:0:
260,116,101787,1,0,0:0:0:0:
212,236,102132,6,0,L|188:296,1,50
148,332,102477,2,0,L|88:308,1,50,0|0,0:0|0:0,0:0:0:0:
48,276,102822,2,0,L|72:216,1,50
112,180,103167,2,0,L|172:204,1,50,0|0,0:0|0:0,0:0:0:0:
212,236,103512,5,2,1:3:0:0:
340,208,103857,1,2,1:3:0:0:
404,224,104029,1,2,1:3:0:0:
464,252,104201,2,0,P|472:228|476:192,1,50,8|0,1:3|0:0,0:0:0:0:
476,140,104546,2,0,P|472:115|464:91,1,50,8|0,1:3|0:0,0:0:0:0:
404,64,104891,6,0,P|356:76|304:80,1,100,4|0,0:0|1:0,0:0:0:0:
176,100,105581,2,0,P|126:96|77:83,1,100,0|0,0:0|1:0,0:0:0:0:
4,192,106270,2,0,P|53:195|102:208,1,100,0|0,0:0|1:0,0:0:0:0:
156,244,106788,1,0,0:0:0:0:
208,280,106960,2,0,P|232:228|260:192,1,100,0|0,0:0|1:0,0:0:0:0:
384,236,107650,6,0,P|408:288|436:324,1,100,0|0,0:0|1:0,0:0:0:0:
508,216,108339,2,0,P|484:164|456:128,1,100,0|0,0:0|1:0,0:0:0:0:
348,60,109029,2,0,P|332:112|336:168,1,100,0|0,0:0|1:0,0:0:0:0:
280,192,109546,1,0,0:0:0:0:
224,228,109719,2,0,P|190:190|166:146,1,100,0|0,0:0|1:0,0:0:0:0:
180,16,110408,6,0,P|252:48|324:56,2,150,0|0|0,1:0|1:0|1:0,0:0:0:0:
208,144,111788,2,0,P|136:176|64:184,2,150,0|0|0,1:0|1:0|1:0,0:0:0:0:
248,268,113167,6,0,P|252:296|276:328,1,50
312,356,113512,2,0,P|339:366|378:361,1,50
420,344,113856,2,0,P|443:326|458:289,1,50
464,243,114201,2,0,P|460:214|436:183,1,50
404,152,114546,6,0,P|380:104|372:48,2,100,2|2|4,1:3|1:3|0:0,0:0:0:0:
