osu file format v14

[General]
AudioFilename: Yellow Smile.mp3
AudioLeadIn: 2000
PreviewTime: 42822
Countdown: 0
SampleSet: Normal
StackLeniency: 0.7
Mode: 0
LetterboxInBreaks: 0
WidescreenStoryboard: 0

[Editor]
Bookmarks: 11098,22132,33167,44201,49719,55236,57995,60753,63512,66270,69029,71788,74546,77305,82822,93857,99374,104891,110408,115236
DistanceSpacing: 1.3
BeatDivisor: 4
GridSize: 4
TimelineZoom: 1.5

[Metadata]
Title:Yellow Smile(bms edit)
TitleUnicode:Yellow Smile(bms edit)
Artist:Junk
ArtistUnicode:Junk
Creator:rui
Version:Beginner
Source:BMS
Tags:G2R2014 wring リア充とは何だったのか Trance Step
BeatmapID:543787
BeatmapSetID:226133

[Difficulty]
HPDrainRate:2
CircleSize:3
OverallDifficulty:2
ApproachRate:3
SliderMultiplier:0.8
SliderTickRate:1

[Events]
//Background and Video events
0,0,"2cbfc478.png",0,0
//Break Periods
//Storyboard Layer 0 (Background)
//Storyboard Layer 1 (Fail)
//Storyboard Layer 2 (Pass)
//Storyboard Layer 3 (Foreground)
//Storyboard Sound Samples

[TimingPoints]
64,344.827586206897,4,1,2,30,1,0
5581,-100,4,1,1,30,0,0
11098,-100,4,2,1,60,0,0
16615,-100,4,2,2,60,0,0
19374,-100,4,3,1,40,0,0
20753,-100,4,1,1,40,0,0
22132,-100,4,2,1,40,0,0
22477,-100,4,2,2,40,0,0
38684,-100,4,2,2,60,0,0
41443,-100,4,1,1,40,0,0
43684,-100,4,1,1,40,0,0
44546,-100,4,1,1,30,0,0
55236,-100,4,1,1,40,0,0
55581,-100,4,2,1,40,0,0
57995,-100,4,1,1,30,0,0
60753,-100,4,1,1,40,0,0
61098,-100,4,2,1,40,0,0
63167,-100,4,1,1,40,0,0
63512,-100,4,1,1,30,0,0
66270,-100,4,1,1,40,0,0
66615,-100,4,2,1,40,0,0
68684,-100,4,1,1,40,0,0
69029,-100,4,2,1,40,0,0
71788,-100,4,1,1,40,0,0
72132,-100,4,2,1,40,0,0
74201,-100,4,1,1,40,0,0
74546,-100,4,1,1,30,0,0
76270,-100,4,2,1,40,0,0
76788,-100,4,2,1,40,0,0
78684,-100,4,2,1,20,0,0
79374,-100,4,2,1,30,0,0
80064,-100,4,2,1,40,0,0
80408,-100,4,2,1,45,0,0
80753,-100,4,1,1,50,0,0
82477,-100,4,2,2,60,0,0
82822,-100,4,2,1,50,0,1
93770,-100,4,2,1,50,0,0
93857,-100,4,2,1,50,0,1
99374,-100,4,1,1,50,0,1
103512,-100,4,1,1,40,0,1
104891,-100,4,2,1,40,0,0
105236,-100,4,2,2,40,0,0
110408,-100,4,2,2,60,0,0
113167,-100,4,1,1,40,0,0
115236,-100,4,1,1,50,0,0

[Colours]
Combo1 : 255,104,104
Combo2 : 255,255,128
Combo3 : 128,255,255
Combo4 : 128,255,128

[HitObjects]
72,48,64,6,0,P|76:128|152:192,1,160,4|8,0:0|0:0,0:0:0:0:
336,208,1443,2,0,P|331:264|283:319,1,120,8|8,0:0|0:0,0:0:0:0:
236,228,2305,2,0,L|204:204,1,40,8|8,0:0|0:0,0:0:0:0:
104,172,2822,6,0,P|156:116|244:112,1,160,8|8,0:0|0:0,0:0:0:0:
444,100,4201,2,0,P|451:159|471:215,1,120,8|8,0:0|0:0,0:0:0:0:
392,284,5064,2,0,L|372:240,1,40,8|8,0:0|0:0,0:0:0:0:
332,152,5581,5,8,0:0:0:0:
272,236,5926,2,0,P|240:260|192:288,1,80,8|8,0:0|0:0,0:0:0:0:
4,176,6960,6,0,P|56:152|108:112,1,120,8|8,0:0|0:0,0:0:0:0:
196,60,7822,2,0,L|240:64,1,40,8|8,0:0|0:0,0:0:0:0:
340,80,8339,5,8,0:0:0:0:
440,52,8684,1,8,0:0:0:0:
416,152,9029,2,0,P|404:190|384:240,1,80,8|2,0:0|1:3,0:0:0:0:
376,332,9719,6,0,P|416:328|460:308,2,80,2|8|8,1:3|1:3|1:3,0:0:0:0:
277,297,10753,1,8,1:3:0:0:
348,220,11098,6,0,P|388:176|400:116,1,120,4|2,2:3|0:0,0:0:0:0:
244,100,12132,2,0,P|0:132|160:328,1,600,2|0,0:0|0:0,0:0:0:0:
256,324,15064,2,0,B|332:316|388:356|388:356|424:292|484:252,1,280,2|2,0:0|0:0,0:0:0:0:
500,152,16615,6,0,B|508:112|508:112|484:72|468:36,2,120,2|0|2,0:0|0:0|0:0,0:0:0:0:
12,336,19374,5,2,0:0:0:0:
44,184,19891,2,0,P|132:156|196:244,1,200,2|0,0:0|0:0,0:0:0:0:
292,264,21098,1,0,0:0:0:0:
340,172,21443,1,0,0:0:0:0:
272,92,21788,1,0,0:0:0:0:
168,80,22132,6,0,P|112:88|60:132,2,120,4|0|0,3:0|0:0|1:0,0:0:0:0:
153,183,23512,2,0,P|192:172|236:176,2,80,0|0|0,0:0|1:0|0:0,0:0:0:0:
206,272,24546,1,0,1:0:0:0:
200,375,24891,6,0,P|240:368|276:344,2,80,0|0|0,0:0|1:0|0:0,0:0:0:0:
95,381,25926,1,0,1:0:0:0:
104,276,26270,2,0,B|172:232|172:232|264:240|264:240|328:200,1,240,0|0,0:0|1:0,0:0:0:0:
352,104,27650,6,0,B|456:36,2,120,0|0|0,0:0|0:0|1:0,0:0:0:0:
256,144,29029,2,0,P|216:132|172:132,2,80,0|0|0,0:0|1:0|0:0,0:0:0:0:
200,232,30064,1,0,1:0:0:0:
224,332,30408,6,0,P|184:330|146:319,2,80,0|0|0,0:0|1:0|0:0,0:0:0:0:
308,268,31443,1,0,1:0:0:0:
408,300,31788,2,0,P|432:332|448:372,2,80,0|0|0,0:0|1:0|0:0,0:0:0:0:
396,196,32822,1,0,1:0:0:0:
312,132,33167,6,0,P|232:112|168:60,1,160,2|2,0:0|0:0,0:0:0:0:
0,180,34546,2,0,P|80:200|144:252,1,160,2|2,0:0|0:0,0:0:0:0:
348,228,35926,6,0,P|410:179|488:160,1,160,2|2,0:0|0:0,0:0:0:0:
316,45,37305,2,0,P|253:93|175:112,1,160,2|2,0:0|0:0,0:0:0:0:
104,308,38684,6,0,P|72:280|-4:256,2,120,0|0|0,1:0|1:0|1:0,0:0:0:0:
180,236,40064,2,0,P|212:264|288:288,2,120,0|0|0,1:0|1:0|1:0,0:0:0:0:
156,136,41443,5,0,0:0:0:0:
60,320,42132,1,0,0:0:0:0:
268,312,42822,1,2,1:3:0:0:
220,220,43167,1,2,1:3:0:0:
156,136,43512,2,0,P|112:124|64:100,2,80,2|2|6,3:0|0:0|0:0,0:0:0:0:
256,112,44546,6,0,P|244:67|241:14,2,80,8|8|8,0:0|0:0|0:0,0:0:0:0:
320,196,45581,2,0,P|236:212|172:172,1,160,8|8,0:0|0:0,0:0:0:0:
116,88,46615,1,8,0:0:0:0:
32,28,46960,6,0,P|8:96|48:168,1,160,8|8,0:0|0:0,0:0:0:0:
108,252,47995,1,8,0:0:0:0:
168,336,48339,2,0,P|232:376|316:360,1,160,8|8,0:0|0:0,0:0:0:0:
252,276,49374,1,8,0:0:0:0:
348,236,49719,6,0,L|427:224,1,80,8|8,0:0|0:0,0:0:0:0:
452,124,50408,2,0,L|340:140,1,80,8|8,0:0|0:0,0:0:0:0:
268,140,51098,2,0,B|216:148|216:148|156:260|156:260|96:280,1,240,8|8,0:0|0:0,0:0:0:0:
20,212,52477,6,0,P|60:208|100:196,1,80,8|8,0:0|0:0,0:0:0:0:
144,104,53167,2,0,P|133:66|114:28,2,80,8|8|8,0:0|0:0|0:0,0:0:0:0:
196,192,54201,2,0,P|252:244|328:224,1,160
396,148,55236,5,2,0:0:0:0:
464,68,55581,2,0,B|424:44|368:44|368:44|328:68|280:65|280:65|248:108,1,240,2|2,1:0|1:0,0:0:0:0:
196,192,56960,1,2,1:0:0:0:
108,248,57305,2,0,P|92:208|92:168,1,80,2|2,1:0|1:0,0:0:0:0:
4,228,57995,6,0,B|19:264|20:300|20:300|52:328|108:348,1,160,8|8,0:0|0:0,0:0:0:0:
196,340,59029,1,8,0:0:0:0:
284,288,59374,2,0,P|268:251|267:211,1,80,8|8,0:0|0:0,0:0:0:0:
320,124,60064,2,0,P|364:108|412:104,1,80,8|8,0:0|0:0,0:0:0:0:
476,172,60753,5,2,0:0:0:0:
376,200,61098,2,0,B|344:216|300:216|300:216|264:204|244:172|244:172|208:208|160:204,1,240,2|2,1:0|1:0,0:0:0:0:
168,100,62477,1,2,1:0:0:0:
88,36,62822,2,0,P|68:76|64:112,1,80,2|2,1:0|1:0,0:0:0:0:
56,216,63512,6,0,B|56:260|68:292|68:292|172:316,1,160,8|8,0:0|0:0,0:0:0:0:
252,292,64546,1,8,0:0:0:0:
276,192,64891,2,0,P|243:160|203:140,2,80,8|8|8,0:0|0:0|0:0,0:0:0:0:
352,264,65926,1,8,0:0:0:0:
252,292,66270,5,2,0:0:0:0:
164,348,66615,2,0,B|136:356|88:340|88:340|60:296|72:248|72:248|104:220|140:212,1,240,2|2,1:0|1:0,0:0:0:0:
232,216,67995,1,2,1:0:0:0:
328,256,68339,2,0,P|372:252|416:236,1,80,2|2,1:0|1:0,0:0:0:0:
440,144,69029,6,0,P|376:112|284:116,1,160,8|8,0:0|0:0,0:0:0:0:
192,148,70064,1,8,0:0:0:0:
224,248,70408,2,0,L|136:268,1,80,8|8,0:0|0:0,0:0:0:0:
60,328,71098,2,0,P|44:292|36:240,1,80,8|8,0:0|0:0,0:0:0:0:
52,148,71788,5,2,0:0:0:0:
80,48,72132,2,0,B|132:56|172:32|172:32|184:88|224:112|280:116,1,240,2|2,1:0|1:0,0:0:0:0:
380,108,73512,1,2,1:0:0:0:
332,200,73857,2,0,P|328:244|336:284,1,80,2|2,1:0|1:0,0:0:0:0:
232,288,74546,6,0,B|216:240|239:154|239:154|280:108|340:96,1,240,12|8,0:0|0:0,0:0:0:0:
420,144,75926,2,0,P|464:152|520:152,2,80,2|2|2,1:0|1:0|1:0,0:0:0:0:
232,52,77305,5,2,0:0:0:0:
56,163,77995,1,2,0:0:0:0:
160,343,78684,1,2,1:2:0:0:
335,232,79374,1,2,1:2:0:0:
256,192,80064,12,0,81443,0:0:0:0:
196,144,82822,6,0,P|257:191|334:180,1,160,4|0,0:0|0:0,0:0:0:0:
424,128,83857,2,0,P|362:80|285:91,1,160,0|0,1:0|1:0,0:0:0:0:
252,188,84891,2,0,P|280:220|304:260,1,80,0|0,0:0|1:0,0:0:0:0:
348,344,85581,6,0,B|312:356|268:356|268:356|232:336|208:304,1,160,0|0,0:0|0:0,0:0:0:0:
160,212,86615,2,0,B|194:200|238:200|238:200|274:220|298:252,1,160,0|0,1:0|1:0,0:0:0:0:
376,184,87650,2,0,P|344:161|313:134,1,80,0|0,0:0|1:0,0:0:0:0:
248,52,88339,6,0,B|308:40|308:40|376:72,2,120,0|0|0,0:0|0:0|1:0,0:0:0:0:
48,116,90064,1,0,1:0:0:0:
212,244,90753,1,0,1:0:0:0:
260,336,91098,6,0,B|200:348|200:348|132:316,2,120,0|0|0,0:0|0:0|1:0,0:0:0:0:
464,300,92822,1,0,1:0:0:0:
488,200,93167,2,0,P|448:204|404:216,1,80,0|0,0:0|1:0,0:0:0:0:
320,160,93857,6,0,P|240:160|164:124,1,160,4|0,0:0|0:0,0:0:0:0:
100,48,94891,2,0,P|64:108|88:196,1,160,0|0,1:0|1:0,0:0:0:0:
172,252,95926,2,0,P|220:240|256:224,1,80,0|0,0:0|1:0,0:0:0:0:
292,132,96615,6,0,B|336:192|336:192|348:244|316:296,1,160
256,352,97650,2,0,B|212:292|212:292|200:240|232:188,1,160,0|0,1:0|1:0,0:0:0:0:
268,116,98684,2,0,P|308:104|360:96,1,80,0|0,0:0|1:0,0:0:0:0:
444,136,99374,6,0,P|480:184|504:256,2,120,0|0|0,0:0|0:0|0:0,0:0:0:0:
392,228,100753,2,0,P|399:287|383:361,2,120,0|0|0,0:0|0:0|0:0,0:0:0:0:
300,280,102132,6,0,P|284:324|264:356,1,80
188,280,102822,2,0,P|167:245|154:207,1,80
144,104,103512,1,4,0:0:0:0:
144,104,104891,6,0,P|224:64|300:72,1,160,4|0,0:0|0:0,0:0:0:0:
384,120,105926,1,0,1:0:0:0:
480,84,106270,1,8,0:0:0:0:
440,288,106960,1,8,0:0:0:0:
284,152,107650,6,0,P|200:148|144:196,1,160
104,292,108685,1,0,1:0:0:0:
176,368,109029,1,8,0:0:0:0:
384,340,109719,1,8,0:0:0:0:
416,136,110408,6,0,P|380:92|312:80,2,120,0|0|0,1:0|1:0|1:0,0:0:0:0:
320,180,111788,2,0,P|280:220|220:232,2,120,0|0|0,1:0|1:0|1:0,0:0:0:0:
232,124,113167,5,0,0:0:0:0:
28,172,113857,1,0,0:0:0:0:
168,324,114546,1,2,1:3:0:0:
188,224,114891,1,2,1:3:0:0:
268,292,115236,5,4,0:0:0:0:
