osu file format v13

[General]
AudioFilename: Qualia.mp3
AudioLeadIn: 0
PreviewTime: 55939
Countdown: 0
SampleSet: Soft
StackLeniency: 0.7
Mode: 3
LetterboxInBreaks: 0
SpecialStyle: 0
WidescreenStoryboard: 1

[Editor]
DistanceSpacing: 1.8
BeatDivisor: 4
GridSize: 8
TimelineZoom: 1

[Metadata]
Title:Qualia
TitleUnicode:Qualia
Artist:Junk
ArtistUnicode:Junk
Creator:Mashiro-Fang
Version:4K NM
Source:BMS
Tags:Rumia- Simple_Star richardfeder
BeatmapID:427202
BeatmapSetID:177155

[Difficulty]
HPDrainRate:6
CircleSize:4
OverallDifficulty:7
ApproachRate:5
SliderMultiplier:1.4
SliderTickRate:1

[Events]
//Background and Video events
0,0,"BG.jpg",0,0
//Break Periods
//Storyboard Layer 0 (Background)
//Storyboard Layer 1 (Fail)
//Storyboard Layer 2 (Pass)
//Storyboard Layer 3 (Foreground)
//Storyboard Sound Samples
//Background Colour Transformations
3,100,163,162,255

[TimingPoints]
0,451.127819548872,4,2,1,50,1,0
19849,-100,4,2,1,50,0,1
48721,-100,4,2,1,50,0,0
108270,-100,4,2,1,50,0,1
122706,-100,4,2,1,50,0,1
136240,-100,4,2,1,50,0,0
137142,-100,4,2,1,50,0,0

[HitObjects]
64,192,3609,5,0,0:0:0:0:
448,192,3609,1,0,0:0:0:0:
320,192,3834,1,0,0:0:0:0:
192,192,4060,1,0,0:0:0:0:
64,192,4285,1,0,0:0:0:0:
192,192,4511,1,0,0:0:0:0:
320,192,4962,1,0,0:0:0:0:
448,192,5187,1,0,0:0:0:0:
320,192,5413,1,0,0:0:0:0:
192,192,5639,1,0,0:0:0:0:
320,192,5864,1,0,0:0:0:0:
192,192,6090,1,0,0:0:0:0:
64,192,6315,1,0,0:0:0:0:
448,192,7218,1,0,0:0:0:0:
64,192,7894,1,0,0:0:0:0:
448,192,8007,1,0,0:0:0:0:
192,192,8120,1,0,0:0:0:0:
64,192,9022,1,0,0:0:0:0:
448,192,9473,1,0,0:0:0:0:
320,192,9924,1,0,0:0:0:0:
448,192,10150,1,0,0:0:0:0:
192,192,10263,1,0,0:0:0:0:
64,192,10375,1,0,0:0:0:0:
192,192,10601,1,0,0:0:0:0:
448,192,10827,1,0,0:0:0:0:
320,192,11052,1,0,0:0:0:0:
192,192,11278,1,8,0:0:0:0:
64,192,11503,1,0,0:0:0:0:
192,192,11729,1,0,0:0:0:0:
320,192,12180,1,8,0:0:0:0:
448,192,12406,1,0,0:0:0:0:
320,192,12631,1,0,0:0:0:0:
448,192,12857,1,0,0:0:0:0:
320,192,13082,1,8,0:0:0:0:
192,192,13308,1,0,0:0:0:0:
64,192,13533,1,0,0:0:0:0:
448,192,14436,1,0,0:0:0:0:
64,192,15112,1,0,0:0:0:0:
192,192,15225,1,0,0:0:0:0:
320,192,15338,1,0,0:0:0:0:
64,192,16240,1,0,0:0:0:0:
448,192,16691,1,0,0:0:0:0:
192,192,17142,1,0,0:0:0:0:
448,192,18045,1,0,0:0:0:0:
320,192,18157,1,0,0:0:0:0:
192,192,18270,1,0,0:0:0:0:
64,192,18496,1,0,0:0:0:0:
192,192,18721,5,0,0:0:0:0:
320,192,18834,1,0,0:0:0:0:
64,192,19060,1,0,0:0:0:0:
192,192,19172,1,0,0:0:0:0:
320,192,19285,1,0,0:0:0:0:
64,192,19398,1,8,0:0:0:0:
448,192,19398,1,0,0:0:0:0:
448,192,19849,5,4,0:0:0:0:
192,192,19849,1,0,0:0:0:0:
320,192,20075,1,2,0:0:0:0:
192,192,20300,1,4,0:0:0:0:
64,192,20526,1,0,0:0:0:0:
320,192,20751,1,4,0:0:0:0:
192,192,21203,1,4,0:0:0:0:
320,192,21428,1,0,0:0:0:0:
64,192,21654,1,4,0:0:0:0:
192,192,21879,1,0,0:0:0:0:
448,192,22105,1,4,0:0:0:0:
320,192,22330,1,0,0:0:0:0:
192,192,22556,1,4,0:0:0:0:
448,192,23458,1,4,0:0:0:0:
64,192,23684,1,0,0:0:0:0:
320,192,23909,1,4,0:0:0:0:
192,192,24135,1,0,0:0:0:0:
448,192,24360,1,4,0:0:0:0:
320,192,24586,1,0,0:0:0:0:
192,192,24812,1,4,0:0:0:0:
64,192,25037,1,0,0:0:0:0:
448,192,25263,1,4,0:0:0:0:
192,192,25488,1,0,0:0:0:0:
64,192,25714,1,4,0:0:0:0:
320,192,25939,1,0,0:0:0:0:
448,192,26165,1,4,0:0:0:0:
192,192,26616,1,4,0:0:0:0:
320,192,26842,1,0,0:0:0:0:
448,192,27067,1,4,0:0:0:0:
192,192,27293,1,0,0:0:0:0:
64,192,27518,1,4,0:0:0:0:
192,192,27744,1,0,0:0:0:0:
320,192,27969,1,4,0:0:0:0:
192,192,28421,1,4,0:0:0:0:
320,192,28646,1,0,0:0:0:0:
192,192,28872,1,4,0:0:0:0:
320,192,29097,1,0,0:0:0:0:
448,192,29323,1,4,0:0:0:0:
192,192,29548,1,0,0:0:0:0:
64,192,29774,1,4,0:0:0:0:
320,192,30676,1,4,0:0:0:0:
192,192,30902,1,0,0:0:0:0:
448,192,31127,1,4,0:0:0:0:
64,192,31353,1,0,0:0:0:0:
192,192,31578,1,4,0:0:0:0:
320,192,31804,1,0,0:0:0:0:
64,192,32030,1,4,0:0:0:0:
448,192,32255,1,0,0:0:0:0:
192,192,32481,1,4,0:0:0:0:
64,192,32706,1,0,0:0:0:0:
192,192,32932,1,4,0:0:0:0:
448,192,33157,1,0,0:0:0:0:
320,192,33383,1,4,0:0:0:0:
64,192,33834,1,4,0:0:0:0:
192,192,34060,1,0,0:0:0:0:
448,192,34285,128,0,35187:0:0:0:0:
320,192,34285,1,4,0:0:0:0:
192,192,34736,1,8,0:0:0:0:
64,192,35187,128,0,36090:0:0:0:0:
320,192,35639,1,8,0:0:0:0:
192,192,36090,128,0,36541:0:0:0:0:
448,192,36541,128,0,36992:0:0:0:0:
64,192,36541,1,8,0:0:0:0:
192,192,36992,1,4,0:0:0:0:
320,192,37218,1,0,0:0:0:0:
192,192,37443,1,8,0:0:0:0:
64,192,37669,1,0,0:0:0:0:
192,192,37894,128,0,38796:0:0:0:0:
448,192,37894,1,4,0:0:0:0:
320,192,38345,1,8,0:0:0:0:
448,192,38796,128,0,39699:0:0:0:0:
64,192,38796,1,4,0:0:0:0:
64,192,39248,1,8,0:0:0:0:
192,192,39699,128,0,40150:0:0:0:0:
320,192,39699,1,4,0:0:0:0:
448,192,40150,128,0,40601:0:0:0:0:
64,192,40150,1,8,0:0:0:0:
320,192,40601,128,0,41052:0:0:0:0:
192,192,40601,1,4,0:0:0:0:
64,192,41052,128,0,41503:0:0:0:0:
192,192,41052,1,8,0:0:0:0:
448,192,41503,128,0,42406:0:0:0:0:
320,192,41503,1,4,0:0:0:0:
192,192,41954,1,8,0:0:0:0:
192,192,42406,128,0,43308:0:0:0:0:
320,192,42406,1,4,0:0:0:0:
64,192,42857,1,8,0:0:0:0:
320,192,43308,128,0,43759:0:0:0:0:
64,192,43308,1,4,0:0:0:0:
448,192,43759,128,0,44210:0:0:0:0:
192,192,43759,1,8,0:0:0:0:
64,192,44210,1,4,0:0:0:0:
320,192,44436,1,0,0:0:0:0:
192,192,44661,1,8,0:0:0:0:
64,192,44887,1,0,0:0:0:0:
192,192,45112,128,0,46015:0:0:0:0:
448,192,45112,1,4,0:0:0:0:
320,192,45563,1,8,0:0:0:0:
448,192,46015,128,0,46917:0:0:0:0:
64,192,46015,1,4,0:0:0:0:
64,192,46466,1,8,0:0:0:0:
64,192,46917,128,0,47819:0:0:0:0:
320,192,46917,1,4,0:0:0:0:
320,192,47368,128,0,47819:0:0:0:0:
192,192,47819,128,0,48721:0:0:0:0:
448,192,48270,1,8,0:0:0:0:
320,192,48721,1,2,0:0:0:0:
448,192,48721,1,4,0:0:0:0:
64,192,48947,1,0,0:0:0:0:
192,192,49172,1,0,0:0:0:0:
320,192,49398,1,0,0:0:0:0:
448,192,49511,1,0,0:0:0:0:
192,192,49736,1,0,0:0:0:0:
64,192,49962,1,0,0:0:0:0:
192,192,50075,1,0,0:0:0:0:
448,192,50300,1,0,0:0:0:0:
64,192,50526,1,0,0:0:0:0:
320,192,50751,1,0,0:0:0:0:
448,192,50977,1,0,0:0:0:0:
192,192,51203,1,0,0:0:0:0:
64,192,51315,1,0,0:0:0:0:
448,192,51541,1,0,0:0:0:0:
320,192,51766,1,0,0:0:0:0:
192,192,51879,1,0,0:0:0:0:
64,192,52105,1,0,0:0:0:0:
192,192,52330,1,0,0:0:0:0:
320,192,52556,1,0,0:0:0:0:
448,192,52781,1,0,0:0:0:0:
64,192,53007,1,0,0:0:0:0:
192,192,53120,1,0,0:0:0:0:
448,192,53345,1,0,0:0:0:0:
192,192,53571,1,0,0:0:0:0:
320,192,53684,1,0,0:0:0:0:
448,192,53909,1,0,0:0:0:0:
192,192,54135,1,0,0:0:0:0:
192,192,54360,1,0,0:0:0:0:
448,192,54586,1,0,0:0:0:0:
320,192,54699,1,0,0:0:0:0:
192,192,54812,1,0,0:0:0:0:
64,192,54924,1,0,0:0:0:0:
320,192,55150,1,0,0:0:0:0:
192,192,55263,1,0,0:0:0:0:
448,192,55488,1,0,0:0:0:0:
192,192,55714,1,0,0:0:0:0:
320,192,55939,128,0,56842:0:0:0:0:
64,192,55939,1,4,0:0:0:0:
192,192,56390,1,8,0:0:0:0:
64,192,56842,128,0,57744:0:0:0:0:
448,192,56842,1,4,0:0:0:0:
448,192,57293,1,8,0:0:0:0:
192,192,57744,128,0,58195:0:0:0:0:
320,192,57744,1,4,0:0:0:0:
320,192,58195,128,0,58646:0:0:0:0:
448,192,58195,1,8,0:0:0:0:
192,192,58646,1,4,0:0:0:0:
448,192,58872,1,0,0:0:0:0:
320,192,59097,1,8,0:0:0:0:
192,192,59323,1,0,0:0:0:0:
64,192,59548,128,0,60451:0:0:0:0:
320,192,59999,1,8,0:0:0:0:
448,192,60451,128,0,61353:0:0:0:0:
192,192,60902,1,8,0:0:0:0:
64,192,61353,128,0,61804:0:0:0:0:
320,192,61804,128,0,62255:0:0:0:0:
192,192,62255,128,0,62706:0:0:0:0:
320,192,62706,1,8,0:0:0:0:
448,192,62819,1,0,0:0:0:0:
320,192,62932,1,0,0:0:0:0:
64,192,63157,1,2,0:0:0:0:
448,192,63157,1,4,0:0:0:0:
320,192,63609,1,4,0:0:0:0:
192,192,63609,1,0,0:0:0:0:
320,192,64060,1,4,0:0:0:0:
64,192,64060,1,0,0:0:0:0:
192,192,64511,1,0,0:0:0:0:
448,192,64511,1,4,0:0:0:0:
320,192,64962,1,4,0:0:0:0:
192,192,64962,1,0,0:0:0:0:
64,192,65413,1,0,0:0:0:0:
448,192,65413,1,4,0:0:0:0:
192,192,65864,1,0,0:0:0:0:
320,192,65864,1,4,0:0:0:0:
192,192,66315,1,4,0:0:0:0:
64,192,66315,1,0,0:0:0:0:
320,192,66766,1,4,0:0:0:0:
192,192,66766,1,0,0:0:0:0:
320,192,67218,1,4,0:0:0:0:
64,192,67218,1,0,0:0:0:0:
192,192,67669,1,0,0:0:0:0:
448,192,67669,1,4,0:0:0:0:
192,192,68120,1,0,0:0:0:0:
320,192,68120,1,4,0:0:0:0:
320,192,68571,1,4,0:0:0:0:
448,192,68571,1,0,0:0:0:0:
320,192,69022,1,0,0:0:0:0:
192,192,69022,1,4,0:0:0:0:
64,192,69473,1,4,0:0:0:0:
320,192,69473,1,0,0:0:0:0:
320,192,69924,1,8,0:0:0:0:
192,192,70037,1,4,0:0:0:0:
64,192,70375,1,4,0:0:0:0:
448,192,70375,1,2,0:0:0:0:
192,192,70827,1,4,0:0:0:0:
320,192,70827,1,0,0:0:0:0:
448,192,71278,1,0,0:0:0:0:
192,192,71278,1,4,0:0:0:0:
320,192,71729,1,2,0:0:0:0:
448,192,71729,1,0,0:0:0:0:
192,192,72180,1,4,0:0:0:0:
320,192,72180,1,0,0:0:0:0:
192,192,72631,1,4,0:0:0:0:
64,192,72631,1,0,0:0:0:0:
448,192,73082,1,0,0:0:0:0:
192,192,73082,1,4,0:0:0:0:
320,192,73533,1,4,0:0:0:0:
448,192,73533,1,0,0:0:0:0:
320,192,73984,1,4,0:0:0:0:
64,192,73984,1,2,0:0:0:0:
448,192,74436,1,0,0:0:0:0:
192,192,74436,1,4,0:0:0:0:
320,192,74887,1,4,0:0:0:0:
64,192,74887,1,0,0:0:0:0:
320,192,75338,1,4,0:0:0:0:
448,192,75338,1,0,0:0:0:0:
64,192,75789,1,0,0:0:0:0:
320,192,75789,1,4,0:0:0:0:
192,192,76240,1,4,0:0:0:0:
64,192,76240,1,0,0:0:0:0:
192,192,76691,1,4,0:0:0:0:
320,192,76804,1,4,0:0:0:0:
192,192,77030,1,4,0:0:0:0:
320,192,77368,1,4,0:0:0:0:
64,192,77593,1,4,0:0:0:0:
448,192,77593,1,0,0:0:0:0:
320,192,78045,1,4,0:0:0:0:
192,192,78045,1,0,0:0:0:0:
320,192,78496,1,4,0:0:0:0:
448,192,78496,1,0,0:0:0:0:
64,192,78947,1,0,0:0:0:0:
320,192,78947,1,4,0:0:0:0:
192,192,79398,1,4,0:0:0:0:
64,192,79398,1,0,0:0:0:0:
320,192,79849,1,0,0:0:0:0:
192,192,79849,1,4,0:0:0:0:
320,192,80300,1,4,0:0:0:0:
448,192,80300,1,0,0:0:0:0:
192,192,80751,1,4,0:0:0:0:
448,192,80751,1,0,0:0:0:0:
64,192,81203,1,2,0:0:0:0:
192,192,81203,1,4,0:0:0:0:
448,192,81654,1,0,0:0:0:0:
320,192,81654,1,0,0:0:0:0:
192,192,82105,1,4,0:0:0:0:
448,192,82105,1,0,0:0:0:0:
320,192,82556,1,4,0:0:0:0:
64,192,82556,1,0,0:0:0:0:
320,192,83007,1,0,0:0:0:0:
192,192,83007,1,4,0:0:0:0:
64,192,83458,1,4,0:0:0:0:
320,192,83458,1,0,0:0:0:0:
448,192,83909,1,0,0:0:0:0:
192,192,83909,1,4,0:0:0:0:
320,192,84360,1,8,0:0:0:0:
192,192,84473,1,4,0:0:0:0:
64,192,84812,1,4,0:0:0:0:
448,192,84812,1,2,0:0:0:0:
192,192,85263,1,0,0:0:0:0:
320,192,85263,1,4,0:0:0:0:
192,192,85714,1,4,0:0:0:0:
64,192,85714,1,0,0:0:0:0:
320,192,86165,1,4,0:0:0:0:
192,192,86165,1,0,0:0:0:0:
320,192,86616,1,4,0:0:0:0:
448,192,86616,1,0,0:0:0:0:
64,192,87067,1,4,0:0:0:0:
192,192,87067,1,0,0:0:0:0:
448,192,87518,1,0,0:0:0:0:
320,192,87518,1,4,0:0:0:0:
192,192,87969,1,4,0:0:0:0:
448,192,87969,1,0,0:0:0:0:
320,192,88421,1,2,0:0:0:0:
64,192,88421,1,4,0:0:0:0:
448,192,88872,1,4,0:0:0:0:
192,192,88872,1,0,0:0:0:0:
64,192,89323,1,0,0:0:0:0:
448,192,89323,1,4,0:0:0:0:
64,192,89774,1,0,0:0:0:0:
320,192,89774,1,4,0:0:0:0:
192,192,90225,1,0,0:0:0:0:
320,192,90225,1,4,0:0:0:0:
192,192,90676,1,0,0:0:0:0:
320,192,90676,1,4,0:0:0:0:
64,192,91127,1,4,0:0:0:0:
320,192,91278,1,4,0:0:0:0:
192,192,91428,1,4,0:0:0:0:
448,192,91578,1,4,0:0:0:0:
320,192,92030,1,0,0:0:0:0:
64,192,92255,1,0,0:0:0:0:
192,192,92481,1,0,0:0:0:0:
320,192,92707,1,0,0:0:0:0:
448,192,92820,1,0,0:0:0:0:
192,192,93045,1,0,0:0:0:0:
64,192,93271,1,0,0:0:0:0:
192,192,93384,1,0,0:0:0:0:
448,192,93609,1,0,0:0:0:0:
64,192,93835,1,0,0:0:0:0:
320,192,94060,1,0,0:0:0:0:
448,192,94286,1,0,0:0:0:0:
192,192,94512,1,0,0:0:0:0:
64,192,94624,1,0,0:0:0:0:
448,192,94850,1,0,0:0:0:0:
320,192,95075,1,0,0:0:0:0:
192,192,95188,1,0,0:0:0:0:
64,192,95414,1,0,0:0:0:0:
192,192,95639,1,0,0:0:0:0:
320,192,95865,1,0,0:0:0:0:
448,192,96090,1,0,0:0:0:0:
64,192,96316,1,0,0:0:0:0:
192,192,96429,1,0,0:0:0:0:
448,192,96654,1,0,0:0:0:0:
192,192,96880,1,0,0:0:0:0:
320,192,96993,1,0,0:0:0:0:
448,192,97218,1,0,0:0:0:0:
192,192,97444,1,0,0:0:0:0:
192,192,97669,1,0,0:0:0:0:
448,192,97895,1,0,0:0:0:0:
320,192,98008,1,0,0:0:0:0:
192,192,98121,1,0,0:0:0:0:
64,192,98233,1,0,0:0:0:0:
320,192,98459,1,0,0:0:0:0:
192,192,98572,1,0,0:0:0:0:
448,192,98797,1,0,0:0:0:0:
192,192,99023,1,0,0:0:0:0:
320,192,99248,1,0,0:0:0:0:
448,192,99248,128,0,106466:0:0:0:0:
320,192,99924,1,0,0:0:0:0:
192,192,100037,1,0,0:0:0:0:
64,192,100150,1,0,0:0:0:0:
64,192,101052,1,0,0:0:0:0:
320,192,101503,1,0,0:0:0:0:
192,192,101954,1,0,0:0:0:0:
320,192,102180,1,0,0:0:0:0:
192,192,102406,1,0,0:0:0:0:
64,192,102631,1,0,0:0:0:0:
192,192,102857,1,0,0:0:0:0:
320,192,103759,1,0,0:0:0:0:
64,192,104661,1,0,0:0:0:0:
320,192,105112,1,0,0:0:0:0:
192,192,105563,1,0,0:0:0:0:
64,192,106466,1,0,0:0:0:0:
192,192,106578,1,0,0:0:0:0:
320,192,106691,1,0,0:0:0:0:
448,192,106917,1,0,0:0:0:0:
192,192,107142,1,0,0:0:0:0:
320,192,107255,1,0,0:0:0:0:
448,192,107481,1,0,0:0:0:0:
320,192,107593,1,0,0:0:0:0:
192,192,107706,1,0,0:0:0:0:
64,192,107819,1,0,0:0:0:0:
448,192,107819,1,8,0:0:0:0:
192,192,108270,1,2,0:0:0:0:
320,192,108270,1,4,0:0:0:0:
320,192,108496,1,0,0:0:0:0:
192,192,108721,1,4,0:0:0:0:
64,192,108947,1,0,0:0:0:0:
192,192,109172,1,4,0:0:0:0:
320,192,109624,1,4,0:0:0:0:
448,192,109849,1,0,0:0:0:0:
192,192,110075,1,4,0:0:0:0:
320,192,110300,1,0,0:0:0:0:
448,192,110526,1,4,0:0:0:0:
192,192,110751,1,0,0:0:0:0:
64,192,110977,1,4,0:0:0:0:
448,192,111879,1,4,0:0:0:0:
320,192,112105,1,0,0:0:0:0:
192,192,112330,1,4,0:0:0:0:
64,192,112556,1,0,0:0:0:0:
320,192,112781,1,4,0:0:0:0:
448,192,113007,1,0,0:0:0:0:
192,192,113233,1,4,0:0:0:0:
448,192,113458,1,0,0:0:0:0:
320,192,113684,1,4,0:0:0:0:
64,192,113909,1,0,0:0:0:0:
192,192,114135,1,4,0:0:0:0:
320,192,114360,1,0,0:0:0:0:
192,192,114586,1,4,0:0:0:0:
64,192,115037,1,4,0:0:0:0:
192,192,115263,1,0,0:0:0:0:
448,192,115488,1,4,0:0:0:0:
320,192,115714,1,0,0:0:0:0:
192,192,115939,1,4,0:0:0:0:
64,192,116165,1,0,0:0:0:0:
320,192,116390,1,4,0:0:0:0:
64,192,116842,1,4,0:0:0:0:
320,192,117067,1,0,0:0:0:0:
192,192,117293,1,4,0:0:0:0:
320,192,117518,1,0,0:0:0:0:
448,192,117744,1,4,0:0:0:0:
192,192,117969,1,0,0:0:0:0:
64,192,118195,1,4,0:0:0:0:
320,192,119097,1,4,0:0:0:0:
192,192,119323,1,0,0:0:0:0:
448,192,119548,1,4,0:0:0:0:
64,192,119774,1,0,0:0:0:0:
192,192,119999,1,4,0:0:0:0:
320,192,120225,1,0,0:0:0:0:
448,192,120451,1,4,0:0:0:0:
192,192,120676,1,0,0:0:0:0:
320,192,120902,1,4,0:0:0:0:
192,192,121127,1,0,0:0:0:0:
64,192,121353,1,4,0:0:0:0:
320,192,121578,1,0,0:0:0:0:
320,192,121804,1,4,0:0:0:0:
64,192,122255,1,4,0:0:0:0:
192,192,122481,1,4,0:0:0:0:
448,192,122706,128,0,123609:0:0:0:0:
320,192,122706,1,4,0:0:0:0:
192,192,123157,1,8,0:0:0:0:
192,192,123609,128,0,124511:0:0:0:0:
320,192,123609,1,4,0:0:0:0:
64,192,124060,1,8,0:0:0:0:
320,192,124511,128,0,124962:0:0:0:0:
448,192,124511,1,4,0:0:0:0:
448,192,124962,128,0,125413:0:0:0:0:
64,192,124962,1,8,0:0:0:0:
192,192,125413,1,4,0:0:0:0:
320,192,125639,1,0,0:0:0:0:
192,192,125864,1,8,0:0:0:0:
64,192,126090,1,0,0:0:0:0:
192,192,126315,128,0,127218:0:0:0:0:
448,192,126315,1,4,0:0:0:0:
320,192,126766,1,8,0:0:0:0:
448,192,127218,128,0,128120:0:0:0:0:
64,192,127218,1,4,0:0:0:0:
64,192,127669,1,8,0:0:0:0:
192,192,128120,128,0,128571:0:0:0:0:
320,192,128120,1,4,0:0:0:0:
448,192,128571,128,0,129022:0:0:0:0:
320,192,128571,1,4,0:0:0:0:
320,192,129022,128,0,129473:0:0:0:0:
64,192,129022,1,4,0:0:0:0:
64,192,129473,128,0,129924:0:0:0:0:
448,192,129473,1,4,0:0:0:0:
192,192,129924,1,4,0:0:0:0:
448,192,129924,128,0,130601:0:0:0:0:
320,192,130601,1,0,0:0:0:0:
192,192,130714,1,0,0:0:0:0:
64,192,130827,128,0,131729:0:0:0:0:
192,192,131165,1,4,0:0:0:0:
320,192,131278,1,4,0:0:0:0:
448,192,131503,1,4,0:0:0:0:
192,192,131729,128,0,132180:0:0:0:0:
320,192,131729,1,0,0:0:0:0:
448,192,132180,128,0,132631:0:0:0:0:
64,192,132631,1,4,0:0:0:0:
192,192,132744,1,4,0:0:0:0:
320,192,132857,1,4,0:0:0:0:
192,192,133082,1,4,0:0:0:0:
64,192,133308,1,4,0:0:0:0:
192,192,133533,128,0,134436:0:0:0:0:
448,192,133533,1,4,0:0:0:0:
320,192,133984,1,4,0:0:0:0:
448,192,134436,128,0,135338:0:0:0:0:
64,192,134436,1,4,0:0:0:0:
192,192,134887,1,4,0:0:0:0:
64,192,135338,128,0,135789:0:0:0:0:
192,192,135338,1,4,0:0:0:0:
320,192,135789,128,0,136240:0:0:0:0:
448,192,135789,1,4,0:0:0:0:
192,192,136240,128,0,136691:0:0:0:0:
64,192,136240,1,4,0:0:0:0:
448,192,136691,1,4,0:0:0:0:
64,192,136691,1,2,0:0:0:0:
