osu file format v13

[General]
AudioFilename: Qualia.mp3
AudioLeadIn: 0
PreviewTime: 55939
Countdown: 0
SampleSet: Soft
StackLeniency: 0.7
Mode: 3
LetterboxInBreaks: 0
SpecialStyle: 0
WidescreenStoryboard: 0

[Editor]
DistanceSpacing: 1.8
BeatDivisor: 4
GridSize: 8
TimelineZoom: 1

[Metadata]
Title:Qualia
TitleUnicode:Qualia
Artist:Junk
ArtistUnicode:Junk
Creator:Mashiro-Fang
Version:4K HD+
Source:BMS
Tags:Rumia- Simple_Star richardfeder
BeatmapID:426499
BeatmapSetID:177155

[Difficulty]
HPDrainRate:8
CircleSize:4
OverallDifficulty:7
ApproachRate:5
SliderMultiplier:1.4
SliderTickRate:1

[Events]
//Background and Video events
0,0,"BG.jpg",0,0
//Break Periods
//Storyboard Layer 0 (Background)
//Storyboard Layer 1 (Fail)
//Storyboard Layer 2 (Pass)
//Storyboard Layer 3 (Foreground)
//Storyboard Sound Samples
//Background Colour Transformations
3,100,163,162,255

[TimingPoints]
0,451.127819548872,4,2,1,50,1,0
19849,-100,4,2,1,50,0,1
48721,-100,4,2,1,50,0,0
108270,-100,4,2,1,50,0,1
122706,-100,4,2,1,50,0,1
136240,-100,4,2,1,50,0,0
137142,-100,4,2,0,50,0,0

[HitObjects]
320,192,3609,5,0,0:0:0:0:
448,192,3609,1,0,0:0:0:0:
64,192,3609,1,0,0:0:0:0:
320,192,3834,1,0,0:0:0:0:
192,192,4060,1,0,0:0:0:0:
64,192,4285,1,0,0:0:0:0:
192,192,4511,1,0,0:0:0:0:
320,192,4962,1,0,0:0:0:0:
448,192,5187,1,0,0:0:0:0:
64,192,5413,1,0,0:0:0:0:
192,192,5639,1,0,0:0:0:0:
320,192,5864,1,0,0:0:0:0:
192,192,6090,1,0,0:0:0:0:
64,192,6315,1,0,0:0:0:0:
448,192,7218,1,0,0:0:0:0:
192,192,7894,1,0,0:0:0:0:
320,192,8007,1,0,0:0:0:0:
64,192,8120,1,0,0:0:0:0:
192,192,9022,1,0,0:0:0:0:
448,192,9473,1,0,0:0:0:0:
320,192,9924,1,0,0:0:0:0:
448,192,10150,1,0,0:0:0:0:
64,192,10375,1,0,0:0:0:0:
320,192,10375,1,0,0:0:0:0:
192,192,10601,1,0,0:0:0:0:
320,192,10601,1,0,0:0:0:0:
448,192,10827,1,0,0:0:0:0:
320,192,11052,1,0,0:0:0:0:
192,192,11278,1,0,0:0:0:0:
448,192,11278,1,8,0:0:0:0:
64,192,11503,1,0,0:0:0:0:
192,192,11729,1,0,0:0:0:0:
320,192,12180,1,8,0:0:0:0:
192,192,12180,1,0,0:0:0:0:
320,192,12406,1,0,0:0:0:0:
192,192,12631,1,0,0:0:0:0:
448,192,12857,1,0,0:0:0:0:
320,192,13082,1,8,0:0:0:0:
64,192,13082,1,0,0:0:0:0:
192,192,13308,1,0,0:0:0:0:
64,192,13533,1,0,0:0:0:0:
192,192,13984,1,0,0:0:0:0:
320,192,13984,1,8,0:0:0:0:
448,192,14436,1,0,0:0:0:0:
192,192,14887,1,0,0:0:0:0:
320,192,14887,1,8,0:0:0:0:
192,192,15112,1,0,0:0:0:0:
320,192,15225,1,0,0:0:0:0:
64,192,15338,128,0,16240:0:0:0:0:
192,192,15789,1,0,0:0:0:0:
320,192,15789,1,8,0:0:0:0:
192,192,16240,128,0,16691:0:0:0:0:
320,192,16240,1,0,0:0:0:0:
64,192,16691,1,0,0:0:0:0:
320,192,16691,1,8,0:0:0:0:
448,192,16691,128,0,17142:0:0:0:0:
320,192,17142,128,0,18045:0:0:0:0:
64,192,17142,1,0,0:0:0:0:
448,192,17593,1,8,0:0:0:0:
64,192,17593,1,0,0:0:0:0:
192,192,18045,1,0,0:0:0:0:
64,192,18157,1,0,0:0:0:0:
192,192,18270,1,0,0:0:0:0:
448,192,18496,1,0,0:0:0:0:
320,192,18721,1,0,0:0:0:0:
192,192,18834,1,0,0:0:0:0:
64,192,19060,1,0,0:0:0:0:
192,192,19172,1,0,0:0:0:0:
320,192,19285,1,0,0:0:0:0:
448,192,19398,1,0,0:0:0:0:
192,192,19398,1,8,0:0:0:0:
64,192,19398,1,0,0:0:0:0:
320,192,19849,1,4,0:0:0:0:
448,192,19849,1,0,0:0:0:0:
64,192,19849,1,2,0:0:0:0:
192,192,19849,1,0,0:0:0:0:
320,192,20075,1,0,0:0:0:0:
192,192,20300,1,0,0:0:0:0:
320,192,20300,1,4,0:0:0:0:
192,192,20526,1,0,0:0:0:0:
64,192,20751,1,0,0:0:0:0:
320,192,20751,1,4,0:0:0:0:
64,192,21203,1,0,0:0:0:0:
192,192,21203,1,4,0:0:0:0:
320,192,21428,1,0,0:0:0:0:
192,192,21654,1,4,0:0:0:0:
448,192,21654,1,0,0:0:0:0:
320,192,21879,1,0,0:0:0:0:
192,192,22105,1,4,0:0:0:0:
64,192,22105,1,0,0:0:0:0:
192,192,22330,1,0,0:0:0:0:
64,192,22556,1,0,0:0:0:0:
320,192,22556,1,4,0:0:0:0:
192,192,23458,1,4,0:0:0:0:
448,192,23458,1,0,0:0:0:0:
192,192,23684,1,0,0:0:0:0:
320,192,23684,1,0,0:0:0:0:
64,192,23909,1,0,0:0:0:0:
320,192,23909,1,4,0:0:0:0:
448,192,24135,1,0,0:0:0:0:
192,192,24135,1,0,0:0:0:0:
448,192,24360,1,0,0:0:0:0:
64,192,24360,1,4,0:0:0:0:
192,192,24586,1,0,0:0:0:0:
64,192,24586,1,0,0:0:0:0:
192,192,24812,1,0,0:0:0:0:
320,192,24812,1,4,0:0:0:0:
448,192,25037,1,0,0:0:0:0:
320,192,25037,1,0,0:0:0:0:
192,192,25263,1,0,0:0:0:0:
448,192,25263,1,4,0:0:0:0:
192,192,25488,1,0,0:0:0:0:
64,192,25488,1,0,0:0:0:0:
320,192,25714,1,4,0:0:0:0:
64,192,25714,1,0,0:0:0:0:
192,192,25939,1,0,0:0:0:0:
448,192,25939,1,0,0:0:0:0:
192,192,26165,1,0,0:0:0:0:
320,192,26165,1,4,0:0:0:0:
64,192,26616,1,0,0:0:0:0:
320,192,26616,1,4,0:0:0:0:
192,192,26842,1,0,0:0:0:0:
320,192,27067,1,4,0:0:0:0:
448,192,27067,1,0,0:0:0:0:
192,192,27293,1,0,0:0:0:0:
64,192,27518,1,0,0:0:0:0:
320,192,27518,1,4,0:0:0:0:
192,192,27744,1,0,0:0:0:0:
320,192,27969,1,4,0:0:0:0:
448,192,27969,1,0,0:0:0:0:
192,192,28421,1,0,0:0:0:0:
448,192,28421,1,4,0:0:0:0:
320,192,28646,1,0,0:0:0:0:
64,192,28872,1,0,0:0:0:0:
448,192,28872,1,4,0:0:0:0:
192,192,29097,1,0,0:0:0:0:
320,192,29323,1,0,0:0:0:0:
448,192,29323,1,4,0:0:0:0:
192,192,29548,1,0,0:0:0:0:
64,192,29774,1,0,0:0:0:0:
320,192,29774,1,4,0:0:0:0:
448,192,30676,1,0,0:0:0:0:
192,192,30676,1,4,0:0:0:0:
64,192,30902,1,0,0:0:0:0:
320,192,30902,1,0,0:0:0:0:
64,192,31127,1,4,0:0:0:0:
448,192,31127,1,0,0:0:0:0:
320,192,31353,1,0,0:0:0:0:
192,192,31353,1,0,0:0:0:0:
192,192,31578,1,4,0:0:0:0:
448,192,31578,1,0,0:0:0:0:
320,192,31804,1,0,0:0:0:0:
448,192,31804,1,0,0:0:0:0:
320,192,32030,1,0,0:0:0:0:
64,192,32030,1,4,0:0:0:0:
192,192,32255,1,0,0:0:0:0:
448,192,32255,1,0,0:0:0:0:
192,192,32481,1,4,0:0:0:0:
320,192,32481,1,0,0:0:0:0:
64,192,32706,1,0,0:0:0:0:
192,192,32706,1,0,0:0:0:0:
320,192,32932,1,0,0:0:0:0:
448,192,32932,1,4,0:0:0:0:
192,192,33157,1,0,0:0:0:0:
320,192,33157,1,0,0:0:0:0:
192,192,33383,1,4,0:0:0:0:
320,192,33383,1,0,0:0:0:0:
192,192,33834,1,4,0:0:0:0:
64,192,33834,1,0,0:0:0:0:
320,192,34060,1,4,0:0:0:0:
192,192,34060,1,0,0:0:0:0:
64,192,34285,1,4,0:0:0:0:
448,192,34285,1,0,0:0:0:0:
192,192,34398,1,0,0:0:0:0:
320,192,34511,1,0,0:0:0:0:
192,192,34624,1,0,0:0:0:0:
320,192,34736,1,0,0:0:0:0:
448,192,34736,1,0,0:0:0:0:
64,192,34736,1,8,0:0:0:0:
192,192,34849,1,0,0:0:0:0:
320,192,34962,1,0,0:0:0:0:
448,192,35075,1,0,0:0:0:0:
320,192,35187,1,0,0:0:0:0:
64,192,35187,1,4,0:0:0:0:
192,192,35300,1,0,0:0:0:0:
320,192,35413,1,0,0:0:0:0:
448,192,35526,1,0,0:0:0:0:
320,192,35639,1,0,0:0:0:0:
64,192,35639,1,8,0:0:0:0:
192,192,35639,1,0,0:0:0:0:
448,192,35751,1,0,0:0:0:0:
320,192,35864,1,0,0:0:0:0:
192,192,35977,1,0,0:0:0:0:
64,192,36090,1,4,0:0:0:0:
320,192,36090,1,0,0:0:0:0:
448,192,36203,1,0,0:0:0:0:
320,192,36315,1,0,0:0:0:0:
192,192,36428,1,0,0:0:0:0:
64,192,36541,1,8,0:0:0:0:
320,192,36541,1,0,0:0:0:0:
448,192,36541,1,0,0:0:0:0:
192,192,36654,1,0,0:0:0:0:
320,192,36766,1,0,0:0:0:0:
192,192,36879,1,0,0:0:0:0:
64,192,36992,1,4,0:0:0:0:
448,192,36992,1,0,0:0:0:0:
320,192,37218,1,0,0:0:0:0:
192,192,37218,1,0,0:0:0:0:
64,192,37443,1,8,0:0:0:0:
448,192,37443,1,0,0:0:0:0:
320,192,37443,1,0,0:0:0:0:
320,192,37669,1,0,0:0:0:0:
192,192,37669,1,0,0:0:0:0:
192,192,37894,1,0,0:0:0:0:
448,192,37894,1,4,0:0:0:0:
320,192,38007,1,0,0:0:0:0:
192,192,38120,1,0,0:0:0:0:
64,192,38233,1,0,0:0:0:0:
192,192,38345,1,0,0:0:0:0:
320,192,38345,1,0,0:0:0:0:
448,192,38345,1,8,0:0:0:0:
64,192,38458,1,0,0:0:0:0:
192,192,38571,1,0,0:0:0:0:
320,192,38684,1,0,0:0:0:0:
192,192,38796,1,0,0:0:0:0:
448,192,38796,1,4,0:0:0:0:
64,192,38909,1,0,0:0:0:0:
192,192,39022,1,0,0:0:0:0:
320,192,39135,1,0,0:0:0:0:
64,192,39248,1,0,0:0:0:0:
192,192,39248,1,0,0:0:0:0:
448,192,39248,1,8,0:0:0:0:
320,192,39360,1,0,0:0:0:0:
192,192,39473,1,0,0:0:0:0:
320,192,39586,1,0,0:0:0:0:
64,192,39699,1,0,0:0:0:0:
448,192,39699,1,4,0:0:0:0:
192,192,39812,1,0,0:0:0:0:
320,192,39924,1,0,0:0:0:0:
192,192,40037,1,0,0:0:0:0:
64,192,40150,1,0,0:0:0:0:
320,192,40150,1,0,0:0:0:0:
448,192,40150,1,8,0:0:0:0:
192,192,40263,1,0,0:0:0:0:
320,192,40375,1,0,0:0:0:0:
448,192,40488,1,0,0:0:0:0:
320,192,40601,1,0,0:0:0:0:
64,192,40601,1,4,0:0:0:0:
192,192,40714,1,0,0:0:0:0:
320,192,40827,1,0,0:0:0:0:
448,192,40939,1,0,0:0:0:0:
64,192,41052,1,8,0:0:0:0:
320,192,41052,1,0,0:0:0:0:
192,192,41052,1,0,0:0:0:0:
448,192,41165,1,0,0:0:0:0:
320,192,41278,1,0,0:0:0:0:
192,192,41390,1,0,0:0:0:0:
64,192,41503,1,4,0:0:0:0:
448,192,41503,1,0,0:0:0:0:
192,192,41616,1,0,0:0:0:0:
320,192,41729,1,0,0:0:0:0:
448,192,41842,1,0,0:0:0:0:
320,192,41954,1,0,0:0:0:0:
64,192,41954,1,8,0:0:0:0:
192,192,41954,1,0,0:0:0:0:
448,192,42067,1,0,0:0:0:0:
320,192,42180,1,0,0:0:0:0:
192,192,42293,1,0,0:0:0:0:
64,192,42406,1,4,0:0:0:0:
320,192,42406,1,0,0:0:0:0:
448,192,42518,1,0,0:0:0:0:
320,192,42631,1,0,0:0:0:0:
192,192,42744,1,0,0:0:0:0:
64,192,42857,1,8,0:0:0:0:
320,192,42857,1,0,0:0:0:0:
448,192,42857,1,0,0:0:0:0:
192,192,42969,1,0,0:0:0:0:
320,192,43082,1,0,0:0:0:0:
192,192,43195,1,0,0:0:0:0:
64,192,43308,1,4,0:0:0:0:
448,192,43308,1,0,0:0:0:0:
320,192,43421,1,0,0:0:0:0:
192,192,43533,1,0,0:0:0:0:
320,192,43646,1,0,0:0:0:0:
64,192,43759,1,8,0:0:0:0:
192,192,43759,1,0,0:0:0:0:
448,192,43759,1,0,0:0:0:0:
320,192,43872,1,0,0:0:0:0:
192,192,43984,1,0,0:0:0:0:
64,192,44097,1,0,0:0:0:0:
192,192,44210,1,0,0:0:0:0:
448,192,44210,1,4,0:0:0:0:
64,192,44436,1,0,0:0:0:0:
320,192,44436,1,0,0:0:0:0:
192,192,44661,1,0,0:0:0:0:
448,192,44661,1,8,0:0:0:0:
320,192,44661,1,0,0:0:0:0:
64,192,44887,1,0,0:0:0:0:
320,192,44887,1,0,0:0:0:0:
192,192,45112,1,0,0:0:0:0:
448,192,45112,1,4,0:0:0:0:
320,192,45225,1,0,0:0:0:0:
192,192,45338,1,0,0:0:0:0:
64,192,45451,1,0,0:0:0:0:
192,192,45563,1,0,0:0:0:0:
448,192,45563,1,8,0:0:0:0:
320,192,45563,1,0,0:0:0:0:
64,192,45676,1,0,0:0:0:0:
192,192,45789,1,0,0:0:0:0:
320,192,45902,1,0,0:0:0:0:
64,192,46015,1,0,0:0:0:0:
448,192,46015,1,4,0:0:0:0:
192,192,46127,1,0,0:0:0:0:
320,192,46240,1,0,0:0:0:0:
448,192,46353,1,0,0:0:0:0:
320,192,46466,1,0,0:0:0:0:
64,192,46466,1,8,0:0:0:0:
192,192,46466,1,0,0:0:0:0:
448,192,46578,1,0,0:0:0:0:
320,192,46691,1,0,0:0:0:0:
192,192,46804,1,0,0:0:0:0:
64,192,46917,1,4,0:0:0:0:
320,192,46917,1,0,0:0:0:0:
448,192,47030,1,0,0:0:0:0:
320,192,47142,1,0,0:0:0:0:
192,192,47255,1,0,0:0:0:0:
64,192,47368,1,8,0:0:0:0:
320,192,47368,1,0,0:0:0:0:
448,192,47368,1,0,0:0:0:0:
192,192,47481,1,0,0:0:0:0:
320,192,47593,1,0,0:0:0:0:
192,192,47706,1,0,0:0:0:0:
64,192,47819,1,4,0:0:0:0:
320,192,47819,1,0,0:0:0:0:
448,192,47932,1,0,0:0:0:0:
320,192,48045,1,0,0:0:0:0:
192,192,48157,1,0,0:0:0:0:
64,192,48270,1,8,0:0:0:0:
320,192,48270,1,0,0:0:0:0:
448,192,48270,1,0,0:0:0:0:
192,192,48383,1,0,0:0:0:0:
320,192,48496,1,0,0:0:0:0:
448,192,48609,1,0,0:0:0:0:
192,192,48721,1,4,0:0:0:0:
320,192,48721,1,2,0:0:0:0:
64,192,48721,1,0,0:0:0:0:
320,192,48947,1,0,0:0:0:0:
192,192,48947,1,0,0:0:0:0:
320,192,49172,1,8,0:0:0:0:
448,192,49172,1,0,0:0:0:0:
64,192,49172,1,0,0:0:0:0:
320,192,49398,1,0,0:0:0:0:
192,192,49511,1,0,0:0:0:0:
64,192,49511,1,0,0:0:0:0:
320,192,49736,1,0,0:0:0:0:
448,192,49736,1,0,0:0:0:0:
320,192,49962,1,0,0:0:0:0:
64,192,50075,1,0,0:0:0:0:
192,192,50075,1,8,0:0:0:0:
320,192,50300,1,0,0:0:0:0:
448,192,50300,1,0,0:0:0:0:
192,192,50526,1,0,0:0:0:0:
64,192,50526,1,0,0:0:0:0:
320,192,50751,1,0,0:0:0:0:
192,192,50751,1,0,0:0:0:0:
320,192,50977,1,0,0:0:0:0:
448,192,50977,1,0,0:0:0:0:
64,192,50977,1,8,0:0:0:0:
192,192,51203,1,0,0:0:0:0:
320,192,51315,1,0,0:0:0:0:
448,192,51315,1,0,0:0:0:0:
192,192,51541,1,0,0:0:0:0:
64,192,51541,1,0,0:0:0:0:
192,192,51766,1,0,0:0:0:0:
320,192,51879,1,0,0:0:0:0:
448,192,51879,1,8,0:0:0:0:
192,192,52105,1,0,0:0:0:0:
64,192,52105,1,0,0:0:0:0:
192,192,52330,1,0,0:0:0:0:
64,192,52330,1,0,0:0:0:0:
320,192,52556,1,0,0:0:0:0:
192,192,52556,1,0,0:0:0:0:
320,192,52781,1,0,0:0:0:0:
448,192,52781,1,8,0:0:0:0:
64,192,52781,1,0,0:0:0:0:
320,192,53007,1,0,0:0:0:0:
192,192,53120,1,0,0:0:0:0:
64,192,53120,1,0,0:0:0:0:
320,192,53345,1,0,0:0:0:0:
448,192,53345,1,0,0:0:0:0:
320,192,53571,1,0,0:0:0:0:
192,192,53684,1,8,0:0:0:0:
64,192,53684,1,0,0:0:0:0:
448,192,53909,1,0,0:0:0:0:
320,192,53909,1,0,0:0:0:0:
192,192,54135,1,0,0:0:0:0:
320,192,54135,1,0,0:0:0:0:
192,192,54360,1,0,0:0:0:0:
320,192,54360,1,0,0:0:0:0:
64,192,54586,1,0,0:0:0:0:
320,192,54586,1,8,0:0:0:0:
192,192,54699,1,0,0:0:0:0:
448,192,54699,1,0,0:0:0:0:
64,192,54812,1,0,0:0:0:0:
320,192,54812,1,0,0:0:0:0:
192,192,54924,1,0,0:0:0:0:
448,192,54924,1,0,0:0:0:0:
320,192,55150,1,0,0:0:0:0:
448,192,55150,1,0,0:0:0:0:
64,192,55263,1,0,0:0:0:0:
192,192,55263,1,0,0:0:0:0:
320,192,55488,1,0,0:0:0:0:
448,192,55488,1,8,0:0:0:0:
64,192,55714,1,0,0:0:0:0:
192,192,55714,1,0,0:0:0:0:
64,192,55939,1,2,0:0:0:0:
320,192,55939,1,4,0:0:0:0:
448,192,55939,1,0,0:0:0:0:
320,192,56165,1,0,0:0:0:0:
192,192,56165,1,0,0:0:0:0:
320,192,56390,1,0,0:0:0:0:
448,192,56390,1,8,0:0:0:0:
320,192,56616,1,0,0:0:0:0:
192,192,56729,1,0,0:0:0:0:
64,192,56729,1,0,0:0:0:0:
320,192,56954,1,0,0:0:0:0:
448,192,56954,1,0,0:0:0:0:
320,192,57180,1,0,0:0:0:0:
64,192,57293,1,8,0:0:0:0:
192,192,57293,1,0,0:0:0:0:
320,192,57518,1,0,0:0:0:0:
448,192,57518,1,0,0:0:0:0:
192,192,57744,1,0,0:0:0:0:
320,192,57744,1,0,0:0:0:0:
64,192,57744,128,0,57969:0:0:0:0:
320,192,57969,1,0,0:0:0:0:
448,192,57969,1,0,0:0:0:0:
192,192,58195,1,0,0:0:0:0:
320,192,58195,1,8,0:0:0:0:
448,192,58195,128,0,58421:0:0:0:0:
64,192,58421,1,0,0:0:0:0:
192,192,58533,1,0,0:0:0:0:
320,192,58533,1,0,0:0:0:0:
64,192,58759,1,0,0:0:0:0:
192,192,58759,1,0,0:0:0:0:
320,192,58984,1,0,0:0:0:0:
448,192,58984,1,0,0:0:0:0:
192,192,59097,1,0,0:0:0:0:
64,192,59097,1,8,0:0:0:0:
192,192,59323,1,0,0:0:0:0:
320,192,59323,1,0,0:0:0:0:
192,192,59548,1,0,0:0:0:0:
64,192,59548,1,0,0:0:0:0:
320,192,59774,1,0,0:0:0:0:
192,192,59774,1,0,0:0:0:0:
320,192,59999,1,0,0:0:0:0:
448,192,59999,1,8,0:0:0:0:
192,192,60225,1,0,0:0:0:0:
320,192,60338,1,0,0:0:0:0:
448,192,60338,1,0,0:0:0:0:
192,192,60563,1,0,0:0:0:0:
64,192,60563,1,0,0:0:0:0:
192,192,60789,1,0,0:0:0:0:
320,192,60902,1,0,0:0:0:0:
448,192,60902,1,8,0:0:0:0:
64,192,61127,1,0,0:0:0:0:
192,192,61127,1,0,0:0:0:0:
64,192,61353,1,0,0:0:0:0:
192,192,61353,1,0,0:0:0:0:
320,192,61578,1,0,0:0:0:0:
448,192,61578,1,0,0:0:0:0:
64,192,61804,1,0,0:0:0:0:
192,192,61804,1,8,0:0:0:0:
320,192,61917,1,0,0:0:0:0:
448,192,61917,1,0,0:0:0:0:
64,192,62030,1,0,0:0:0:0:
192,192,62030,1,0,0:0:0:0:
320,192,62142,1,0,0:0:0:0:
448,192,62142,1,0,0:0:0:0:
64,192,62255,1,0,0:0:0:0:
448,192,62255,1,0,0:0:0:0:
320,192,62368,1,0,0:0:0:0:
192,192,62368,1,0,0:0:0:0:
64,192,62481,1,0,0:0:0:0:
448,192,62481,1,0,0:0:0:0:
192,192,62593,1,0,0:0:0:0:
320,192,62593,1,0,0:0:0:0:
64,192,62706,1,0,0:0:0:0:
448,192,62706,1,0,0:0:0:0:
320,192,62819,1,0,0:0:0:0:
192,192,62932,1,0,0:0:0:0:
320,192,63157,1,2,0:0:0:0:
192,192,63157,1,4,0:0:0:0:
448,192,63157,128,0,63609:0:0:0:0:
64,192,63383,1,0,0:0:0:0:
192,192,63496,1,0,0:0:0:0:
64,192,63609,1,0,0:0:0:0:
320,192,63609,1,4,0:0:0:0:
192,192,63834,1,0,0:0:0:0:
192,192,64060,1,0,0:0:0:0:
448,192,64060,1,4,0:0:0:0:
64,192,64060,128,0,64511:0:0:0:0:
320,192,64285,1,0,0:0:0:0:
192,192,64398,1,0,0:0:0:0:
320,192,64511,1,0,0:0:0:0:
448,192,64511,1,4,0:0:0:0:
192,192,64736,1,0,0:0:0:0:
448,192,64962,128,0,65413:0:0:0:0:
64,192,64962,1,0,0:0:0:0:
320,192,64962,1,4,0:0:0:0:
192,192,65187,1,0,0:0:0:0:
64,192,65300,1,0,0:0:0:0:
192,192,65413,1,0,0:0:0:0:
320,192,65413,1,4,0:0:0:0:
64,192,65526,1,0,0:0:0:0:
192,192,65639,1,0,0:0:0:0:
64,192,65864,128,0,66315:0:0:0:0:
320,192,65864,1,4,0:0:0:0:
448,192,65864,1,0,0:0:0:0:
192,192,66090,1,0,0:0:0:0:
448,192,66203,1,0,0:0:0:0:
192,192,66315,1,0,0:0:0:0:
320,192,66315,1,4,0:0:0:0:
192,192,66541,128,0,66766:0:0:0:0:
448,192,66766,128,0,67218:0:0:0:0:
64,192,66766,1,4,0:0:0:0:
320,192,66766,1,0,0:0:0:0:
320,192,66992,1,0,0:0:0:0:
192,192,67105,1,0,0:0:0:0:
64,192,67218,1,4,0:0:0:0:
320,192,67218,1,0,0:0:0:0:
320,192,67443,1,0,0:0:0:0:
64,192,67669,128,0,68120:0:0:0:0:
192,192,67669,1,0,0:0:0:0:
448,192,67669,1,4,0:0:0:0:
448,192,67894,1,0,0:0:0:0:
192,192,68007,1,0,0:0:0:0:
320,192,68120,1,0,0:0:0:0:
448,192,68120,1,4,0:0:0:0:
192,192,68345,1,0,0:0:0:0:
448,192,68571,128,0,69022:0:0:0:0:
192,192,68571,1,4,0:0:0:0:
320,192,68571,1,0,0:0:0:0:
64,192,68796,1,0,0:0:0:0:
320,192,68909,1,0,0:0:0:0:
64,192,69022,1,0,0:0:0:0:
192,192,69022,1,4,0:0:0:0:
320,192,69135,1,0,0:0:0:0:
192,192,69248,1,0,0:0:0:0:
64,192,69473,128,0,69924:0:0:0:0:
320,192,69473,1,4,0:0:0:0:
448,192,69473,1,0,0:0:0:0:
320,192,69699,1,0,0:0:0:0:
192,192,69812,1,0,0:0:0:0:
320,192,69924,1,8,0:0:0:0:
448,192,70037,1,4,0:0:0:0:
192,192,70150,1,0,0:0:0:0:
320,192,70263,1,0,0:0:0:0:
448,192,70375,128,0,70827:0:0:0:0:
64,192,70375,1,0,0:0:0:0:
192,192,70375,1,2,0:0:0:0:
320,192,70375,1,4,0:0:0:0:
64,192,70601,1,0,0:0:0:0:
192,192,70714,1,0,0:0:0:0:
64,192,70827,1,0,0:0:0:0:
320,192,70827,1,4,0:0:0:0:
192,192,71052,1,0,0:0:0:0:
64,192,71278,128,0,71729:0:0:0:0:
192,192,71278,1,0,0:0:0:0:
448,192,71278,1,4,0:0:0:0:
320,192,71503,1,0,0:0:0:0:
192,192,71616,1,0,0:0:0:0:
320,192,71729,1,0,0:0:0:0:
448,192,71729,1,4,0:0:0:0:
192,192,71954,1,0,0:0:0:0:
448,192,72180,128,0,72631:0:0:0:0:
64,192,72180,1,0,0:0:0:0:
192,192,72180,1,4,0:0:0:0:
320,192,72406,1,0,0:0:0:0:
64,192,72518,1,0,0:0:0:0:
192,192,72631,1,4,0:0:0:0:
320,192,72631,1,0,0:0:0:0:
64,192,72744,1,0,0:0:0:0:
192,192,72857,1,0,0:0:0:0:
64,192,73082,128,0,73533:0:0:0:0:
320,192,73082,1,0,0:0:0:0:
448,192,73082,1,4,0:0:0:0:
192,192,73308,1,0,0:0:0:0:
320,192,73421,1,0,0:0:0:0:
192,192,73533,1,0,0:0:0:0:
448,192,73533,1,4,0:0:0:0:
192,192,73759,128,0,73984:0:0:0:0:
448,192,73984,128,0,74436:0:0:0:0:
64,192,73984,1,0,0:0:0:0:
320,192,73984,1,4,0:0:0:0:
192,192,74210,1,0,0:0:0:0:
64,192,74323,1,0,0:0:0:0:
192,192,74436,1,0,0:0:0:0:
320,192,74436,1,4,0:0:0:0:
192,192,74661,1,0,0:0:0:0:
64,192,74887,128,0,75338:0:0:0:0:
320,192,74887,1,0,0:0:0:0:
448,192,74887,1,4,0:0:0:0:
192,192,75112,1,0,0:0:0:0:
320,192,75225,1,0,0:0:0:0:
448,192,75338,1,4,0:0:0:0:
192,192,75338,1,0,0:0:0:0:
320,192,75563,1,0,0:0:0:0:
448,192,75789,128,0,76240:0:0:0:0:
64,192,75789,1,4,0:0:0:0:
192,192,75789,1,0,0:0:0:0:
320,192,76015,1,0,0:0:0:0:
192,192,76127,1,0,0:0:0:0:
64,192,76240,1,4,0:0:0:0:
320,192,76240,1,0,0:0:0:0:
192,192,76466,1,0,0:0:0:0:
64,192,76691,1,0,0:0:0:0:
192,192,76691,1,4,0:0:0:0:
320,192,76804,1,4,0:0:0:0:
448,192,76804,1,0,0:0:0:0:
64,192,77030,1,0,0:0:0:0:
192,192,77030,1,4,0:0:0:0:
448,192,77368,1,0,0:0:0:0:
320,192,77368,1,4,0:0:0:0:
64,192,77593,1,4,0:0:0:0:
448,192,77593,1,0,0:0:0:0:
192,192,77593,1,2,0:0:0:0:
320,192,77706,1,0,0:0:0:0:
192,192,77819,1,0,0:0:0:0:
320,192,77932,1,0,0:0:0:0:
64,192,78045,1,4,0:0:0:0:
448,192,78045,1,0,0:0:0:0:
192,192,78157,1,0,0:0:0:0:
320,192,78270,1,0,0:0:0:0:
192,192,78383,1,0,0:0:0:0:
64,192,78496,1,4,0:0:0:0:
448,192,78496,1,0,0:0:0:0:
320,192,78609,1,0,0:0:0:0:
192,192,78721,1,0,0:0:0:0:
320,192,78834,1,0,0:0:0:0:
64,192,78947,1,4,0:0:0:0:
448,192,78947,1,0,0:0:0:0:
320,192,79060,1,0,0:0:0:0:
448,192,79172,1,0,0:0:0:0:
320,192,79285,1,0,0:0:0:0:
64,192,79398,1,4,0:0:0:0:
448,192,79398,1,0,0:0:0:0:
192,192,79511,1,0,0:0:0:0:
320,192,79624,1,0,0:0:0:0:
448,192,79736,1,0,0:0:0:0:
64,192,79849,1,4,0:0:0:0:
192,192,79849,1,0,0:0:0:0:
320,192,79962,1,0,0:0:0:0:
448,192,80075,1,0,0:0:0:0:
320,192,80187,1,0,0:0:0:0:
192,192,80300,1,0,0:0:0:0:
64,192,80300,1,4,0:0:0:0:
320,192,80413,1,0,0:0:0:0:
192,192,80526,1,0,0:0:0:0:
320,192,80639,1,0,0:0:0:0:
64,192,80751,1,4,0:0:0:0:
448,192,80751,1,0,0:0:0:0:
320,192,80864,1,0,0:0:0:0:
448,192,80977,128,0,81203:0:0:0:0:
192,192,80977,1,0,0:0:0:0:
64,192,81203,1,4,0:0:0:0:
192,192,81203,1,0,0:0:0:0:
320,192,81315,1,0,0:0:0:0:
448,192,81428,1,0,0:0:0:0:
320,192,81541,1,0,0:0:0:0:
64,192,81654,1,4,0:0:0:0:
192,192,81654,1,0,0:0:0:0:
320,192,81766,1,0,0:0:0:0:
192,192,81879,1,0,0:0:0:0:
320,192,81992,1,0,0:0:0:0:
64,192,82105,1,4,0:0:0:0:
448,192,82105,1,0,0:0:0:0:
192,192,82218,1,0,0:0:0:0:
320,192,82330,1,0,0:0:0:0:
192,192,82443,1,0,0:0:0:0:
64,192,82556,1,4,0:0:0:0:
448,192,82556,1,0,0:0:0:0:
192,192,82669,1,0,0:0:0:0:
320,192,82781,1,0,0:0:0:0:
448,192,82894,1,0,0:0:0:0:
320,192,83007,1,0,0:0:0:0:
64,192,83007,1,4,0:0:0:0:
192,192,83120,1,0,0:0:0:0:
320,192,83233,1,0,0:0:0:0:
448,192,83345,1,0,0:0:0:0:
320,192,83458,1,0,0:0:0:0:
64,192,83458,1,4,0:0:0:0:
448,192,83571,1,0,0:0:0:0:
320,192,83684,1,0,0:0:0:0:
192,192,83796,1,0,0:0:0:0:
64,192,83909,1,4,0:0:0:0:
320,192,83909,1,0,0:0:0:0:
448,192,84022,1,0,0:0:0:0:
320,192,84135,1,0,0:0:0:0:
192,192,84248,1,0,0:0:0:0:
64,192,84360,1,0,0:0:0:0:
192,192,84473,1,0,0:0:0:0:
448,192,84473,1,4,0:0:0:0:
320,192,84586,1,0,0:0:0:0:
192,192,84699,1,0,0:0:0:0:
64,192,84812,1,4,0:0:0:0:
448,192,84812,1,0,0:0:0:0:
320,192,84812,1,2,0:0:0:0:
192,192,84924,1,0,0:0:0:0:
320,192,85037,1,0,0:0:0:0:
448,192,85150,1,0,0:0:0:0:
64,192,85263,1,4,0:0:0:0:
320,192,85263,1,0,0:0:0:0:
192,192,85375,1,0,0:0:0:0:
320,192,85488,1,0,0:0:0:0:
448,192,85601,1,0,0:0:0:0:
64,192,85714,1,4,0:0:0:0:
320,192,85714,1,0,0:0:0:0:
448,192,85827,1,0,0:0:0:0:
320,192,85939,1,0,0:0:0:0:
192,192,86052,1,0,0:0:0:0:
64,192,86165,1,4,0:0:0:0:
320,192,86165,1,0,0:0:0:0:
448,192,86278,1,0,0:0:0:0:
320,192,86390,1,0,0:0:0:0:
192,192,86503,1,0,0:0:0:0:
64,192,86616,1,4,0:0:0:0:
448,192,86616,1,0,0:0:0:0:
192,192,86729,1,0,0:0:0:0:
320,192,86842,1,0,0:0:0:0:
192,192,86954,1,0,0:0:0:0:
64,192,87067,1,4,0:0:0:0:
448,192,87067,1,0,0:0:0:0:
320,192,87180,1,0,0:0:0:0:
192,192,87293,1,0,0:0:0:0:
320,192,87406,1,0,0:0:0:0:
64,192,87518,1,4,0:0:0:0:
448,192,87518,1,0,0:0:0:0:
192,192,87631,1,0,0:0:0:0:
320,192,87744,1,0,0:0:0:0:
448,192,87857,1,0,0:0:0:0:
64,192,87969,1,4,0:0:0:0:
320,192,87969,1,0,0:0:0:0:
192,192,88082,1,0,0:0:0:0:
320,192,88195,128,0,88421:0:0:0:0:
64,192,88195,1,0,0:0:0:0:
64,192,88421,1,4,0:0:0:0:
448,192,88421,1,0,0:0:0:0:
192,192,88421,1,2,0:0:0:0:
320,192,88533,1,0,0:0:0:0:
192,192,88646,1,0,0:0:0:0:
320,192,88759,1,0,0:0:0:0:
64,192,88872,1,4,0:0:0:0:
448,192,88872,1,0,0:0:0:0:
192,192,88984,1,0,0:0:0:0:
320,192,89097,1,0,0:0:0:0:
192,192,89210,1,0,0:0:0:0:
64,192,89323,1,4,0:0:0:0:
448,192,89323,1,0,0:0:0:0:
192,192,89436,1,0,0:0:0:0:
320,192,89548,1,0,0:0:0:0:
448,192,89661,1,0,0:0:0:0:
64,192,89774,1,4,0:0:0:0:
320,192,89774,1,0,0:0:0:0:
192,192,89887,1,0,0:0:0:0:
320,192,89999,1,0,0:0:0:0:
448,192,90112,1,0,0:0:0:0:
64,192,90225,1,4,0:0:0:0:
320,192,90225,1,2,0:0:0:0:
192,192,90225,1,0,0:0:0:0:
448,192,90338,1,0,0:0:0:0:
320,192,90451,1,0,0:0:0:0:
448,192,90563,1,0,0:0:0:0:
64,192,90676,1,4,0:0:0:0:
192,192,90676,1,0,0:0:0:0:
320,192,90676,1,2,0:0:0:0:
448,192,90789,1,0,0:0:0:0:
320,192,90902,1,0,0:0:0:0:
192,192,91015,1,0,0:0:0:0:
64,192,91127,1,4,0:0:0:0:
448,192,91127,1,2,0:0:0:0:
64,192,91278,1,4,0:0:0:0:
448,192,91278,1,2,0:0:0:0:
64,192,91428,1,4,0:0:0:0:
448,192,91428,1,2,0:0:0:0:
448,192,91578,1,2,0:0:0:0:
64,192,91578,1,4,0:0:0:0:
64,192,92030,1,0,0:0:0:0:
192,192,92255,1,0,0:0:0:0:
320,192,92481,1,0,0:0:0:0:
64,192,92706,1,0,0:0:0:0:
192,192,92819,1,0,0:0:0:0:
320,192,93045,1,0,0:0:0:0:
192,192,93270,1,0,0:0:0:0:
320,192,93383,1,0,0:0:0:0:
448,192,93609,1,0,0:0:0:0:
320,192,93834,1,0,0:0:0:0:
192,192,94060,1,0,0:0:0:0:
64,192,94285,1,0,0:0:0:0:
320,192,94511,1,0,0:0:0:0:
448,192,94624,1,0,0:0:0:0:
192,192,94849,1,0,0:0:0:0:
320,192,95075,1,0,0:0:0:0:
64,192,95187,1,0,0:0:0:0:
192,192,95413,1,0,0:0:0:0:
64,192,95639,1,0,0:0:0:0:
192,192,95864,1,0,0:0:0:0:
320,192,96090,1,0,0:0:0:0:
192,192,96315,1,0,0:0:0:0:
320,192,96428,1,0,0:0:0:0:
448,192,96654,1,0,0:0:0:0:
64,192,96879,1,0,0:0:0:0:
192,192,96992,1,0,0:0:0:0:
320,192,97218,1,0,0:0:0:0:
448,192,97443,1,0,0:0:0:0:
448,192,97669,1,0,0:0:0:0:
192,192,97894,1,0,0:0:0:0:
320,192,98007,1,0,0:0:0:0:
448,192,98120,1,0,0:0:0:0:
64,192,98233,1,0,0:0:0:0:
320,192,98458,1,0,0:0:0:0:
192,192,98571,1,0,0:0:0:0:
320,192,98796,1,0,0:0:0:0:
64,192,99022,1,0,0:0:0:0:
320,192,99248,1,0,0:0:0:0:
448,192,99248,128,0,100150:0:0:0:0:
320,192,99924,1,0,0:0:0:0:
192,192,100037,1,0,0:0:0:0:
64,192,100150,128,0,101052:0:0:0:0:
320,192,101052,128,0,101503:0:0:0:0:
448,192,101503,128,0,101954:0:0:0:0:
192,192,101954,1,0,0:0:0:0:
448,192,102180,1,0,0:0:0:0:
320,192,102406,1,0,0:0:0:0:
64,192,102631,1,0,0:0:0:0:
64,192,102857,1,0,0:0:0:0:
192,192,102857,1,0,0:0:0:0:
192,192,103082,1,0,0:0:0:0:
320,192,103082,1,0,0:0:0:0:
320,192,103308,1,0,0:0:0:0:
448,192,103308,1,0,0:0:0:0:
192,192,103533,1,0,0:0:0:0:
320,192,103646,1,0,0:0:0:0:
448,192,103646,1,0,0:0:0:0:
64,192,103872,1,0,0:0:0:0:
192,192,103872,1,0,0:0:0:0:
192,192,104097,1,0,0:0:0:0:
320,192,104210,1,0,0:0:0:0:
448,192,104210,1,0,0:0:0:0:
64,192,104436,1,0,0:0:0:0:
192,192,104436,1,0,0:0:0:0:
320,192,104661,1,0,0:0:0:0:
192,192,104661,1,0,0:0:0:0:
192,192,104887,1,0,0:0:0:0:
320,192,104887,1,0,0:0:0:0:
64,192,105112,1,0,0:0:0:0:
320,192,105112,1,0,0:0:0:0:
192,192,105225,1,0,0:0:0:0:
448,192,105225,1,0,0:0:0:0:
64,192,105338,1,0,0:0:0:0:
320,192,105338,1,0,0:0:0:0:
192,192,105451,1,0,0:0:0:0:
448,192,105451,1,0,0:0:0:0:
64,192,105563,1,0,0:0:0:0:
448,192,105563,1,0,0:0:0:0:
192,192,105676,1,0,0:0:0:0:
320,192,105676,1,0,0:0:0:0:
64,192,105789,1,0,0:0:0:0:
448,192,105789,1,0,0:0:0:0:
192,192,105902,1,0,0:0:0:0:
320,192,105902,1,0,0:0:0:0:
64,192,106015,1,0,0:0:0:0:
448,192,106015,1,0,0:0:0:0:
64,192,106466,1,0,0:0:0:0:
192,192,106578,1,0,0:0:0:0:
320,192,106691,1,0,0:0:0:0:
320,192,106917,1,0,0:0:0:0:
320,192,107142,1,0,0:0:0:0:
192,192,107255,1,0,0:0:0:0:
448,192,107481,1,0,0:0:0:0:
320,192,107593,1,0,0:0:0:0:
192,192,107706,1,0,0:0:0:0:
64,192,107819,1,0,0:0:0:0:
320,192,107819,1,0,0:0:0:0:
448,192,107819,1,8,0:0:0:0:
64,192,108270,1,4,0:0:0:0:
192,192,108270,1,2,0:0:0:0:
320,192,108270,1,0,0:0:0:0:
448,192,108270,1,0,0:0:0:0:
320,192,108496,1,0,0:0:0:0:
192,192,108721,1,4,0:0:0:0:
320,192,108721,1,0,0:0:0:0:
192,192,108947,1,0,0:0:0:0:
448,192,109172,1,0,0:0:0:0:
64,192,109172,1,4,0:0:0:0:
192,192,109624,1,4,0:0:0:0:
448,192,109624,1,0,0:0:0:0:
320,192,109849,1,0,0:0:0:0:
192,192,110075,1,4,0:0:0:0:
448,192,110075,1,0,0:0:0:0:
320,192,110300,1,0,0:0:0:0:
192,192,110526,1,4,0:0:0:0:
320,192,110526,1,0,0:0:0:0:
192,192,110751,1,0,0:0:0:0:
64,192,110977,1,4,0:0:0:0:
320,192,110977,1,0,0:0:0:0:
448,192,111879,1,0,0:0:0:0:
64,192,111879,1,4,0:0:0:0:
448,192,112105,1,0,0:0:0:0:
192,192,112105,1,0,0:0:0:0:
320,192,112330,1,0,0:0:0:0:
192,192,112330,1,0,0:0:0:0:
64,192,112556,1,0,0:0:0:0:
320,192,112556,1,0,0:0:0:0:
64,192,112781,1,4,0:0:0:0:
192,192,112781,1,0,0:0:0:0:
192,192,113007,1,0,0:0:0:0:
320,192,113007,1,0,0:0:0:0:
320,192,113233,1,0,0:0:0:0:
448,192,113233,1,4,0:0:0:0:
64,192,113458,1,0,0:0:0:0:
448,192,113458,1,0,0:0:0:0:
64,192,113684,1,0,0:0:0:0:
320,192,113684,1,4,0:0:0:0:
192,192,113909,1,0,0:0:0:0:
320,192,113909,1,0,0:0:0:0:
64,192,114135,1,0,0:0:0:0:
192,192,114135,1,4,0:0:0:0:
320,192,114360,1,0,0:0:0:0:
448,192,114360,1,0,0:0:0:0:
192,192,114586,1,4,0:0:0:0:
320,192,114586,1,0,0:0:0:0:
64,192,115037,1,0,0:0:0:0:
320,192,115037,1,4,0:0:0:0:
192,192,115263,1,0,0:0:0:0:
192,192,115488,1,0,0:0:0:0:
448,192,115488,1,4,0:0:0:0:
320,192,115714,1,0,0:0:0:0:
192,192,115939,1,4,0:0:0:0:
320,192,115939,1,0,0:0:0:0:
320,192,116165,1,0,0:0:0:0:
64,192,116390,1,4,0:0:0:0:
448,192,116390,1,0,0:0:0:0:
192,192,116842,1,4,0:0:0:0:
448,192,116842,1,0,0:0:0:0:
320,192,117067,1,0,0:0:0:0:
192,192,117293,1,4,0:0:0:0:
448,192,117293,1,0,0:0:0:0:
320,192,117518,1,0,0:0:0:0:
192,192,117744,1,4,0:0:0:0:
320,192,117744,1,0,0:0:0:0:
192,192,117969,1,0,0:0:0:0:
64,192,118195,1,4,0:0:0:0:
320,192,118195,1,0,0:0:0:0:
192,192,119097,1,0,0:0:0:0:
448,192,119097,1,4,0:0:0:0:
64,192,119323,1,0,0:0:0:0:
320,192,119323,1,0,0:0:0:0:
320,192,119548,1,0,0:0:0:0:
448,192,119548,1,4,0:0:0:0:
64,192,119774,1,0,0:0:0:0:
192,192,119774,1,0,0:0:0:0:
192,192,119999,1,4,0:0:0:0:
320,192,119999,1,0,0:0:0:0:
64,192,120225,1,0,0:0:0:0:
192,192,120225,1,0,0:0:0:0:
192,192,120451,1,0,0:0:0:0:
320,192,120451,1,4,0:0:0:0:
320,192,120676,1,0,0:0:0:0:
448,192,120676,1,0,0:0:0:0:
192,192,120902,1,4,0:0:0:0:
448,192,120902,1,0,0:0:0:0:
64,192,121127,1,0,0:0:0:0:
320,192,121127,1,0,0:0:0:0:
64,192,121353,1,0,0:0:0:0:
192,192,121353,1,4,0:0:0:0:
192,192,121578,1,0,0:0:0:0:
320,192,121578,1,0,0:0:0:0:
192,192,121804,1,4,0:0:0:0:
320,192,121804,1,0,0:0:0:0:
64,192,122255,1,0,0:0:0:0:
192,192,122255,1,4,0:0:0:0:
192,192,122481,1,0,0:0:0:0:
320,192,122481,1,4,0:0:0:0:
64,192,122706,1,4,0:0:0:0:
320,192,122706,1,4,0:0:0:0:
192,192,122819,1,0,0:0:0:0:
320,192,122932,1,0,0:0:0:0:
448,192,123045,1,0,0:0:0:0:
64,192,123157,1,8,0:0:0:0:
192,192,123157,1,0,0:0:0:0:
320,192,123157,1,0,0:0:0:0:
448,192,123270,1,0,0:0:0:0:
320,192,123383,1,0,0:0:0:0:
192,192,123496,1,0,0:0:0:0:
64,192,123609,1,4,0:0:0:0:
448,192,123609,1,0,0:0:0:0:
320,192,123721,1,0,0:0:0:0:
192,192,123834,1,0,0:0:0:0:
320,192,123947,1,0,0:0:0:0:
192,192,124060,1,0,0:0:0:0:
64,192,124060,1,8,0:0:0:0:
448,192,124060,1,0,0:0:0:0:
320,192,124172,1,0,0:0:0:0:
192,192,124285,1,0,0:0:0:0:
64,192,124398,1,0,0:0:0:0:
192,192,124511,1,0,0:0:0:0:
448,192,124511,1,4,0:0:0:0:
320,192,124624,1,0,0:0:0:0:
192,192,124736,1,0,0:0:0:0:
64,192,124849,1,0,0:0:0:0:
192,192,124962,1,0,0:0:0:0:
320,192,124962,1,0,0:0:0:0:
448,192,124962,1,8,0:0:0:0:
64,192,125075,1,0,0:0:0:0:
192,192,125187,1,0,0:0:0:0:
320,192,125300,1,0,0:0:0:0:
192,192,125413,1,0,0:0:0:0:
448,192,125413,1,4,0:0:0:0:
64,192,125639,1,0,0:0:0:0:
320,192,125639,1,0,0:0:0:0:
192,192,125864,1,0,0:0:0:0:
320,192,125864,1,0,0:0:0:0:
448,192,125864,1,8,0:0:0:0:
320,192,126090,1,0,0:0:0:0:
64,192,126090,1,0,0:0:0:0:
64,192,126315,1,4,0:0:0:0:
448,192,126315,1,0,0:0:0:0:
320,192,126428,1,0,0:0:0:0:
192,192,126541,1,0,0:0:0:0:
320,192,126654,1,0,0:0:0:0:
64,192,126766,1,8,0:0:0:0:
448,192,126766,1,0,0:0:0:0:
192,192,126766,1,0,0:0:0:0:
320,192,126879,1,0,0:0:0:0:
192,192,126992,1,0,0:0:0:0:
64,192,127105,1,0,0:0:0:0:
192,192,127218,1,0,0:0:0:0:
448,192,127218,1,4,0:0:0:0:
320,192,127330,1,0,0:0:0:0:
192,192,127443,1,0,0:0:0:0:
64,192,127556,1,0,0:0:0:0:
192,192,127669,1,0,0:0:0:0:
320,192,127669,1,0,0:0:0:0:
448,192,127669,1,8,0:0:0:0:
64,192,127781,1,0,0:0:0:0:
192,192,127894,1,0,0:0:0:0:
320,192,128007,1,0,0:0:0:0:
192,192,128120,128,0,128571:0:0:0:0:
64,192,128120,1,4,0:0:0:0:
448,192,128120,1,0,0:0:0:0:
448,192,128571,128,0,129022:0:0:0:0:
64,192,128571,1,4,0:0:0:0:
320,192,128571,1,0,0:0:0:0:
320,192,129022,128,0,129473:0:0:0:0:
64,192,129022,1,4,0:0:0:0:
192,192,129022,1,0,0:0:0:0:
64,192,129473,128,0,129924:0:0:0:0:
192,192,129473,1,4,0:0:0:0:
448,192,129473,1,0,0:0:0:0:
448,192,129924,1,4,0:0:0:0:
320,192,129924,128,0,130601:0:0:0:0:
64,192,130601,1,0,0:0:0:0:
192,192,130714,1,0,0:0:0:0:
64,192,130827,1,4,0:0:0:0:
448,192,130827,1,0,0:0:0:0:
320,192,130827,1,0,0:0:0:0:
320,192,131165,1,4,0:0:0:0:
448,192,131165,1,0,0:0:0:0:
64,192,131278,1,4,0:0:0:0:
320,192,131278,1,0,0:0:0:0:
448,192,131278,1,0,0:0:0:0:
192,192,131503,1,0,0:0:0:0:
448,192,131503,1,0,0:0:0:0:
64,192,131503,1,4,0:0:0:0:
192,192,131729,128,0,132180:0:0:0:0:
320,192,131729,1,0,0:0:0:0:
448,192,131729,1,0,0:0:0:0:
64,192,131729,1,4,0:0:0:0:
448,192,132180,128,0,132631:0:0:0:0:
320,192,132631,1,0,0:0:0:0:
192,192,132744,1,4,0:0:0:0:
64,192,132744,1,0,0:0:0:0:
448,192,132857,1,4,0:0:0:0:
192,192,132857,1,0,0:0:0:0:
64,192,132857,1,0,0:0:0:0:
320,192,133082,1,0,0:0:0:0:
64,192,133082,1,0,0:0:0:0:
448,192,133082,1,4,0:0:0:0:
192,192,133308,1,0,0:0:0:0:
448,192,133308,1,4,0:0:0:0:
64,192,133308,1,0,0:0:0:0:
448,192,133533,1,4,0:0:0:0:
64,192,133533,1,2,0:0:0:0:
320,192,133646,1,4,0:0:0:0:
192,192,133759,1,4,0:0:0:0:
64,192,133872,1,4,0:0:0:0:
192,192,133984,1,4,0:0:0:0:
320,192,134097,1,4,0:0:0:0:
448,192,134210,1,4,0:0:0:0:
320,192,134266,1,4,0:0:0:0:
192,192,134323,1,4,0:0:0:0:
64,192,134379,1,4,0:0:0:0:
320,192,134436,1,0,0:0:0:0:
448,192,134436,1,6,0:0:0:0:
192,192,134548,1,4,0:0:0:0:
64,192,134661,1,4,0:0:0:0:
192,192,134774,1,4,0:0:0:0:
320,192,134887,1,4,0:0:0:0:
448,192,134999,1,4,0:0:0:0:
64,192,135112,1,4,0:0:0:0:
192,192,135169,1,4,0:0:0:0:
320,192,135225,1,4,0:0:0:0:
448,192,135281,1,4,0:0:0:0:
64,192,135338,1,6,0:0:0:0:
192,192,135338,1,0,0:0:0:0:
320,192,135451,1,4,0:0:0:0:
448,192,135563,1,4,0:0:0:0:
320,192,135620,1,4,0:0:0:0:
192,192,135676,1,4,0:0:0:0:
64,192,135733,1,4,0:0:0:0:
320,192,135789,1,0,0:0:0:0:
448,192,135789,1,6,0:0:0:0:
192,192,135902,1,4,0:0:0:0:
64,192,136015,1,4,0:0:0:0:
192,192,136071,1,4,0:0:0:0:
320,192,136127,1,4,0:0:0:0:
448,192,136184,1,4,0:0:0:0:
64,192,136240,1,6,0:0:0:0:
192,192,136240,1,0,0:0:0:0:
192,192,136466,1,0,0:0:0:0:
320,192,136466,1,2,0:0:0:0:
448,192,136466,1,0,0:0:0:0:
64,192,136691,1,0,0:0:0:0:
192,192,136691,1,0,0:0:0:0:
320,192,136691,1,2,0:0:0:0:
448,192,136691,1,0,0:0:0:0:
