osu file format v14

[General]
AudioFilename: Qualia.mp3
AudioLeadIn: 0
PreviewTime: 108045
Countdown: 0
SampleSet: Soft
StackLeniency: 0.7
Mode: 3
LetterboxInBreaks: 0
SpecialStyle: 0
WidescreenStoryboard: 0

[Editor]
DistanceSpacing: 1.8
BeatDivisor: 4
GridSize: 8
TimelineZoom: 1.9

[Metadata]
Title:Qualia
TitleUnicode:Qualia
Artist:Junk
ArtistUnicode:Junk
Creator:DanSparce
Version:Normal
Source:BMS
Tags:Pharos21 MEGAtive
BeatmapID:569988
BeatmapSetID:247641

[Difficulty]
HPDrainRate:7
CircleSize:4
OverallDifficulty:7
ApproachRate:5
SliderMultiplier:1.4
SliderTickRate:1

[Events]
//Background and Video events
0,0,"BG.png",0,0
//Break Periods
//Storyboard Layer 0 (Background)
//Storyboard Layer 1 (Fail)
//Storyboard Layer 2 (Pass)
//Storyboard Layer 3 (Foreground)
//Storyboard Sound Samples

[TimingPoints]
0,451.127819548872,4,2,1,40,1,0
19849,-100,4,2,1,40,0,1
48721,-100,4,2,1,40,0,0
108270,-100,4,2,1,40,0,1
136691,-100,4,2,1,40,0,0

[HitObjects]
448,192,3609,5,2,0:0:0:0:
64,192,3609,1,2,0:0:0:0:
320,192,3834,1,0,0:0:0:0:
192,192,4060,1,0,0:0:0:0:
64,192,4285,1,0,0:0:0:0:
192,192,4511,1,0,0:0:0:0:
320,192,4962,1,0,0:0:0:0:
448,192,5187,1,0,0:0:0:0:
320,192,5413,1,0,0:0:0:0:
192,192,5639,1,0,0:0:0:0:
64,192,5864,1,0,0:0:0:0:
192,192,6090,1,0,0:0:0:0:
448,192,6315,1,0,0:0:0:0:
448,192,7218,128,0,7894:0:0:0:0:
64,192,7894,1,0,0:0:0:0:
192,192,8007,1,0,0:0:0:0:
320,192,8120,128,0,9022:0:0:0:0:
64,192,9022,128,0,9473:0:0:0:0:
448,192,9473,128,0,9924:0:0:0:0:
192,192,9924,128,0,10150:0:0:0:0:
320,192,10150,128,0,10375:0:0:0:0:
64,192,10375,128,0,10601:0:0:0:0:
192,192,10601,128,0,10827:0:0:0:0:
448,192,10827,1,0,0:0:0:0:
320,192,11052,1,0,0:0:0:0:
192,192,11278,1,8,0:0:0:0:
64,192,11503,1,0,0:0:0:0:
192,192,11729,1,0,0:0:0:0:
320,192,12180,1,8,0:0:0:0:
448,192,12406,1,0,0:0:0:0:
320,192,12631,1,0,0:0:0:0:
192,192,12857,1,0,0:0:0:0:
64,192,13082,1,8,0:0:0:0:
192,192,13308,1,0,0:0:0:0:
448,192,13533,1,0,0:0:0:0:
320,192,13984,1,8,0:0:0:0:
448,192,14436,128,0,15112:0:0:0:0:
64,192,14436,1,0,0:0:0:0:
320,192,14887,1,8,0:0:0:0:
64,192,15112,1,0,0:0:0:0:
192,192,15225,1,0,0:0:0:0:
320,192,15338,128,0,16240:0:0:0:0:
448,192,15338,1,0,0:0:0:0:
192,192,15789,1,8,0:0:0:0:
64,192,16240,128,0,16691:0:0:0:0:
448,192,16240,1,0,0:0:0:0:
192,192,16691,128,0,17142:0:0:0:0:
320,192,16691,1,8,0:0:0:0:
448,192,17142,1,0,0:0:0:0:
320,192,17142,128,0,18045:0:0:0:0:
192,192,17593,1,8,0:0:0:0:
64,192,18045,1,2,0:0:0:0:
448,192,18045,1,2,0:0:0:0:
192,192,18157,1,2,0:0:0:0:
320,192,18270,1,2,0:0:0:0:
448,192,18496,1,2,0:0:0:0:
64,192,18721,1,2,0:0:0:0:
320,192,18834,1,2,0:0:0:0:
192,192,19060,1,2,0:0:0:0:
448,192,19172,1,2,0:0:0:0:
64,192,19285,1,2,0:0:0:0:
192,192,19398,1,10,0:0:0:0:
320,192,19398,1,10,0:0:0:0:
448,192,19849,1,2,0:0:0:0:
192,192,19849,1,2,0:0:0:0:
320,192,20075,1,0,0:0:0:0:
192,192,20300,1,0,0:0:0:0:
64,192,20300,1,2,0:0:0:0:
320,192,20526,1,0,0:0:0:0:
448,192,20751,1,0,0:0:0:0:
64,192,20751,1,2,0:0:0:0:
192,192,20977,1,0,0:0:0:0:
64,192,21203,1,2,0:0:0:0:
320,192,21203,1,0,0:0:0:0:
448,192,21428,1,0,0:0:0:0:
64,192,21654,1,2,0:0:0:0:
320,192,21654,1,0,0:0:0:0:
192,192,21879,1,0,0:0:0:0:
448,192,22105,1,0,0:0:0:0:
64,192,22105,1,2,0:0:0:0:
320,192,22330,1,0,0:0:0:0:
448,192,22556,1,2,0:0:0:0:
64,192,22556,128,0,23458:0:0:0:0:
192,192,22781,1,0,0:0:0:0:
320,192,23007,1,2,0:0:0:0:
192,192,23233,1,0,0:0:0:0:
320,192,23458,1,2,0:0:0:0:
448,192,23458,1,0,0:0:0:0:
192,192,23684,1,0,0:0:0:0:
64,192,23909,1,2,0:0:0:0:
320,192,23909,1,0,0:0:0:0:
448,192,24135,1,0,0:0:0:0:
192,192,24360,1,0,0:0:0:0:
64,192,24360,1,2,0:0:0:0:
448,192,24586,1,0,0:0:0:0:
320,192,24812,1,0,0:0:0:0:
64,192,24812,1,2,0:0:0:0:
192,192,25037,1,0,0:0:0:0:
320,192,25263,1,2,0:0:0:0:
448,192,25263,1,0,0:0:0:0:
64,192,25488,1,0,0:0:0:0:
192,192,25714,1,2,0:0:0:0:
320,192,25714,1,0,0:0:0:0:
64,192,25939,1,0,0:0:0:0:
448,192,26165,1,2,0:0:0:0:
192,192,26165,128,0,27067:0:0:0:0:
320,192,26390,1,0,0:0:0:0:
64,192,26616,1,2,0:0:0:0:
448,192,26616,1,0,0:0:0:0:
320,192,26842,1,0,0:0:0:0:
64,192,27067,1,2,0:0:0:0:
448,192,27067,1,0,0:0:0:0:
320,192,27293,1,0,0:0:0:0:
192,192,27518,1,2,0:0:0:0:
448,192,27518,1,0,0:0:0:0:
320,192,27744,1,0,0:0:0:0:
192,192,27969,1,0,0:0:0:0:
64,192,27969,1,2,0:0:0:0:
320,192,28195,1,0,0:0:0:0:
64,192,28421,1,2,0:0:0:0:
192,192,28421,1,0,0:0:0:0:
448,192,28646,1,0,0:0:0:0:
192,192,28872,1,2,0:0:0:0:
320,192,28872,1,0,0:0:0:0:
448,192,29097,1,0,0:0:0:0:
320,192,29323,1,0,0:0:0:0:
64,192,29323,1,2,0:0:0:0:
448,192,29548,1,0,0:0:0:0:
64,192,29774,1,2,0:0:0:0:
320,192,29774,128,0,30676:0:0:0:0:
192,192,29999,1,0,0:0:0:0:
448,192,30225,1,2,0:0:0:0:
64,192,30451,1,0,0:0:0:0:
448,192,30676,1,0,0:0:0:0:
192,192,30676,1,2,0:0:0:0:
64,192,30902,1,0,0:0:0:0:
320,192,31127,1,2,0:0:0:0:
192,192,31353,1,0,0:0:0:0:
320,192,31578,1,0,0:0:0:0:
64,192,31578,1,2,0:0:0:0:
192,192,31804,1,0,0:0:0:0:
448,192,32030,1,0,0:0:0:0:
64,192,32030,1,2,0:0:0:0:
320,192,32255,1,0,0:0:0:0:
192,192,32481,1,0,0:0:0:0:
64,192,32481,1,2,0:0:0:0:
448,192,32706,1,0,0:0:0:0:
320,192,32932,1,0,0:0:0:0:
64,192,32932,1,2,0:0:0:0:
192,192,33157,1,0,0:0:0:0:
64,192,33383,1,2,0:0:0:0:
448,192,33383,128,0,34285:0:0:0:0:
320,192,33609,1,0,0:0:0:0:
192,192,33834,1,0,0:0:0:0:
64,192,33834,1,2,0:0:0:0:
320,192,34060,1,2,0:0:0:0:
192,192,34285,1,2,0:0:0:0:
64,192,34285,1,2,0:0:0:0:
448,192,34511,1,0,0:0:0:0:
64,192,34736,1,2,0:0:0:0:
192,192,34736,1,8,0:0:0:0:
320,192,34962,1,0,0:0:0:0:
192,192,35075,1,0,0:0:0:0:
448,192,35187,1,2,0:0:0:0:
64,192,35187,1,0,0:0:0:0:
320,192,35413,1,0,0:0:0:0:
192,192,35639,1,8,0:0:0:0:
64,192,35639,1,2,0:0:0:0:
320,192,35864,1,0,0:0:0:0:
192,192,36090,1,2,0:0:0:0:
448,192,36090,1,0,0:0:0:0:
320,192,36315,1,0,0:0:0:0:
448,192,36541,1,8,0:0:0:0:
64,192,36541,1,2,0:0:0:0:
320,192,36766,1,0,0:0:0:0:
448,192,36992,1,2,0:0:0:0:
64,192,36992,128,0,37894:0:0:0:0:
192,192,37218,1,0,0:0:0:0:
320,192,37443,1,10,0:0:0:0:
448,192,37669,1,0,0:0:0:0:
192,192,37894,1,2,0:0:0:0:
320,192,37894,1,0,0:0:0:0:
64,192,38120,1,0,0:0:0:0:
320,192,38345,1,2,0:0:0:0:
448,192,38345,1,8,0:0:0:0:
192,192,38571,1,0,0:0:0:0:
64,192,38796,1,2,0:0:0:0:
320,192,38796,1,0,0:0:0:0:
192,192,39022,1,0,0:0:0:0:
320,192,39248,1,8,0:0:0:0:
448,192,39248,1,2,0:0:0:0:
192,192,39473,1,0,0:0:0:0:
64,192,39699,1,2,0:0:0:0:
448,192,39699,1,0,0:0:0:0:
192,192,39924,1,0,0:0:0:0:
448,192,40150,1,8,0:0:0:0:
64,192,40150,1,2,0:0:0:0:
320,192,40375,1,0,0:0:0:0:
64,192,40601,1,2,0:0:0:0:
192,192,40601,128,0,41503:0:0:0:0:
320,192,40827,1,0,0:0:0:0:
448,192,41052,1,10,0:0:0:0:
320,192,41278,1,0,0:0:0:0:
448,192,41503,1,2,0:0:0:0:
64,192,41503,1,0,0:0:0:0:
192,192,41729,1,0,0:0:0:0:
320,192,41954,1,2,0:0:0:0:
448,192,41954,1,8,0:0:0:0:
192,192,42180,1,0,0:0:0:0:
320,192,42293,1,0,0:0:0:0:
64,192,42406,1,2,0:0:0:0:
448,192,42406,1,0,0:0:0:0:
192,192,42631,1,0,0:0:0:0:
320,192,42857,1,2,0:0:0:0:
448,192,42857,1,8,0:0:0:0:
192,192,43082,1,0,0:0:0:0:
320,192,43308,1,2,0:0:0:0:
64,192,43308,1,0,0:0:0:0:
448,192,43533,1,0,0:0:0:0:
192,192,43759,1,8,0:0:0:0:
64,192,43759,1,2,0:0:0:0:
448,192,43984,1,0,0:0:0:0:
64,192,44210,1,2,0:0:0:0:
320,192,44210,128,0,45112:0:0:0:0:
192,192,44436,1,0,0:0:0:0:
448,192,44661,1,10,0:0:0:0:
192,192,44887,1,0,0:0:0:0:
64,192,45112,1,2,0:0:0:0:
448,192,45112,1,0,0:0:0:0:
192,192,45338,1,0,0:0:0:0:
320,192,45563,1,2,0:0:0:0:
448,192,45563,1,8,0:0:0:0:
192,192,45789,1,0,0:0:0:0:
64,192,46015,1,2,0:0:0:0:
320,192,46015,1,0,0:0:0:0:
192,192,46240,1,0,0:0:0:0:
64,192,46466,1,2,0:0:0:0:
448,192,46466,1,8,0:0:0:0:
320,192,46691,1,0,0:0:0:0:
192,192,46917,1,2,0:0:0:0:
448,192,46917,1,0,0:0:0:0:
64,192,47142,1,0,0:0:0:0:
448,192,47368,1,8,0:0:0:0:
192,192,47368,1,2,0:0:0:0:
320,192,47593,1,0,0:0:0:0:
64,192,47819,1,2,0:0:0:0:
448,192,47819,128,0,48721:0:0:0:0:
192,192,48045,1,0,0:0:0:0:
320,192,48270,1,10,0:0:0:0:
192,192,48496,1,0,0:0:0:0:
320,192,48721,1,2,0:0:0:0:
64,192,48721,1,2,0:0:0:0:
448,192,48947,1,0,0:0:0:0:
192,192,49172,1,8,0:0:0:0:
64,192,49172,1,2,0:0:0:0:
448,192,49398,1,0,0:0:0:0:
192,192,49511,1,0,0:0:0:0:
320,192,49624,1,2,0:0:0:0:
64,192,49736,1,0,0:0:0:0:
320,192,49962,1,0,0:0:0:0:
64,192,50075,1,8,0:0:0:0:
192,192,50075,1,2,0:0:0:0:
448,192,50300,128,0,50526:0:0:0:0:
64,192,50526,1,2,0:0:0:0:
192,192,50751,1,0,0:0:0:0:
448,192,50977,1,8,0:0:0:0:
320,192,50977,1,2,0:0:0:0:
64,192,51203,1,0,0:0:0:0:
320,192,51315,1,0,0:0:0:0:
192,192,51428,1,2,0:0:0:0:
448,192,51541,1,0,0:0:0:0:
192,192,51766,1,0,0:0:0:0:
448,192,51879,1,8,0:0:0:0:
320,192,51879,1,2,0:0:0:0:
64,192,52105,128,0,52330:0:0:0:0:
192,192,52330,1,2,0:0:0:0:
320,192,52556,1,0,0:0:0:0:
64,192,52781,1,2,0:0:0:0:
448,192,52781,1,8,0:0:0:0:
320,192,53007,1,0,0:0:0:0:
192,192,53120,1,0,0:0:0:0:
64,192,53233,1,2,0:0:0:0:
192,192,53345,1,0,0:0:0:0:
320,192,53571,1,0,0:0:0:0:
64,192,53684,1,2,0:0:0:0:
448,192,53684,1,8,0:0:0:0:
320,192,53909,128,0,54135:0:0:0:0:
448,192,54135,1,2,0:0:0:0:
320,192,54360,1,0,0:0:0:0:
64,192,54586,1,2,0:0:0:0:
448,192,54586,1,8,0:0:0:0:
320,192,54699,1,0,0:0:0:0:
192,192,54812,1,0,0:0:0:0:
64,192,54924,1,0,0:0:0:0:
448,192,55037,1,2,0:0:0:0:
320,192,55150,1,0,0:0:0:0:
192,192,55263,1,0,0:0:0:0:
320,192,55488,1,2,0:0:0:0:
448,192,55488,1,8,0:0:0:0:
192,192,55714,128,0,55939:0:0:0:0:
64,192,55939,1,2,0:0:0:0:
448,192,55939,1,2,0:0:0:0:
320,192,56165,1,0,0:0:0:0:
64,192,56390,1,2,0:0:0:0:
448,192,56390,1,8,0:0:0:0:
192,192,56616,1,0,0:0:0:0:
320,192,56729,1,0,0:0:0:0:
448,192,56842,1,2,0:0:0:0:
320,192,56954,1,0,0:0:0:0:
192,192,57180,1,0,0:0:0:0:
64,192,57293,1,2,0:0:0:0:
448,192,57293,1,8,0:0:0:0:
192,192,57518,128,0,57744:0:0:0:0:
64,192,57744,1,2,0:0:0:0:
192,192,57969,1,0,0:0:0:0:
448,192,58195,1,8,0:0:0:0:
64,192,58195,1,2,0:0:0:0:
320,192,58421,1,0,0:0:0:0:
192,192,58533,1,0,0:0:0:0:
64,192,58646,1,2,0:0:0:0:
192,192,58759,1,0,0:0:0:0:
320,192,58984,1,0,0:0:0:0:
448,192,59097,1,8,0:0:0:0:
64,192,59097,1,2,0:0:0:0:
320,192,59323,128,0,59548:0:0:0:0:
448,192,59548,1,2,0:0:0:0:
320,192,59774,1,0,0:0:0:0:
64,192,59999,1,2,0:0:0:0:
192,192,59999,1,8,0:0:0:0:
448,192,60225,1,0,0:0:0:0:
320,192,60338,1,0,0:0:0:0:
192,192,60451,1,2,0:0:0:0:
64,192,60563,1,0,0:0:0:0:
192,192,60789,1,0,0:0:0:0:
320,192,60902,1,2,0:0:0:0:
448,192,60902,1,8,0:0:0:0:
64,192,61127,128,0,61353:0:0:0:0:
320,192,61353,1,2,0:0:0:0:
192,192,61578,1,0,0:0:0:0:
64,192,61804,1,2,0:0:0:0:
448,192,61804,1,8,0:0:0:0:
192,192,61917,1,0,0:0:0:0:
320,192,62030,1,0,0:0:0:0:
448,192,62142,1,0,0:0:0:0:
320,192,62255,1,2,0:0:0:0:
192,192,62368,1,0,0:0:0:0:
64,192,62481,1,0,0:0:0:0:
192,192,62593,1,0,0:0:0:0:
320,192,62706,1,2,0:0:0:0:
448,192,62706,1,10,0:0:0:0:
192,192,62819,1,2,0:0:0:0:
64,192,62819,1,2,0:0:0:0:
320,192,62932,1,2,0:0:0:0:
448,192,62932,1,2,0:0:0:0:
448,192,63157,128,2,63609:0:0:0:0:
192,192,63157,1,2,0:0:0:0:
64,192,63383,1,0,0:0:0:0:
192,192,63609,1,10,0:0:0:0:
320,192,63834,1,2,0:0:0:0:
192,192,64060,128,0,64511:0:0:0:0:
448,192,64060,1,2,0:0:0:0:
320,192,64285,1,0,0:0:0:0:
64,192,64511,1,10,0:0:0:0:
448,192,64736,1,0,0:0:0:0:
320,192,64962,128,0,65413:0:0:0:0:
64,192,64962,1,2,0:0:0:0:
192,192,65187,1,0,0:0:0:0:
448,192,65413,1,10,0:0:0:0:
320,192,65526,1,2,0:0:0:0:
192,192,65639,1,2,0:0:0:0:
64,192,65864,128,0,66315:0:0:0:0:
320,192,65864,1,2,0:0:0:0:
448,192,66090,1,0,0:0:0:0:
320,192,66315,1,10,0:0:0:0:
192,192,66541,1,0,0:0:0:0:
448,192,66766,128,0,67218:0:0:0:0:
64,192,66766,1,2,0:0:0:0:
192,192,66992,1,0,0:0:0:0:
320,192,67218,1,10,0:0:0:0:
192,192,67443,1,2,0:0:0:0:
320,192,67669,128,0,68120:0:0:0:0:
64,192,67669,1,2,0:0:0:0:
192,192,67894,1,0,0:0:0:0:
448,192,68120,1,10,0:0:0:0:
320,192,68345,1,0,0:0:0:0:
192,192,68571,128,0,69022:0:0:0:0:
64,192,68571,1,2,0:0:0:0:
320,192,68796,1,0,0:0:0:0:
448,192,69022,1,10,0:0:0:0:
320,192,69135,1,2,0:0:0:0:
192,192,69248,1,2,0:0:0:0:
64,192,69473,128,0,69924:0:0:0:0:
448,192,69473,1,2,0:0:0:0:
192,192,69699,1,0,0:0:0:0:
448,192,69924,1,10,0:0:0:0:
320,192,70037,1,0,0:0:0:0:
192,192,70150,1,2,0:0:0:0:
64,192,70263,1,0,0:0:0:0:
448,192,70375,128,2,70827:0:0:0:0:
192,192,70375,1,2,0:0:0:0:
320,192,70601,1,0,0:0:0:0:
64,192,70827,1,10,0:0:0:0:
192,192,71052,1,2,0:0:0:0:
320,192,71278,128,0,71729:0:0:0:0:
64,192,71278,1,2,0:0:0:0:
448,192,71503,1,0,0:0:0:0:
64,192,71729,1,10,0:0:0:0:
448,192,71954,1,0,0:0:0:0:
64,192,72180,128,0,72631:0:0:0:0:
192,192,72180,1,2,0:0:0:0:
448,192,72406,1,0,0:0:0:0:
192,192,72631,1,10,0:0:0:0:
320,192,72744,1,2,0:0:0:0:
448,192,72857,1,2,0:0:0:0:
192,192,73082,128,0,73533:0:0:0:0:
320,192,73082,1,2,0:0:0:0:
64,192,73308,1,0,0:0:0:0:
448,192,73533,1,10,0:0:0:0:
320,192,73759,1,0,0:0:0:0:
448,192,73984,128,2,74436:0:0:0:0:
64,192,73984,1,2,0:0:0:0:
192,192,74210,1,0,0:0:0:0:
320,192,74436,1,10,0:0:0:0:
448,192,74661,1,2,0:0:0:0:
320,192,74887,128,0,75338:0:0:0:0:
64,192,74887,1,2,0:0:0:0:
448,192,75112,1,0,0:0:0:0:
192,192,75338,1,10,0:0:0:0:
320,192,75563,1,0,0:0:0:0:
192,192,75789,1,2,0:0:0:0:
64,192,75789,1,2,0:0:0:0:
320,192,76240,1,10,0:0:0:0:
448,192,76240,1,10,0:0:0:0:
448,192,76691,1,2,0:0:0:0:
64,192,76691,1,2,0:0:0:0:
320,192,76804,1,2,0:0:0:0:
192,192,77030,1,2,0:0:0:0:
320,192,77368,1,2,0:0:0:0:
448,192,77593,128,2,78045:0:0:0:0:
64,192,77593,1,2,0:0:0:0:
320,192,77819,1,0,0:0:0:0:
192,192,78045,1,10,0:0:0:0:
448,192,78270,1,2,0:0:0:0:
192,192,78496,128,0,78947:0:0:0:0:
64,192,78496,1,2,0:0:0:0:
320,192,78721,1,0,0:0:0:0:
448,192,78947,1,10,0:0:0:0:
192,192,79172,1,0,0:0:0:0:
320,192,79398,128,0,79849:0:0:0:0:
64,192,79398,1,2,0:0:0:0:
192,192,79624,1,0,0:0:0:0:
448,192,79849,1,10,0:0:0:0:
192,192,80075,1,2,0:0:0:0:
64,192,80300,128,0,80751:0:0:0:0:
320,192,80300,1,2,0:0:0:0:
448,192,80526,1,0,0:0:0:0:
320,192,80751,1,10,0:0:0:0:
192,192,80977,1,0,0:0:0:0:
448,192,81203,128,0,81654:0:0:0:0:
64,192,81203,1,2,0:0:0:0:
320,192,81428,1,0,0:0:0:0:
192,192,81654,1,10,0:0:0:0:
64,192,81879,1,2,0:0:0:0:
320,192,82105,128,0,82556:0:0:0:0:
448,192,82105,1,2,0:0:0:0:
192,192,82330,1,0,0:0:0:0:
64,192,82556,1,10,0:0:0:0:
192,192,82781,1,0,0:0:0:0:
64,192,83007,128,0,83458:0:0:0:0:
320,192,83007,1,2,0:0:0:0:
192,192,83233,1,0,0:0:0:0:
320,192,83458,1,10,0:0:0:0:
448,192,83684,1,2,0:0:0:0:
192,192,83909,128,0,84360:0:0:0:0:
64,192,83909,1,2,0:0:0:0:
448,192,84135,1,0,0:0:0:0:
320,192,84360,1,10,0:0:0:0:
64,192,84473,1,2,0:0:0:0:
320,192,84586,1,2,0:0:0:0:
192,192,84699,1,2,0:0:0:0:
448,192,84812,128,2,85263:0:0:0:0:
64,192,84812,1,2,0:0:0:0:
320,192,85037,1,0,0:0:0:0:
64,192,85263,1,10,0:0:0:0:
192,192,85488,1,2,0:0:0:0:
320,192,85714,128,0,86165:0:0:0:0:
64,192,85714,1,2,0:0:0:0:
448,192,85939,1,0,0:0:0:0:
192,192,86165,1,10,0:0:0:0:
320,192,86390,1,0,0:0:0:0:
64,192,86616,128,0,87067:0:0:0:0:
192,192,86616,1,2,0:0:0:0:
320,192,86842,1,0,0:0:0:0:
448,192,87067,1,10,0:0:0:0:
320,192,87293,1,2,0:0:0:0:
192,192,87518,128,0,87969:0:0:0:0:
64,192,87518,1,2,0:0:0:0:
320,192,87744,1,0,0:0:0:0:
448,192,87969,1,10,0:0:0:0:
320,192,88195,1,0,0:0:0:0:
64,192,88421,128,2,88872:0:0:0:0:
192,192,88421,1,2,0:0:0:0:
320,192,88646,1,0,0:0:0:0:
448,192,88872,1,10,0:0:0:0:
320,192,89097,1,2,0:0:0:0:
192,192,89323,128,0,89774:0:0:0:0:
64,192,89323,1,2,0:0:0:0:
320,192,89548,1,0,0:0:0:0:
448,192,89774,1,10,0:0:0:0:
320,192,89999,1,2,0:0:0:0:
64,192,90225,1,2,0:0:0:0:
448,192,90225,1,2,0:0:0:0:
192,192,90676,1,10,0:0:0:0:
320,192,90676,1,10,0:0:0:0:
192,192,91127,1,2,0:0:0:0:
64,192,91127,1,2,0:0:0:0:
320,192,91278,1,2,0:0:0:0:
448,192,91278,1,2,0:0:0:0:
192,192,91428,1,2,0:0:0:0:
64,192,91428,1,2,0:0:0:0:
448,192,91578,1,10,0:0:0:0:
320,192,91578,1,10,0:0:0:0:
64,192,92030,1,2,0:0:0:0:
448,192,92030,1,2,0:0:0:0:
192,192,92481,1,0,0:0:0:0:
320,192,92481,1,8,0:0:0:0:
64,192,92932,1,0,0:0:0:0:
320,192,93383,1,8,0:0:0:0:
192,192,93383,1,0,0:0:0:0:
448,192,93834,1,0,0:0:0:0:
64,192,94285,1,0,0:0:0:0:
320,192,94285,1,8,0:0:0:0:
448,192,94736,1,0,0:0:0:0:
64,192,95187,1,0,0:0:0:0:
320,192,95187,1,8,0:0:0:0:
192,192,95639,1,0,0:0:0:0:
64,192,96090,1,0,0:0:0:0:
448,192,96090,1,8,0:0:0:0:
192,192,96541,1,0,0:0:0:0:
64,192,96992,1,0,0:0:0:0:
448,192,96992,1,8,0:0:0:0:
320,192,97443,1,0,0:0:0:0:
192,192,97894,1,0,0:0:0:0:
448,192,97894,1,8,0:0:0:0:
320,192,98345,1,0,0:0:0:0:
192,192,98796,1,0,0:0:0:0:
448,192,98796,1,8,0:0:0:0:
64,192,99248,1,0,0:0:0:0:
448,192,99699,1,8,0:0:0:0:
192,192,99699,1,0,0:0:0:0:
64,192,100150,1,0,0:0:0:0:
192,192,100601,1,0,0:0:0:0:
448,192,100601,1,8,0:0:0:0:
320,192,101052,1,0,0:0:0:0:
64,192,101503,1,0,0:0:0:0:
192,192,101503,1,8,0:0:0:0:
320,192,101954,1,0,0:0:0:0:
64,192,102406,1,0,0:0:0:0:
192,192,102406,1,8,0:0:0:0:
448,192,102857,1,0,0:0:0:0:
192,192,103308,1,0,0:0:0:0:
320,192,103308,1,8,0:0:0:0:
448,192,103759,1,0,0:0:0:0:
320,192,104210,1,8,0:0:0:0:
192,192,104210,1,0,0:0:0:0:
448,192,104661,1,0,0:0:0:0:
64,192,105112,1,0,0:0:0:0:
320,192,105112,1,8,0:0:0:0:
448,192,105563,1,0,0:0:0:0:
64,192,106015,1,0,0:0:0:0:
320,192,106015,1,8,0:0:0:0:
448,192,106466,1,2,0:0:0:0:
64,192,106466,1,2,0:0:0:0:
320,192,106578,1,2,0:0:0:0:
192,192,106691,1,2,0:0:0:0:
64,192,106917,1,2,0:0:0:0:
448,192,107142,1,2,0:0:0:0:
192,192,107255,1,2,0:0:0:0:
320,192,107481,1,2,0:0:0:0:
64,192,107593,1,2,0:0:0:0:
448,192,107706,1,2,0:0:0:0:
320,192,107819,1,10,0:0:0:0:
192,192,107819,1,10,0:0:0:0:
64,192,108270,1,2,0:0:0:0:
192,192,108270,1,2,0:0:0:0:
320,192,108496,1,0,0:0:0:0:
448,192,108721,1,0,0:0:0:0:
64,192,108721,1,2,0:0:0:0:
320,192,108947,1,0,0:0:0:0:
192,192,109172,1,2,0:0:0:0:
448,192,109172,1,0,0:0:0:0:
320,192,109398,1,0,0:0:0:0:
64,192,109624,1,2,0:0:0:0:
192,192,109624,1,0,0:0:0:0:
448,192,109849,1,0,0:0:0:0:
64,192,110075,1,2,0:0:0:0:
320,192,110075,1,0,0:0:0:0:
448,192,110300,1,0,0:0:0:0:
192,192,110526,1,0,0:0:0:0:
64,192,110526,1,2,0:0:0:0:
320,192,110751,1,0,0:0:0:0:
448,192,110977,1,2,0:0:0:0:
64,192,110977,128,0,111879:0:0:0:0:
320,192,111203,1,0,0:0:0:0:
192,192,111428,1,2,0:0:0:0:
320,192,111654,1,0,0:0:0:0:
192,192,111879,1,2,0:0:0:0:
448,192,111879,1,0,0:0:0:0:
64,192,112105,1,0,0:0:0:0:
192,192,112330,1,2,0:0:0:0:
320,192,112330,1,0,0:0:0:0:
448,192,112556,1,0,0:0:0:0:
192,192,112781,1,0,0:0:0:0:
64,192,112781,1,2,0:0:0:0:
448,192,113007,1,0,0:0:0:0:
320,192,113233,1,0,0:0:0:0:
64,192,113233,1,2,0:0:0:0:
192,192,113458,1,0,0:0:0:0:
320,192,113684,1,2,0:0:0:0:
448,192,113684,1,0,0:0:0:0:
64,192,113909,1,0,0:0:0:0:
192,192,114135,1,2,0:0:0:0:
448,192,114135,1,0,0:0:0:0:
64,192,114360,1,0,0:0:0:0:
448,192,114586,1,2,0:0:0:0:
320,192,114586,128,0,115488:0:0:0:0:
192,192,114812,1,0,0:0:0:0:
448,192,115037,1,0,0:0:0:0:
64,192,115037,1,2,0:0:0:0:
192,192,115263,1,0,0:0:0:0:
64,192,115488,1,2,0:0:0:0:
448,192,115488,1,0,0:0:0:0:
320,192,115714,1,0,0:0:0:0:
192,192,115939,1,0,0:0:0:0:
64,192,115939,1,2,0:0:0:0:
320,192,116165,1,0,0:0:0:0:
64,192,116390,1,2,0:0:0:0:
448,192,116390,1,0,0:0:0:0:
320,192,116616,1,0,0:0:0:0:
192,192,116842,1,0,0:0:0:0:
64,192,116842,1,2,0:0:0:0:
448,192,117067,1,0,0:0:0:0:
192,192,117293,1,2,0:0:0:0:
320,192,117293,1,0,0:0:0:0:
448,192,117518,1,0,0:0:0:0:
320,192,117744,1,0,0:0:0:0:
64,192,117744,1,2,0:0:0:0:
448,192,117969,1,0,0:0:0:0:
64,192,118195,1,2,0:0:0:0:
192,192,118195,128,0,119097:0:0:0:0:
320,192,118421,1,0,0:0:0:0:
448,192,118646,1,2,0:0:0:0:
320,192,118872,1,0,0:0:0:0:
448,192,119097,1,0,0:0:0:0:
64,192,119097,1,2,0:0:0:0:
192,192,119323,1,0,0:0:0:0:
64,192,119548,1,2,0:0:0:0:
320,192,119548,1,0,0:0:0:0:
448,192,119774,1,0,0:0:0:0:
320,192,119999,1,0,0:0:0:0:
64,192,119999,1,2,0:0:0:0:
448,192,120225,1,0,0:0:0:0:
64,192,120451,1,2,0:0:0:0:
192,192,120451,1,0,0:0:0:0:
448,192,120676,1,0,0:0:0:0:
320,192,120902,1,0,0:0:0:0:
192,192,120902,1,2,0:0:0:0:
448,192,121127,1,0,0:0:0:0:
320,192,121353,1,0,0:0:0:0:
64,192,121353,1,2,0:0:0:0:
192,192,121578,1,0,0:0:0:0:
320,192,121804,1,2,0:0:0:0:
448,192,121804,128,0,122706:0:0:0:0:
64,192,122030,1,0,0:0:0:0:
320,192,122255,1,0,0:0:0:0:
192,192,122255,1,2,0:0:0:0:
64,192,122481,1,2,0:0:0:0:
320,192,122706,1,2,0:0:0:0:
192,192,122706,1,2,0:0:0:0:
448,192,122932,1,0,0:0:0:0:
192,192,123157,1,8,0:0:0:0:
64,192,123157,1,2,0:0:0:0:
448,192,123383,1,0,0:0:0:0:
320,192,123496,1,0,0:0:0:0:
64,192,123609,1,2,0:0:0:0:
192,192,123609,1,0,0:0:0:0:
320,192,123834,1,0,0:0:0:0:
448,192,124060,1,8,0:0:0:0:
192,192,124060,1,2,0:0:0:0:
320,192,124285,1,0,0:0:0:0:
64,192,124511,1,2,0:0:0:0:
448,192,124511,1,0,0:0:0:0:
192,192,124736,1,0,0:0:0:0:
448,192,124962,1,8,0:0:0:0:
320,192,124962,1,2,0:0:0:0:
192,192,125187,1,0,0:0:0:0:
448,192,125413,1,2,0:0:0:0:
64,192,125413,128,0,126315:0:0:0:0:
320,192,125639,1,0,0:0:0:0:
192,192,125864,1,10,0:0:0:0:
320,192,126090,1,0,0:0:0:0:
448,192,126315,1,2,0:0:0:0:
192,192,126315,1,0,0:0:0:0:
320,192,126541,1,0,0:0:0:0:
64,192,126766,1,2,0:0:0:0:
192,192,126766,1,8,0:0:0:0:
448,192,126992,1,0,0:0:0:0:
64,192,127218,1,2,0:0:0:0:
320,192,127218,1,0,0:0:0:0:
448,192,127443,1,0,0:0:0:0:
192,192,127669,1,2,0:0:0:0:
320,192,127669,1,8,0:0:0:0:
448,192,127894,1,0,0:0:0:0:
64,192,128120,1,2,0:0:0:0:
320,192,128120,1,0,0:0:0:0:
192,192,128345,1,0,0:0:0:0:
320,192,128571,1,2,0:0:0:0:
448,192,128571,1,8,0:0:0:0:
64,192,128796,1,0,0:0:0:0:
448,192,129022,1,2,0:0:0:0:
192,192,129022,128,0,129924:0:0:0:0:
64,192,129248,1,0,0:0:0:0:
448,192,129473,1,8,0:0:0:0:
320,192,129473,1,2,0:0:0:0:
64,192,129699,1,0,0:0:0:0:
320,192,129924,1,2,0:0:0:0:
448,192,129924,1,2,0:0:0:0:
192,192,130375,1,8,0:0:0:0:
64,192,130601,1,0,0:0:0:0:
192,192,130714,1,0,0:0:0:0:
448,192,130827,1,2,0:0:0:0:
320,192,130827,1,2,0:0:0:0:
192,192,131165,1,2,0:0:0:0:
64,192,131165,1,2,0:0:0:0:
448,192,131278,1,8,0:0:0:0:
64,192,131503,1,2,0:0:0:0:
320,192,131503,1,2,0:0:0:0:
192,192,131729,1,2,0:0:0:0:
448,192,131729,1,2,0:0:0:0:
320,192,132180,1,8,0:0:0:0:
192,192,132631,1,0,0:0:0:0:
448,192,132744,1,2,0:0:0:0:
64,192,132857,1,2,0:0:0:0:
320,192,132857,1,2,0:0:0:0:
192,192,133082,1,10,0:0:0:0:
448,192,133082,1,2,0:0:0:0:
64,192,133308,1,2,0:0:0:0:
320,192,133308,1,2,0:0:0:0:
192,192,133533,1,2,0:0:0:0:
448,192,133533,1,2,0:0:0:0:
64,192,133759,1,2,0:0:0:0:
192,192,133984,1,10,0:0:0:0:
448,192,134210,1,2,0:0:0:0:
320,192,134323,1,2,0:0:0:0:
64,192,134436,1,2,0:0:0:0:
192,192,134661,1,2,0:0:0:0:
320,192,134887,1,10,0:0:0:0:
448,192,135112,1,2,0:0:0:0:
320,192,135225,1,2,0:0:0:0:
192,192,135338,1,2,0:0:0:0:
320,192,135563,1,2,0:0:0:0:
192,192,135676,1,2,0:0:0:0:
64,192,135789,1,10,0:0:0:0:
448,192,136015,1,2,0:0:0:0:
320,192,136127,1,2,0:0:0:0:
192,192,136240,1,2,0:0:0:0:
64,192,136466,1,2,0:0:0:0:
320,192,136466,1,2,0:0:0:0:
192,192,136691,1,2,0:0:0:0:
448,192,136691,1,2,0:0:0:0:
64,192,136691,1,2,0:0:0:0:
