osu file format v14

[General]
AudioFilename: Qualia.mp3
AudioLeadIn: 0
PreviewTime: 108045
Countdown: 0
SampleSet: Soft
StackLeniency: 0.7
Mode: 3
LetterboxInBreaks: 0
SpecialStyle: 0
WidescreenStoryboard: 0

[Editor]
DistanceSpacing: 1.8
BeatDivisor: 4
GridSize: 8
TimelineZoom: 2.3

[Metadata]
Title:Qualia
TitleUnicode:Qualia
Artist:Junk
ArtistUnicode:Junk
Creator:DanSparce
Version:Another
Source:BMS
Tags:Pharos21 MEGAtive
BeatmapID:569983
BeatmapSetID:247641

[Difficulty]
HPDrainRate:9
CircleSize:4
OverallDifficulty:8
ApproachRate:5
SliderMultiplier:1.4
SliderTickRate:1

[Events]
//Background and Video events
0,0,"BG.png",0,0
//Break Periods
//Storyboard Layer 0 (Background)
//Storyboard Layer 1 (Fail)
//Storyboard Layer 2 (Pass)
//Storyboard Layer 3 (Foreground)
//Storyboard Sound Samples

[TimingPoints]
0,451.127819548872,4,2,1,40,1,0
19398,-33.3333333333333,4,2,1,40,0,0
19454,-133.333333333333,4,2,1,40,0,0
19849,-100,4,2,1,40,0,1
48721,-100,4,2,1,40,0,0
75789,-76.9230769230769,4,2,1,40,0,0
75958,-142.857142857143,4,2,1,40,0,0
76127,-100,4,2,1,40,0,0
76240,-76.9230769230769,4,2,1,40,0,0
76409,-142.857142857143,4,2,1,40,0,0
76578,-100,4,2,1,40,0,0
76804,-76.9230769230769,4,2,1,40,0,0
76917,-142.857142857143,4,2,1,40,0,0
77030,-100,4,2,1,40,0,0
77142,-76.9230769230769,4,2,1,40,0,0
77255,-142.857142857143,4,2,1,40,0,0
77368,-76.9230769230769,4,2,1,40,0,0
77481,-142.857142857143,4,2,1,40,0,0
77593,-100,4,2,1,40,0,0
90225,-76.9230769230769,4,2,1,40,0,0
90394,-142.857142857143,4,2,1,40,0,0
90563,-100,4,2,1,40,0,0
90676,-76.9230769230769,4,2,1,40,0,0
90845,-142.857142857143,4,2,1,40,0,0
91015,-100,4,2,1,40,0,0
91127,-76.9230769230769,4,2,1,40,0,0
91203,-142.857142857143,4,2,1,40,0,0
91278,-68.9655172413793,4,2,1,40,0,0
91353,-181.818181818182,4,2,1,40,0,0
91428,-62.5,4,2,1,40,0,0
91503,-250,4,2,1,40,0,0
91578,-33.3333333333333,4,2,1,40,0,0
91635,-133.333333333333,4,2,1,40,0,0
92028,-100,4,2,1,40,0,0
101052,-96.1538461538461,4,2,1,40,0,0
102857,-92.5925925925926,4,2,1,40,0,0
104661,-89.2857142857143,4,2,1,40,0,0
106466,-100,4,2,1,40,0,0
107820,-33.3333333333333,4,2,1,40,0,0
107875,-133.333333333333,4,2,1,40,0,0
108270,-100,4,2,1,40,0,1
136691,-100,4,2,1,40,0,0

[HitObjects]
320,192,2030,128,0,3609:0:0:0:0:
64,192,3609,1,2,0:0:0:0:
192,192,3609,1,2,0:0:0:0:
448,192,3609,1,2,0:0:0:0:
320,192,3721,1,0,0:0:0:0:
192,192,3834,1,0,0:0:0:0:
448,192,3834,1,0,0:0:0:0:
320,192,3947,1,0,0:0:0:0:
64,192,4060,1,0,0:0:0:0:
192,192,4060,1,0,0:0:0:0:
448,192,4172,1,0,0:0:0:0:
320,192,4285,1,0,0:0:0:0:
192,192,4285,1,0,0:0:0:0:
64,192,4398,1,0,0:0:0:0:
320,192,4511,1,0,0:0:0:0:
448,192,4511,1,0,0:0:0:0:
192,192,4624,1,0,0:0:0:0:
64,192,4736,1,0,0:0:0:0:
320,192,4849,1,0,0:0:0:0:
64,192,4962,1,0,0:0:0:0:
192,192,4962,1,0,0:0:0:0:
320,192,5075,1,0,0:0:0:0:
192,192,5187,1,0,0:0:0:0:
448,192,5187,1,0,0:0:0:0:
64,192,5300,1,0,0:0:0:0:
320,192,5413,1,0,0:0:0:0:
192,192,5413,1,0,0:0:0:0:
64,192,5526,1,0,0:0:0:0:
192,192,5639,1,0,0:0:0:0:
448,192,5639,1,0,0:0:0:0:
320,192,5751,1,0,0:0:0:0:
64,192,5864,1,0,0:0:0:0:
448,192,5864,1,0,0:0:0:0:
192,192,5977,1,0,0:0:0:0:
448,192,6090,1,0,0:0:0:0:
320,192,6090,1,0,0:0:0:0:
192,192,6203,1,0,0:0:0:0:
64,192,6315,128,0,6428:0:0:0:0:
320,192,6315,1,0,0:0:0:0:
192,192,6428,128,0,6541:0:0:0:0:
448,192,6541,128,0,6654:0:0:0:0:
320,192,6654,128,0,6766:0:0:0:0:
64,192,6766,128,0,6879:0:0:0:0:
192,192,6879,128,0,6992:0:0:0:0:
448,192,6992,128,0,7105:0:0:0:0:
320,192,7105,128,0,7218:0:0:0:0:
448,192,7218,128,0,7894:0:0:0:0:
64,192,7218,1,0,0:0:0:0:
192,192,7330,1,0,0:0:0:0:
320,192,7443,1,0,0:0:0:0:
192,192,7556,1,0,0:0:0:0:
64,192,7669,1,0,0:0:0:0:
320,192,7781,1,0,0:0:0:0:
192,192,7894,128,0,8007:0:0:0:0:
64,192,7894,1,0,0:0:0:0:
448,192,8007,1,0,0:0:0:0:
320,192,8007,128,0,8120:0:0:0:0:
192,192,8120,128,0,9022:0:0:0:0:
64,192,8120,1,0,0:0:0:0:
320,192,8233,1,0,0:0:0:0:
448,192,8345,1,0,0:0:0:0:
320,192,8458,1,0,0:0:0:0:
64,192,8571,1,0,0:0:0:0:
448,192,8684,1,0,0:0:0:0:
320,192,8796,1,0,0:0:0:0:
448,192,8909,1,0,0:0:0:0:
64,192,9022,128,0,9473:0:0:0:0:
320,192,9022,1,0,0:0:0:0:
448,192,9135,1,0,0:0:0:0:
320,192,9248,1,0,0:0:0:0:
192,192,9360,1,0,0:0:0:0:
448,192,9473,128,0,9924:0:0:0:0:
320,192,9473,1,0,0:0:0:0:
64,192,9586,1,0,0:0:0:0:
192,192,9699,1,0,0:0:0:0:
64,192,9812,1,0,0:0:0:0:
192,192,9924,128,0,10150:0:0:0:0:
320,192,9924,1,0,0:0:0:0:
64,192,10037,1,0,0:0:0:0:
320,192,10150,128,0,10375:0:0:0:0:
448,192,10150,1,0,0:0:0:0:
192,192,10263,1,0,0:0:0:0:
448,192,10375,1,0,0:0:0:0:
64,192,10375,128,0,10601:0:0:0:0:
320,192,10488,1,0,0:0:0:0:
448,192,10601,1,0,0:0:0:0:
192,192,10601,128,0,10827:0:0:0:0:
64,192,10714,1,0,0:0:0:0:
320,192,10827,1,0,0:0:0:0:
448,192,10827,1,0,0:0:0:0:
64,192,10939,1,0,0:0:0:0:
192,192,11052,1,4,0:0:0:0:
320,192,11052,1,4,0:0:0:0:
448,192,11165,1,0,0:0:0:0:
64,192,11278,1,8,0:0:0:0:
320,192,11278,1,8,0:0:0:0:
448,192,11390,1,0,0:0:0:0:
192,192,11503,1,4,0:0:0:0:
64,192,11503,1,4,0:0:0:0:
448,192,11616,1,0,0:0:0:0:
64,192,11729,1,0,0:0:0:0:
320,192,11729,1,0,0:0:0:0:
448,192,11842,1,0,0:0:0:0:
320,192,11954,1,4,0:0:0:0:
192,192,12067,1,0,0:0:0:0:
64,192,12180,1,8,0:0:0:0:
448,192,12180,1,8,0:0:0:0:
192,192,12293,1,0,0:0:0:0:
320,192,12406,1,4,0:0:0:0:
448,192,12406,1,4,0:0:0:0:
192,192,12518,1,0,0:0:0:0:
320,192,12631,1,0,0:0:0:0:
64,192,12631,1,0,0:0:0:0:
192,192,12744,1,0,0:0:0:0:
64,192,12857,1,4,0:0:0:0:
448,192,12857,1,4,0:0:0:0:
192,192,12969,1,0,0:0:0:0:
64,192,13082,1,8,0:0:0:0:
320,192,13082,1,8,0:0:0:0:
448,192,13195,1,0,0:0:0:0:
192,192,13308,1,4,0:0:0:0:
64,192,13308,1,4,0:0:0:0:
320,192,13421,1,0,0:0:0:0:
448,192,13533,1,0,0:0:0:0:
64,192,13533,128,0,13646:0:0:0:0:
192,192,13646,128,0,13759:0:0:0:0:
448,192,13759,128,4,13872:0:0:0:0:
320,192,13872,128,0,13984:0:0:0:0:
64,192,13984,128,8,14097:0:0:0:0:
448,192,13984,1,8,0:0:0:0:
192,192,14097,128,0,14210:0:0:0:0:
448,192,14210,128,4,14323:0:0:0:0:
320,192,14323,128,0,14436:0:0:0:0:
448,192,14436,128,0,15112:0:0:0:0:
64,192,14436,1,0,0:0:0:0:
192,192,14548,1,0,0:0:0:0:
320,192,14661,1,4,0:0:0:0:
64,192,14774,1,0,0:0:0:0:
192,192,14887,1,8,0:0:0:0:
320,192,14887,1,8,0:0:0:0:
64,192,14999,1,0,0:0:0:0:
192,192,15112,1,4,0:0:0:0:
320,192,15112,128,4,15225:0:0:0:0:
64,192,15225,1,0,0:0:0:0:
448,192,15225,128,0,15338:0:0:0:0:
320,192,15338,1,0,0:0:0:0:
192,192,15338,128,0,16240:0:0:0:0:
64,192,15451,1,0,0:0:0:0:
448,192,15563,1,4,0:0:0:0:
320,192,15676,1,0,0:0:0:0:
448,192,15789,1,8,0:0:0:0:
64,192,15789,1,8,0:0:0:0:
320,192,15902,1,0,0:0:0:0:
64,192,16015,1,4,0:0:0:0:
320,192,16127,1,0,0:0:0:0:
448,192,16240,1,0,0:0:0:0:
64,192,16240,128,0,16691:0:0:0:0:
320,192,16353,1,0,0:0:0:0:
192,192,16466,1,4,0:0:0:0:
448,192,16578,1,0,0:0:0:0:
320,192,16691,128,8,17142:0:0:0:0:
192,192,16691,1,8,0:0:0:0:
448,192,16804,1,0,0:0:0:0:
192,192,16917,1,4,0:0:0:0:
64,192,17030,1,0,0:0:0:0:
192,192,17142,128,0,18045:0:0:0:0:
448,192,17142,1,0,0:0:0:0:
320,192,17255,1,0,0:0:0:0:
64,192,17368,1,4,0:0:0:0:
448,192,17481,1,0,0:0:0:0:
320,192,17593,1,8,0:0:0:0:
64,192,17593,1,8,0:0:0:0:
448,192,17706,1,0,0:0:0:0:
64,192,17819,1,4,0:0:0:0:
448,192,17932,1,0,0:0:0:0:
64,192,18045,1,2,0:0:0:0:
320,192,18045,1,2,0:0:0:0:
192,192,18157,1,2,0:0:0:0:
448,192,18157,1,2,0:0:0:0:
320,192,18270,1,2,0:0:0:0:
448,192,18270,1,2,0:0:0:0:
192,192,18496,1,2,0:0:0:0:
64,192,18496,1,2,0:0:0:0:
64,192,18721,1,2,0:0:0:0:
320,192,18721,1,2,0:0:0:0:
192,192,18834,1,2,0:0:0:0:
448,192,18834,1,2,0:0:0:0:
64,192,19060,1,2,0:0:0:0:
192,192,19060,1,2,0:0:0:0:
320,192,19172,1,2,0:0:0:0:
448,192,19172,1,2,0:0:0:0:
64,192,19285,1,2,0:0:0:0:
192,192,19285,1,2,0:0:0:0:
64,192,19398,1,10,0:0:0:0:
320,192,19398,1,10,0:0:0:0:
448,192,19398,1,10,0:0:0:0:
448,192,19849,1,2,0:0:0:0:
192,192,19849,1,2,0:0:0:0:
64,192,19849,1,2,0:0:0:0:
320,192,19962,1,0,0:0:0:0:
192,192,20075,1,4,0:0:0:0:
448,192,20075,1,4,0:0:0:0:
64,192,20187,1,0,0:0:0:0:
320,192,20300,1,2,0:0:0:0:
192,192,20300,1,2,0:0:0:0:
448,192,20413,1,0,0:0:0:0:
320,192,20526,1,4,0:0:0:0:
64,192,20526,1,4,0:0:0:0:
192,192,20639,1,0,0:0:0:0:
64,192,20751,1,2,0:0:0:0:
448,192,20751,1,2,0:0:0:0:
192,192,20864,1,0,0:0:0:0:
320,192,20977,1,4,0:0:0:0:
448,192,21090,1,0,0:0:0:0:
320,192,21203,1,2,0:0:0:0:
64,192,21203,1,2,0:0:0:0:
192,192,21315,1,0,0:0:0:0:
64,192,21428,1,4,0:0:0:0:
448,192,21428,1,4,0:0:0:0:
192,192,21541,1,0,0:0:0:0:
320,192,21654,1,2,0:0:0:0:
64,192,21654,1,2,0:0:0:0:
192,192,21766,1,0,0:0:0:0:
448,192,21879,1,4,0:0:0:0:
320,192,21879,1,4,0:0:0:0:
64,192,21992,1,0,0:0:0:0:
448,192,22105,1,2,0:0:0:0:
192,192,22105,1,2,0:0:0:0:
64,192,22218,1,0,0:0:0:0:
320,192,22330,1,4,0:0:0:0:
192,192,22330,1,4,0:0:0:0:
448,192,22443,1,0,0:0:0:0:
320,192,22556,1,2,0:0:0:0:
64,192,22556,128,2,22669:0:0:0:0:
192,192,22669,128,0,22781:0:0:0:0:
320,192,22781,128,4,22894:0:0:0:0:
448,192,22894,128,0,23007:0:0:0:0:
64,192,23007,128,2,23120:0:0:0:0:
320,192,23007,1,2,0:0:0:0:
192,192,23120,128,0,23233:0:0:0:0:
320,192,23233,128,4,23345:0:0:0:0:
448,192,23345,128,0,23458:0:0:0:0:
64,192,23458,1,2,0:0:0:0:
320,192,23458,1,2,0:0:0:0:
448,192,23571,1,0,0:0:0:0:
192,192,23684,1,4,0:0:0:0:
320,192,23684,1,4,0:0:0:0:
64,192,23796,1,0,0:0:0:0:
192,192,23909,1,2,0:0:0:0:
448,192,23909,1,2,0:0:0:0:
320,192,24022,1,0,0:0:0:0:
64,192,24135,1,4,0:0:0:0:
448,192,24135,1,4,0:0:0:0:
320,192,24248,1,0,0:0:0:0:
64,192,24360,1,2,0:0:0:0:
192,192,24360,1,2,0:0:0:0:
448,192,24473,1,0,0:0:0:0:
192,192,24586,1,4,0:0:0:0:
320,192,24586,1,4,0:0:0:0:
64,192,24699,1,0,0:0:0:0:
320,192,24812,1,2,0:0:0:0:
448,192,24812,1,2,0:0:0:0:
64,192,24924,1,0,0:0:0:0:
448,192,25037,1,4,0:0:0:0:
192,192,25037,1,4,0:0:0:0:
320,192,25150,1,0,0:0:0:0:
64,192,25263,1,2,0:0:0:0:
448,192,25263,1,2,0:0:0:0:
192,192,25375,1,0,0:0:0:0:
320,192,25488,1,4,0:0:0:0:
64,192,25488,1,4,0:0:0:0:
448,192,25601,1,0,0:0:0:0:
192,192,25714,1,2,0:0:0:0:
320,192,25714,1,2,0:0:0:0:
64,192,25827,1,0,0:0:0:0:
448,192,25939,1,4,0:0:0:0:
320,192,25939,1,4,0:0:0:0:
192,192,26052,1,0,0:0:0:0:
320,192,26165,1,2,0:0:0:0:
64,192,26165,128,2,26278:0:0:0:0:
192,192,26278,128,0,26390:0:0:0:0:
320,192,26390,128,4,26503:0:0:0:0:
448,192,26503,128,0,26616:0:0:0:0:
64,192,26616,1,2,0:0:0:0:
192,192,26616,1,2,0:0:0:0:
320,192,26729,1,0,0:0:0:0:
448,192,26842,1,4,0:0:0:0:
64,192,26842,1,4,0:0:0:0:
192,192,26954,1,0,0:0:0:0:
448,192,27067,1,2,0:0:0:0:
64,192,27067,1,2,0:0:0:0:
192,192,27180,1,0,0:0:0:0:
320,192,27293,1,4,0:0:0:0:
448,192,27293,1,4,0:0:0:0:
64,192,27406,1,0,0:0:0:0:
192,192,27518,1,2,0:0:0:0:
320,192,27518,1,2,0:0:0:0:
448,192,27631,1,0,0:0:0:0:
320,192,27744,1,4,0:0:0:0:
64,192,27744,1,4,0:0:0:0:
192,192,27857,1,0,0:0:0:0:
64,192,27969,1,2,0:0:0:0:
448,192,27969,1,2,0:0:0:0:
192,192,28082,1,0,0:0:0:0:
320,192,28195,1,4,0:0:0:0:
448,192,28308,1,0,0:0:0:0:
64,192,28421,1,2,0:0:0:0:
192,192,28421,1,2,0:0:0:0:
320,192,28533,1,0,0:0:0:0:
448,192,28646,1,4,0:0:0:0:
192,192,28646,1,4,0:0:0:0:
64,192,28759,1,0,0:0:0:0:
192,192,28872,1,2,0:0:0:0:
320,192,28872,1,2,0:0:0:0:
64,192,28984,1,0,0:0:0:0:
320,192,29097,1,4,0:0:0:0:
448,192,29097,1,4,0:0:0:0:
64,192,29210,1,0,0:0:0:0:
192,192,29323,1,2,0:0:0:0:
448,192,29323,1,2,0:0:0:0:
320,192,29436,1,0,0:0:0:0:
64,192,29548,1,4,0:0:0:0:
448,192,29548,1,4,0:0:0:0:
192,192,29661,1,0,0:0:0:0:
320,192,29774,1,2,0:0:0:0:
64,192,29774,128,2,29887:0:0:0:0:
192,192,29887,128,0,29999:0:0:0:0:
320,192,29999,128,4,30112:0:0:0:0:
448,192,30112,128,0,30225:0:0:0:0:
64,192,30225,128,2,30338:0:0:0:0:
320,192,30225,1,2,0:0:0:0:
192,192,30338,128,0,30451:0:0:0:0:
320,192,30451,128,4,30563:0:0:0:0:
448,192,30563,128,0,30676:0:0:0:0:
320,192,30676,1,2,0:0:0:0:
64,192,30676,1,2,0:0:0:0:
448,192,30789,1,0,0:0:0:0:
192,192,30902,1,4,0:0:0:0:
320,192,30902,1,4,0:0:0:0:
448,192,31015,1,0,0:0:0:0:
320,192,31127,1,2,0:0:0:0:
64,192,31127,1,2,0:0:0:0:
448,192,31240,1,0,0:0:0:0:
192,192,31353,1,4,0:0:0:0:
64,192,31353,1,4,0:0:0:0:
320,192,31466,1,0,0:0:0:0:
64,192,31578,1,2,0:0:0:0:
448,192,31578,1,2,0:0:0:0:
320,192,31691,1,0,0:0:0:0:
192,192,31804,1,4,0:0:0:0:
448,192,31804,1,4,0:0:0:0:
64,192,31917,1,0,0:0:0:0:
320,192,32030,1,2,0:0:0:0:
448,192,32030,1,2,0:0:0:0:
192,192,32142,1,0,0:0:0:0:
448,192,32255,1,4,0:0:0:0:
64,192,32255,1,4,0:0:0:0:
192,192,32368,1,0,0:0:0:0:
64,192,32481,1,2,0:0:0:0:
320,192,32481,1,2,0:0:0:0:
448,192,32593,1,0,0:0:0:0:
192,192,32706,1,4,0:0:0:0:
64,192,32706,1,4,0:0:0:0:
448,192,32819,1,0,0:0:0:0:
64,192,32932,1,2,0:0:0:0:
320,192,32932,1,2,0:0:0:0:
192,192,33045,1,0,0:0:0:0:
64,192,33157,1,4,0:0:0:0:
448,192,33157,1,4,0:0:0:0:
320,192,33270,1,0,0:0:0:0:
448,192,33383,1,2,0:0:0:0:
64,192,33383,128,2,33496:0:0:0:0:
192,192,33496,128,0,33609:0:0:0:0:
320,192,33609,128,4,33721:0:0:0:0:
448,192,33721,128,0,33834:0:0:0:0:
64,192,33834,1,2,0:0:0:0:
192,192,33834,1,2,0:0:0:0:
448,192,33947,1,0,0:0:0:0:
64,192,34060,1,6,0:0:0:0:
320,192,34060,1,6,0:0:0:0:
192,192,34172,1,0,0:0:0:0:
64,192,34285,1,2,0:0:0:0:
320,192,34285,1,2,0:0:0:0:
448,192,34285,128,2,34736:0:0:0:0:
192,192,34398,1,0,0:0:0:0:
320,192,34511,1,4,0:0:0:0:
64,192,34511,1,4,0:0:0:0:
192,192,34624,1,0,0:0:0:0:
320,192,34736,1,10,0:0:0:0:
64,192,34736,1,10,0:0:0:0:
448,192,34849,1,0,0:0:0:0:
64,192,34962,1,4,0:0:0:0:
192,192,34962,128,4,35075:0:0:0:0:
448,192,35075,1,0,0:0:0:0:
320,192,35075,128,0,35187:0:0:0:0:
64,192,35187,1,2,0:0:0:0:
192,192,35187,128,2,35639:0:0:0:0:
320,192,35300,1,0,0:0:0:0:
448,192,35413,1,4,0:0:0:0:
320,192,35526,1,0,0:0:0:0:
448,192,35639,1,10,0:0:0:0:
64,192,35639,1,10,0:0:0:0:
192,192,35751,1,0,0:0:0:0:
64,192,35864,1,4,0:0:0:0:
448,192,35864,1,4,0:0:0:0:
320,192,35977,1,0,0:0:0:0:
64,192,36090,128,2,36541:0:0:0:0:
192,192,36090,1,2,0:0:0:0:
448,192,36090,1,2,0:0:0:0:
320,192,36203,1,0,0:0:0:0:
192,192,36315,1,4,0:0:0:0:
448,192,36315,1,4,0:0:0:0:
320,192,36428,1,0,0:0:0:0:
192,192,36541,1,10,0:0:0:0:
448,192,36541,128,10,36992:0:0:0:0:
320,192,36654,1,0,0:0:0:0:
192,192,36766,1,4,0:0:0:0:
64,192,36766,1,4,0:0:0:0:
320,192,36879,1,0,0:0:0:0:
192,192,36992,128,2,37218:0:0:0:0:
64,192,36992,128,2,37105:0:0:0:0:
320,192,37105,128,0,37218:0:0:0:0:
448,192,37218,128,4,37443:0:0:0:0:
64,192,37218,128,4,37330:0:0:0:0:
320,192,37330,128,0,37443:0:0:0:0:
64,192,37443,128,10,37669:0:0:0:0:
192,192,37443,128,10,37556:0:0:0:0:
448,192,37556,128,0,37669:0:0:0:0:
320,192,37669,128,4,37894:0:0:0:0:
192,192,37669,128,4,37781:0:0:0:0:
448,192,37781,128,0,37894:0:0:0:0:
192,192,37894,1,2,0:0:0:0:
64,192,37894,128,2,38345:0:0:0:0:
448,192,38007,1,0,0:0:0:0:
192,192,38120,1,4,0:0:0:0:
320,192,38120,1,4,0:0:0:0:
448,192,38233,1,0,0:0:0:0:
320,192,38345,1,10,0:0:0:0:
192,192,38345,1,10,0:0:0:0:
64,192,38458,1,0,0:0:0:0:
448,192,38571,1,4,0:0:0:0:
320,192,38571,1,4,0:0:0:0:
192,192,38684,1,0,0:0:0:0:
320,192,38796,1,2,0:0:0:0:
448,192,38796,128,2,39248:0:0:0:0:
64,192,38909,1,0,0:0:0:0:
192,192,39022,1,4,0:0:0:0:
320,192,39022,1,4,0:0:0:0:
64,192,39135,1,0,0:0:0:0:
192,192,39248,1,10,0:0:0:0:
320,192,39248,1,10,0:0:0:0:
64,192,39360,1,0,0:0:0:0:
448,192,39473,1,4,0:0:0:0:
320,192,39473,1,4,0:0:0:0:
192,192,39586,1,0,0:0:0:0:
320,192,39699,128,2,40150:0:0:0:0:
64,192,39699,1,2,0:0:0:0:
448,192,39699,1,2,0:0:0:0:
192,192,39812,1,0,0:0:0:0:
448,192,39924,1,4,0:0:0:0:
64,192,39924,1,4,0:0:0:0:
192,192,40037,1,0,0:0:0:0:
64,192,40150,1,10,0:0:0:0:
448,192,40150,128,10,40601:0:0:0:0:
320,192,40263,1,0,0:0:0:0:
64,192,40375,1,4,0:0:0:0:
192,192,40375,1,4,0:0:0:0:
320,192,40488,1,0,0:0:0:0:
192,192,40601,128,2,41052:0:0:0:0:
64,192,40601,128,2,40714:0:0:0:0:
320,192,40714,128,0,40827:0:0:0:0:
64,192,40827,128,4,40939:0:0:0:0:
448,192,40939,128,0,41052:0:0:0:0:
320,192,41052,1,10,0:0:0:0:
64,192,41052,128,10,41503:0:0:0:0:
192,192,41165,1,0,0:0:0:0:
448,192,41278,1,4,0:0:0:0:
320,192,41278,1,4,0:0:0:0:
192,192,41390,1,0,0:0:0:0:
320,192,41503,1,2,0:0:0:0:
448,192,41503,128,2,41954:0:0:0:0:
192,192,41616,1,0,0:0:0:0:
64,192,41729,1,4,0:0:0:0:
320,192,41729,1,4,0:0:0:0:
192,192,41842,1,0,0:0:0:0:
320,192,41954,1,10,0:0:0:0:
64,192,41954,1,10,0:0:0:0:
448,192,42067,1,0,0:0:0:0:
64,192,42180,1,4,0:0:0:0:
192,192,42180,128,4,42293:0:0:0:0:
448,192,42293,1,0,0:0:0:0:
320,192,42293,128,0,42406:0:0:0:0:
64,192,42406,1,2,0:0:0:0:
192,192,42406,128,2,42857:0:0:0:0:
320,192,42518,1,0,0:0:0:0:
448,192,42631,1,4,0:0:0:0:
320,192,42744,1,0,0:0:0:0:
64,192,42857,1,10,0:0:0:0:
448,192,42857,1,10,0:0:0:0:
192,192,42969,1,0,0:0:0:0:
64,192,43082,1,4,0:0:0:0:
448,192,43082,1,4,0:0:0:0:
320,192,43195,1,0,0:0:0:0:
64,192,43308,128,2,43759:0:0:0:0:
192,192,43308,1,2,0:0:0:0:
448,192,43308,1,2,0:0:0:0:
320,192,43421,1,0,0:0:0:0:
192,192,43533,1,4,0:0:0:0:
448,192,43533,1,4,0:0:0:0:
320,192,43646,1,0,0:0:0:0:
192,192,43759,1,10,0:0:0:0:
448,192,43759,128,10,44210:0:0:0:0:
320,192,43872,1,0,0:0:0:0:
64,192,43984,1,4,0:0:0:0:
192,192,43984,1,4,0:0:0:0:
320,192,44097,1,0,0:0:0:0:
192,192,44210,128,2,44436:0:0:0:0:
64,192,44210,128,2,44323:0:0:0:0:
448,192,44323,128,0,44436:0:0:0:0:
320,192,44436,128,4,44661:0:0:0:0:
64,192,44436,128,4,44548:0:0:0:0:
448,192,44548,128,0,44661:0:0:0:0:
64,192,44661,128,10,44887:0:0:0:0:
192,192,44661,128,10,44774:0:0:0:0:
320,192,44774,128,0,44887:0:0:0:0:
448,192,44887,128,4,45112:0:0:0:0:
192,192,44887,128,4,44999:0:0:0:0:
320,192,44999,128,0,45112:0:0:0:0:
192,192,45112,1,2,0:0:0:0:
64,192,45112,128,2,45563:0:0:0:0:
448,192,45225,1,0,0:0:0:0:
192,192,45338,1,4,0:0:0:0:
320,192,45338,1,4,0:0:0:0:
448,192,45451,1,0,0:0:0:0:
192,192,45563,1,10,0:0:0:0:
320,192,45563,1,10,0:0:0:0:
64,192,45676,1,0,0:0:0:0:
192,192,45789,1,4,0:0:0:0:
448,192,45789,1,4,0:0:0:0:
320,192,45902,1,0,0:0:0:0:
64,192,46015,1,2,0:0:0:0:
448,192,46015,128,2,46466:0:0:0:0:
192,192,46127,1,0,0:0:0:0:
320,192,46240,1,4,0:0:0:0:
64,192,46240,1,4,0:0:0:0:
192,192,46353,1,0,0:0:0:0:
320,192,46466,1,10,0:0:0:0:
64,192,46466,1,10,0:0:0:0:
448,192,46578,1,0,0:0:0:0:
320,192,46691,1,4,0:0:0:0:
192,192,46691,1,4,0:0:0:0:
64,192,46804,1,0,0:0:0:0:
448,192,46917,1,2,0:0:0:0:
320,192,46917,128,2,47368:0:0:0:0:
192,192,46917,1,2,0:0:0:0:
64,192,47030,1,0,0:0:0:0:
192,192,47142,1,4,0:0:0:0:
448,192,47142,1,4,0:0:0:0:
64,192,47255,1,0,0:0:0:0:
192,192,47368,1,10,0:0:0:0:
448,192,47368,128,10,47819:0:0:0:0:
320,192,47481,1,0,0:0:0:0:
192,192,47593,1,4,0:0:0:0:
64,192,47593,1,4,0:0:0:0:
320,192,47706,1,0,0:0:0:0:
64,192,47819,128,2,47932:0:0:0:0:
192,192,47819,1,2,0:0:0:0:
320,192,47932,128,0,48045:0:0:0:0:
192,192,48045,128,4,48157:0:0:0:0:
448,192,48157,128,0,48270:0:0:0:0:
64,192,48270,128,10,48383:0:0:0:0:
192,192,48270,1,10,0:0:0:0:
320,192,48383,128,0,48496:0:0:0:0:
192,192,48496,128,4,48609:0:0:0:0:
448,192,48609,128,0,48721:0:0:0:0:
192,192,48721,1,2,0:0:0:0:
320,192,48721,1,2,0:0:0:0:
64,192,48721,1,2,0:0:0:0:
192,192,48947,1,4,0:0:0:0:
320,192,48947,1,4,0:0:0:0:
320,192,49172,1,10,0:0:0:0:
448,192,49172,1,10,0:0:0:0:
192,192,49398,1,4,0:0:0:0:
64,192,49398,1,4,0:0:0:0:
448,192,49511,1,0,0:0:0:0:
320,192,49511,1,0,0:0:0:0:
192,192,49624,1,2,0:0:0:0:
64,192,49624,1,2,0:0:0:0:
320,192,49736,1,0,0:0:0:0:
448,192,49736,1,0,0:0:0:0:
192,192,49849,1,4,0:0:0:0:
64,192,49962,1,0,0:0:0:0:
320,192,49962,1,0,0:0:0:0:
192,192,50075,1,10,0:0:0:0:
448,192,50075,1,10,0:0:0:0:
320,192,50187,1,0,0:0:0:0:
192,192,50300,1,4,0:0:0:0:
64,192,50300,1,4,0:0:0:0:
320,192,50413,1,0,0:0:0:0:
192,192,50526,1,2,0:0:0:0:
448,192,50526,1,2,0:0:0:0:
64,192,50526,1,2,0:0:0:0:
192,192,50751,1,4,0:0:0:0:
320,192,50751,1,4,0:0:0:0:
320,192,50977,1,10,0:0:0:0:
448,192,50977,1,10,0:0:0:0:
64,192,51203,1,4,0:0:0:0:
320,192,51203,1,4,0:0:0:0:
192,192,51315,1,0,0:0:0:0:
448,192,51315,1,0,0:0:0:0:
320,192,51428,1,2,0:0:0:0:
64,192,51428,1,2,0:0:0:0:
192,192,51541,1,0,0:0:0:0:
448,192,51541,1,0,0:0:0:0:
320,192,51654,1,4,0:0:0:0:
448,192,51766,1,0,0:0:0:0:
64,192,51766,1,0,0:0:0:0:
320,192,51879,1,10,0:0:0:0:
192,192,51879,1,10,0:0:0:0:
448,192,51992,1,0,0:0:0:0:
64,192,52105,1,4,0:0:0:0:
320,192,52105,1,4,0:0:0:0:
192,192,52218,1,0,0:0:0:0:
64,192,52330,1,2,0:0:0:0:
320,192,52330,1,2,0:0:0:0:
448,192,52330,1,2,0:0:0:0:
320,192,52556,1,4,0:0:0:0:
192,192,52556,1,4,0:0:0:0:
320,192,52781,1,10,0:0:0:0:
448,192,52781,1,10,0:0:0:0:
448,192,53007,1,4,0:0:0:0:
320,192,53007,1,4,0:0:0:0:
192,192,53120,1,0,0:0:0:0:
64,192,53120,1,0,0:0:0:0:
320,192,53233,1,2,0:0:0:0:
448,192,53233,1,2,0:0:0:0:
64,192,53345,1,0,0:0:0:0:
192,192,53345,1,0,0:0:0:0:
320,192,53458,1,4,0:0:0:0:
192,192,53571,1,0,0:0:0:0:
448,192,53571,1,0,0:0:0:0:
320,192,53684,1,10,0:0:0:0:
64,192,53684,1,10,0:0:0:0:
192,192,53796,1,0,0:0:0:0:
448,192,53909,1,4,0:0:0:0:
320,192,53909,1,4,0:0:0:0:
192,192,54022,1,0,0:0:0:0:
64,192,54135,1,2,0:0:0:0:
320,192,54135,1,2,0:0:0:0:
448,192,54135,1,2,0:0:0:0:
192,192,54360,1,4,0:0:0:0:
320,192,54360,1,4,0:0:0:0:
320,192,54586,1,10,0:0:0:0:
64,192,54586,1,10,0:0:0:0:
448,192,54699,1,0,0:0:0:0:
192,192,54699,1,0,0:0:0:0:
64,192,54812,1,4,0:0:0:0:
448,192,54812,1,4,0:0:0:0:
320,192,54924,1,0,0:0:0:0:
192,192,54924,1,0,0:0:0:0:
192,192,55037,1,2,0:0:0:0:
64,192,55037,1,2,0:0:0:0:
448,192,55150,1,0,0:0:0:0:
320,192,55150,1,0,0:0:0:0:
64,192,55263,1,4,0:0:0:0:
192,192,55263,1,4,0:0:0:0:
320,192,55375,1,0,0:0:0:0:
448,192,55488,1,10,0:0:0:0:
64,192,55488,1,10,0:0:0:0:
320,192,55601,1,0,0:0:0:0:
448,192,55714,1,4,0:0:0:0:
192,192,55714,1,4,0:0:0:0:
320,192,55827,1,0,0:0:0:0:
64,192,55939,1,2,0:0:0:0:
192,192,55939,1,2,0:0:0:0:
448,192,55939,1,2,0:0:0:0:
320,192,56165,1,4,0:0:0:0:
192,192,56165,1,4,0:0:0:0:
320,192,56390,1,10,0:0:0:0:
448,192,56390,1,10,0:0:0:0:
192,192,56616,1,4,0:0:0:0:
448,192,56616,1,4,0:0:0:0:
320,192,56729,1,0,0:0:0:0:
64,192,56729,1,0,0:0:0:0:
192,192,56842,1,2,0:0:0:0:
448,192,56842,1,2,0:0:0:0:
320,192,56954,1,0,0:0:0:0:
64,192,56954,1,0,0:0:0:0:
192,192,57067,1,4,0:0:0:0:
448,192,57180,1,0,0:0:0:0:
320,192,57180,1,4,0:0:0:0:
192,192,57293,1,10,0:0:0:0:
64,192,57293,1,10,0:0:0:0:
320,192,57406,1,0,0:0:0:0:
192,192,57518,1,4,0:0:0:0:
448,192,57518,1,4,0:0:0:0:
320,192,57631,1,0,0:0:0:0:
64,192,57744,1,2,0:0:0:0:
192,192,57744,1,2,0:0:0:0:
448,192,57744,1,2,0:0:0:0:
320,192,57969,1,4,0:0:0:0:
192,192,57969,1,4,0:0:0:0:
448,192,58195,1,10,0:0:0:0:
320,192,58195,1,10,0:0:0:0:
320,192,58421,1,4,0:0:0:0:
64,192,58421,1,4,0:0:0:0:
448,192,58533,1,0,0:0:0:0:
192,192,58533,1,0,0:0:0:0:
64,192,58646,1,2,0:0:0:0:
320,192,58646,1,2,0:0:0:0:
192,192,58759,1,0,0:0:0:0:
448,192,58759,1,0,0:0:0:0:
320,192,58872,1,4,0:0:0:0:
448,192,58984,1,4,0:0:0:0:
64,192,58984,1,0,0:0:0:0:
320,192,59097,1,10,0:0:0:0:
192,192,59097,1,10,0:0:0:0:
448,192,59210,1,0,0:0:0:0:
320,192,59323,1,4,0:0:0:0:
64,192,59323,1,4,0:0:0:0:
192,192,59436,1,0,0:0:0:0:
64,192,59548,1,2,0:0:0:0:
448,192,59548,1,2,0:0:0:0:
320,192,59548,1,2,0:0:0:0:
192,192,59774,1,4,0:0:0:0:
320,192,59774,1,4,0:0:0:0:
192,192,59999,1,10,0:0:0:0:
64,192,59999,1,10,0:0:0:0:
64,192,60225,1,4,0:0:0:0:
192,192,60225,1,4,0:0:0:0:
320,192,60338,1,0,0:0:0:0:
448,192,60338,1,0,0:0:0:0:
64,192,60451,1,2,0:0:0:0:
192,192,60451,1,2,0:0:0:0:
448,192,60563,1,0,0:0:0:0:
320,192,60563,1,0,0:0:0:0:
192,192,60676,1,4,0:0:0:0:
448,192,60789,1,0,0:0:0:0:
64,192,60789,1,4,0:0:0:0:
192,192,60902,1,10,0:0:0:0:
320,192,60902,1,10,0:0:0:0:
448,192,61015,1,0,0:0:0:0:
192,192,61127,1,4,0:0:0:0:
64,192,61127,1,4,0:0:0:0:
320,192,61240,1,0,0:0:0:0:
192,192,61353,1,2,0:0:0:0:
64,192,61353,1,2,0:0:0:0:
448,192,61353,1,2,0:0:0:0:
192,192,61578,1,4,0:0:0:0:
320,192,61578,1,4,0:0:0:0:
320,192,61804,1,10,0:0:0:0:
64,192,61804,1,10,0:0:0:0:
448,192,61917,1,0,0:0:0:0:
192,192,61917,1,0,0:0:0:0:
320,192,62030,1,4,0:0:0:0:
64,192,62030,1,4,0:0:0:0:
192,192,62142,1,0,0:0:0:0:
448,192,62142,1,0,0:0:0:0:
192,192,62255,1,2,0:0:0:0:
64,192,62255,1,2,0:0:0:0:
448,192,62368,1,0,0:0:0:0:
320,192,62368,1,0,0:0:0:0:
64,192,62481,1,4,0:0:0:0:
192,192,62481,1,4,0:0:0:0:
320,192,62593,1,4,0:0:0:0:
448,192,62593,1,0,0:0:0:0:
448,192,62706,1,10,0:0:0:0:
64,192,62706,1,10,0:0:0:0:
320,192,62819,1,2,0:0:0:0:
192,192,62819,1,2,0:0:0:0:
448,192,62932,1,6,0:0:0:0:
64,192,62932,1,6,0:0:0:0:
192,192,63045,1,0,0:0:0:0:
448,192,63157,1,2,0:0:0:0:
320,192,63157,1,2,0:0:0:0:
64,192,63157,128,2,63609:0:0:0:0:
192,192,63383,1,4,0:0:0:0:
448,192,63383,1,4,0:0:0:0:
320,192,63496,128,4,63609:0:0:0:0:
192,192,63609,1,10,0:0:0:0:
448,192,63609,1,10,0:0:0:0:
64,192,63721,1,0,0:0:0:0:
448,192,63834,128,6,64285:0:0:0:0:
192,192,63834,1,6,0:0:0:0:
64,192,63947,1,0,0:0:0:0:
320,192,64060,128,2,64511:0:0:0:0:
192,192,64060,1,2,0:0:0:0:
192,192,64285,1,4,0:0:0:0:
64,192,64285,1,4,0:0:0:0:
448,192,64398,128,4,64511:0:0:0:0:
64,192,64511,1,10,0:0:0:0:
192,192,64511,128,10,64962:0:0:0:0:
448,192,64624,1,0,0:0:0:0:
64,192,64736,1,4,0:0:0:0:
320,192,64736,1,4,0:0:0:0:
448,192,64849,1,0,0:0:0:0:
448,192,64962,1,2,0:0:0:0:
320,192,64962,1,2,0:0:0:0:
64,192,64962,128,2,65413:0:0:0:0:
448,192,65187,1,4,0:0:0:0:
192,192,65187,1,4,0:0:0:0:
320,192,65300,128,4,65413:0:0:0:0:
192,192,65413,1,10,0:0:0:0:
448,192,65413,1,10,0:0:0:0:
320,192,65526,1,2,0:0:0:0:
64,192,65526,1,2,0:0:0:0:
448,192,65639,128,6,66090:0:0:0:0:
192,192,65639,1,6,0:0:0:0:
64,192,65751,1,0,0:0:0:0:
320,192,65864,128,2,66315:0:0:0:0:
192,192,65864,1,2,0:0:0:0:
64,192,66090,1,4,0:0:0:0:
192,192,66090,1,4,0:0:0:0:
448,192,66203,128,4,66315:0:0:0:0:
64,192,66315,1,10,0:0:0:0:
192,192,66315,128,10,66766:0:0:0:0:
448,192,66428,1,0,0:0:0:0:
320,192,66541,1,4,0:0:0:0:
64,192,66541,1,4,0:0:0:0:
448,192,66654,1,0,0:0:0:0:
448,192,66766,1,2,0:0:0:0:
64,192,66766,128,2,67218:0:0:0:0:
320,192,66766,1,2,0:0:0:0:
320,192,66992,1,4,0:0:0:0:
448,192,66992,1,4,0:0:0:0:
192,192,67105,128,4,67218:0:0:0:0:
448,192,67218,1,10,0:0:0:0:
320,192,67218,1,10,0:0:0:0:
192,192,67330,1,0,0:0:0:0:
448,192,67443,128,6,67894:0:0:0:0:
320,192,67443,1,6,0:0:0:0:
192,192,67556,1,0,0:0:0:0:
320,192,67669,128,2,68120:0:0:0:0:
64,192,67669,1,2,0:0:0:0:
64,192,67894,1,4,0:0:0:0:
192,192,67894,1,4,0:0:0:0:
448,192,68007,128,4,68120:0:0:0:0:
64,192,68120,1,10,0:0:0:0:
192,192,68120,128,10,68571:0:0:0:0:
448,192,68233,1,0,0:0:0:0:
320,192,68345,1,4,0:0:0:0:
64,192,68345,1,4,0:0:0:0:
448,192,68458,1,0,0:0:0:0:
448,192,68571,1,2,0:0:0:0:
320,192,68571,1,2,0:0:0:0:
64,192,68571,128,2,69022:0:0:0:0:
448,192,68796,1,4,0:0:0:0:
320,192,68796,1,4,0:0:0:0:
192,192,68909,128,4,69022:0:0:0:0:
320,192,69022,1,10,0:0:0:0:
448,192,69022,1,10,0:0:0:0:
64,192,69135,1,2,0:0:0:0:
192,192,69135,1,2,0:0:0:0:
448,192,69248,128,6,69699:0:0:0:0:
320,192,69248,1,6,0:0:0:0:
192,192,69360,1,0,0:0:0:0:
320,192,69473,128,2,69924:0:0:0:0:
64,192,69473,1,2,0:0:0:0:
192,192,69699,1,4,0:0:0:0:
64,192,69699,1,4,0:0:0:0:
448,192,69812,128,4,69924:0:0:0:0:
64,192,69924,1,10,0:0:0:0:
192,192,69924,128,2,70375:0:0:0:0:
320,192,70037,1,2,0:0:0:0:
448,192,70037,1,2,0:0:0:0:
64,192,70037,128,2,70263:0:0:0:0:
320,192,70150,1,6,0:0:0:0:
448,192,70150,1,6,0:0:0:0:
320,192,70263,1,2,0:0:0:0:
448,192,70263,1,2,0:0:0:0:
320,192,70375,1,2,0:0:0:0:
64,192,70375,1,2,0:0:0:0:
448,192,70375,128,2,70827:0:0:0:0:
64,192,70601,1,4,0:0:0:0:
320,192,70601,1,4,0:0:0:0:
192,192,70714,128,4,70827:0:0:0:0:
320,192,70827,1,10,0:0:0:0:
64,192,70827,1,10,0:0:0:0:
448,192,70939,1,0,0:0:0:0:
320,192,71052,1,6,0:0:0:0:
64,192,71052,128,6,71503:0:0:0:0:
448,192,71165,1,0,0:0:0:0:
192,192,71278,128,2,71729:0:0:0:0:
320,192,71278,1,2,0:0:0:0:
448,192,71503,1,4,0:0:0:0:
320,192,71503,1,4,0:0:0:0:
64,192,71616,128,4,71729:0:0:0:0:
448,192,71729,1,10,0:0:0:0:
320,192,71729,128,10,72180:0:0:0:0:
64,192,71842,1,0,0:0:0:0:
448,192,71954,1,4,0:0:0:0:
192,192,71954,1,4,0:0:0:0:
64,192,72067,1,0,0:0:0:0:
192,192,72180,1,2,0:0:0:0:
64,192,72180,1,2,0:0:0:0:
448,192,72180,128,2,72631:0:0:0:0:
320,192,72406,1,4,0:0:0:0:
64,192,72406,1,4,0:0:0:0:
192,192,72518,128,4,72631:0:0:0:0:
320,192,72631,1,10,0:0:0:0:
64,192,72631,1,10,0:0:0:0:
448,192,72744,1,2,0:0:0:0:
192,192,72744,1,2,0:0:0:0:
320,192,72857,1,6,0:0:0:0:
64,192,72857,128,6,73308:0:0:0:0:
448,192,72969,1,0,0:0:0:0:
192,192,73082,128,2,73533:0:0:0:0:
320,192,73082,1,2,0:0:0:0:
320,192,73308,1,4,0:0:0:0:
448,192,73308,1,4,0:0:0:0:
64,192,73421,128,4,73533:0:0:0:0:
448,192,73533,1,10,0:0:0:0:
320,192,73533,128,10,73984:0:0:0:0:
64,192,73646,1,0,0:0:0:0:
192,192,73759,1,4,0:0:0:0:
448,192,73759,1,4,0:0:0:0:
64,192,73872,1,0,0:0:0:0:
64,192,73984,1,2,0:0:0:0:
192,192,73984,1,2,0:0:0:0:
448,192,73984,128,2,74436:0:0:0:0:
64,192,74210,1,4,0:0:0:0:
192,192,74210,1,4,0:0:0:0:
320,192,74323,128,4,74436:0:0:0:0:
192,192,74436,1,10,0:0:0:0:
64,192,74436,1,10,0:0:0:0:
320,192,74548,1,0,0:0:0:0:
192,192,74661,1,6,0:0:0:0:
64,192,74661,128,6,75112:0:0:0:0:
320,192,74774,1,0,0:0:0:0:
192,192,74887,128,2,75338:0:0:0:0:
448,192,74887,1,2,0:0:0:0:
320,192,75112,1,4,0:0:0:0:
448,192,75112,1,4,0:0:0:0:
64,192,75225,128,4,75338:0:0:0:0:
448,192,75338,1,10,0:0:0:0:
320,192,75338,128,10,75789:0:0:0:0:
64,192,75451,1,0,0:0:0:0:
448,192,75563,1,4,0:0:0:0:
192,192,75563,1,4,0:0:0:0:
64,192,75676,1,2,0:0:0:0:
192,192,75789,1,2,0:0:0:0:
64,192,75789,1,2,0:0:0:0:
448,192,75789,128,2,76127:0:0:0:0:
192,192,76127,1,2,0:0:0:0:
320,192,76127,1,2,0:0:0:0:
192,192,76240,1,2,0:0:0:0:
448,192,76240,1,2,0:0:0:0:
64,192,76240,128,2,76578:0:0:0:0:
192,192,76578,1,2,0:0:0:0:
320,192,76578,1,2,0:0:0:0:
448,192,76691,1,2,0:0:0:0:
320,192,76691,1,2,0:0:0:0:
64,192,76691,1,2,0:0:0:0:
448,192,76804,1,2,0:0:0:0:
320,192,76804,1,2,0:0:0:0:
64,192,76804,1,2,0:0:0:0:
448,192,77030,1,2,0:0:0:0:
192,192,77030,1,2,0:0:0:0:
64,192,77030,1,2,0:0:0:0:
320,192,77142,1,8,0:0:0:0:
64,192,77142,1,8,0:0:0:0:
320,192,77368,1,2,0:0:0:0:
448,192,77368,1,2,0:0:0:0:
192,192,77368,1,2,0:0:0:0:
320,192,77593,1,2,0:0:0:0:
448,192,77593,1,2,0:0:0:0:
64,192,77593,128,2,77706:0:0:0:0:
320,192,77819,1,4,0:0:0:0:
448,192,77819,1,4,0:0:0:0:
192,192,77932,1,4,0:0:0:0:
64,192,77932,1,0,0:0:0:0:
320,192,78045,1,10,0:0:0:0:
448,192,78045,1,10,0:0:0:0:
192,192,78157,1,0,0:0:0:0:
448,192,78270,1,6,0:0:0:0:
64,192,78270,1,6,0:0:0:0:
320,192,78383,1,2,0:0:0:0:
192,192,78383,1,2,0:0:0:0:
320,192,78496,1,2,0:0:0:0:
64,192,78496,1,2,0:0:0:0:
448,192,78496,128,2,78609:0:0:0:0:
64,192,78721,1,4,0:0:0:0:
320,192,78721,1,4,0:0:0:0:
448,192,78834,1,4,0:0:0:0:
192,192,78834,1,0,0:0:0:0:
320,192,78947,1,10,0:0:0:0:
64,192,78947,1,10,0:0:0:0:
448,192,79060,1,0,0:0:0:0:
192,192,79172,1,4,0:0:0:0:
64,192,79172,1,4,0:0:0:0:
320,192,79285,1,0,0:0:0:0:
192,192,79398,1,2,0:0:0:0:
448,192,79398,1,2,0:0:0:0:
64,192,79398,128,2,79511:0:0:0:0:
192,192,79624,1,4,0:0:0:0:
448,192,79624,1,4,0:0:0:0:
64,192,79736,1,0,0:0:0:0:
320,192,79736,1,4,0:0:0:0:
448,192,79849,1,10,0:0:0:0:
192,192,79849,1,10,0:0:0:0:
320,192,79962,1,0,0:0:0:0:
64,192,80075,1,6,0:0:0:0:
192,192,80075,1,6,0:0:0:0:
448,192,80187,1,2,0:0:0:0:
320,192,80187,1,2,0:0:0:0:
64,192,80300,1,2,0:0:0:0:
192,192,80300,1,2,0:0:0:0:
448,192,80300,128,2,80413:0:0:0:0:
320,192,80526,1,4,0:0:0:0:
64,192,80526,1,4,0:0:0:0:
448,192,80639,1,0,0:0:0:0:
192,192,80639,1,4,0:0:0:0:
320,192,80751,1,10,0:0:0:0:
64,192,80751,1,10,0:0:0:0:
192,192,80864,1,0,0:0:0:0:
320,192,80977,1,4,0:0:0:0:
448,192,80977,1,4,0:0:0:0:
192,192,81090,1,0,0:0:0:0:
448,192,81203,1,2,0:0:0:0:
320,192,81203,1,2,0:0:0:0:
64,192,81203,128,2,81315:0:0:0:0:
192,192,81428,1,4,0:0:0:0:
320,192,81428,1,4,0:0:0:0:
448,192,81541,1,0,0:0:0:0:
64,192,81541,1,4,0:0:0:0:
192,192,81654,1,10,0:0:0:0:
320,192,81654,1,10,0:0:0:0:
64,192,81766,1,0,0:0:0:0:
448,192,81879,1,6,0:0:0:0:
192,192,81879,1,6,0:0:0:0:
320,192,81992,1,2,0:0:0:0:
64,192,81992,1,2,0:0:0:0:
192,192,82105,1,2,0:0:0:0:
64,192,82105,1,2,0:0:0:0:
448,192,82105,128,2,82218:0:0:0:0:
64,192,82330,1,4,0:0:0:0:
320,192,82330,1,4,0:0:0:0:
192,192,82443,1,4,0:0:0:0:
448,192,82443,1,0,0:0:0:0:
64,192,82556,1,10,0:0:0:0:
320,192,82556,1,10,0:0:0:0:
192,192,82669,1,0,0:0:0:0:
320,192,82781,1,4,0:0:0:0:
448,192,82781,1,4,0:0:0:0:
192,192,82894,1,0,0:0:0:0:
320,192,83007,1,2,0:0:0:0:
448,192,83007,1,2,0:0:0:0:
64,192,83007,128,2,83120:0:0:0:0:
192,192,83233,1,4,0:0:0:0:
448,192,83233,1,4,0:0:0:0:
64,192,83345,1,0,0:0:0:0:
320,192,83345,1,4,0:0:0:0:
448,192,83458,1,10,0:0:0:0:
192,192,83458,1,10,0:0:0:0:
320,192,83571,1,0,0:0:0:0:
64,192,83684,1,6,0:0:0:0:
192,192,83684,1,6,0:0:0:0:
448,192,83796,1,2,0:0:0:0:
320,192,83796,1,2,0:0:0:0:
192,192,83909,1,2,0:0:0:0:
64,192,83909,1,2,0:0:0:0:
448,192,83909,128,2,84022:0:0:0:0:
192,192,84135,1,4,0:0:0:0:
64,192,84135,1,4,0:0:0:0:
448,192,84248,1,0,0:0:0:0:
320,192,84248,1,4,0:0:0:0:
192,192,84360,1,10,0:0:0:0:
64,192,84360,1,10,0:0:0:0:
448,192,84473,1,2,0:0:0:0:
320,192,84473,1,2,0:0:0:0:
64,192,84473,128,2,84699:0:0:0:0:
320,192,84586,1,6,0:0:0:0:
448,192,84586,1,6,0:0:0:0:
448,192,84699,1,2,0:0:0:0:
320,192,84699,1,2,0:0:0:0:
192,192,84812,1,2,0:0:0:0:
64,192,84812,1,2,0:0:0:0:
448,192,84812,128,2,84924:0:0:0:0:
320,192,85037,1,4,0:0:0:0:
64,192,85037,1,4,0:0:0:0:
448,192,85150,1,4,0:0:0:0:
192,192,85150,1,0,0:0:0:0:
320,192,85263,1,10,0:0:0:0:
64,192,85263,1,10,0:0:0:0:
448,192,85375,1,0,0:0:0:0:
64,192,85488,1,6,0:0:0:0:
192,192,85488,1,6,0:0:0:0:
448,192,85601,1,2,0:0:0:0:
320,192,85601,1,2,0:0:0:0:
448,192,85714,1,2,0:0:0:0:
192,192,85714,1,2,0:0:0:0:
64,192,85714,128,2,85827:0:0:0:0:
192,192,85939,1,4,0:0:0:0:
320,192,85939,1,4,0:0:0:0:
448,192,86052,1,0,0:0:0:0:
64,192,86052,1,4,0:0:0:0:
192,192,86165,1,10,0:0:0:0:
320,192,86165,1,10,0:0:0:0:
448,192,86278,1,0,0:0:0:0:
64,192,86390,1,4,0:0:0:0:
320,192,86390,1,4,0:0:0:0:
192,192,86503,1,0,0:0:0:0:
320,192,86616,1,2,0:0:0:0:
64,192,86616,1,2,0:0:0:0:
448,192,86616,128,2,86729:0:0:0:0:
320,192,86842,1,4,0:0:0:0:
64,192,86842,1,4,0:0:0:0:
192,192,86954,1,0,0:0:0:0:
448,192,86954,1,4,0:0:0:0:
320,192,87067,1,10,0:0:0:0:
64,192,87067,1,10,0:0:0:0:
192,192,87180,1,0,0:0:0:0:
64,192,87293,1,6,0:0:0:0:
448,192,87293,1,6,0:0:0:0:
192,192,87406,1,2,0:0:0:0:
320,192,87406,1,2,0:0:0:0:
320,192,87518,1,2,0:0:0:0:
448,192,87518,1,2,0:0:0:0:
64,192,87518,128,2,87631:0:0:0:0:
320,192,87744,1,4,0:0:0:0:
448,192,87744,1,4,0:0:0:0:
64,192,87857,1,4,0:0:0:0:
192,192,87857,1,0,0:0:0:0:
320,192,87969,1,10,0:0:0:0:
448,192,87969,1,10,0:0:0:0:
192,192,88082,1,0,0:0:0:0:
64,192,88195,1,4,0:0:0:0:
320,192,88195,1,4,0:0:0:0:
192,192,88308,1,0,0:0:0:0:
320,192,88421,1,2,0:0:0:0:
64,192,88421,1,2,0:0:0:0:
448,192,88421,128,2,88533:0:0:0:0:
192,192,88646,1,4,0:0:0:0:
64,192,88646,1,4,0:0:0:0:
320,192,88759,1,4,0:0:0:0:
448,192,88759,1,0,0:0:0:0:
64,192,88872,1,10,0:0:0:0:
192,192,88872,1,10,0:0:0:0:
320,192,88984,1,0,0:0:0:0:
64,192,89097,1,6,0:0:0:0:
448,192,89097,1,6,0:0:0:0:
320,192,89210,1,2,0:0:0:0:
192,192,89210,1,2,0:0:0:0:
192,192,89323,1,2,0:0:0:0:
448,192,89323,1,2,0:0:0:0:
64,192,89323,128,2,89436:0:0:0:0:
192,192,89548,1,4,0:0:0:0:
448,192,89548,1,4,0:0:0:0:
64,192,89661,1,4,0:0:0:0:
320,192,89661,1,0,0:0:0:0:
192,192,89774,1,10,0:0:0:0:
448,192,89774,1,10,0:0:0:0:
64,192,89887,1,0,0:0:0:0:
448,192,89999,1,4,0:0:0:0:
320,192,89999,1,4,0:0:0:0:
192,192,90112,1,2,0:0:0:0:
64,192,90112,1,2,0:0:0:0:
448,192,90225,1,2,0:0:0:0:
320,192,90225,1,2,0:0:0:0:
64,192,90225,1,2,0:0:0:0:
64,192,90563,1,2,0:0:0:0:
192,192,90563,1,2,0:0:0:0:
320,192,90676,1,2,0:0:0:0:
64,192,90676,1,2,0:0:0:0:
448,192,90676,1,2,0:0:0:0:
64,192,91015,1,2,0:0:0:0:
192,192,91015,1,2,0:0:0:0:
448,192,91127,1,2,0:0:0:0:
320,192,91127,1,2,0:0:0:0:
64,192,91127,1,2,0:0:0:0:
448,192,91278,1,2,0:0:0:0:
64,192,91278,1,2,0:0:0:0:
320,192,91278,1,2,0:0:0:0:
64,192,91428,1,2,0:0:0:0:
320,192,91428,1,2,0:0:0:0:
448,192,91428,1,2,0:0:0:0:
448,192,91578,1,10,0:0:0:0:
320,192,91578,1,10,0:0:0:0:
192,192,91578,1,10,0:0:0:0:
64,192,91578,1,10,0:0:0:0:
64,192,92030,1,2,0:0:0:0:
192,192,92030,1,2,0:0:0:0:
448,192,92030,1,2,0:0:0:0:
192,192,92255,1,4,0:0:0:0:
320,192,92255,1,4,0:0:0:0:
448,192,92481,1,8,0:0:0:0:
320,192,92481,1,8,0:0:0:0:
64,192,92706,1,4,0:0:0:0:
192,192,92706,1,4,0:0:0:0:
192,192,92819,1,0,0:0:0:0:
320,192,92819,1,0,0:0:0:0:
64,192,92932,1,0,0:0:0:0:
448,192,93045,1,0,0:0:0:0:
320,192,93045,1,0,0:0:0:0:
192,192,93157,1,4,0:0:0:0:
64,192,93270,1,0,0:0:0:0:
320,192,93270,1,0,0:0:0:0:
448,192,93383,1,8,0:0:0:0:
192,192,93383,1,8,0:0:0:0:
320,192,93609,1,4,0:0:0:0:
448,192,93609,1,4,0:0:0:0:
64,192,93834,1,0,0:0:0:0:
192,192,93834,1,0,0:0:0:0:
192,192,94060,1,4,0:0:0:0:
320,192,94060,1,4,0:0:0:0:
448,192,94285,1,8,0:0:0:0:
320,192,94285,1,8,0:0:0:0:
64,192,94511,1,4,0:0:0:0:
192,192,94511,1,4,0:0:0:0:
320,192,94624,1,0,0:0:0:0:
192,192,94624,1,0,0:0:0:0:
64,192,94736,1,0,0:0:0:0:
448,192,94849,1,0,0:0:0:0:
320,192,94849,1,0,0:0:0:0:
64,192,94962,1,4,0:0:0:0:
192,192,95075,1,0,0:0:0:0:
448,192,95075,1,0,0:0:0:0:
320,192,95187,1,8,0:0:0:0:
64,192,95187,1,8,0:0:0:0:
192,192,95413,1,4,0:0:0:0:
64,192,95413,1,4,0:0:0:0:
64,192,95639,1,0,0:0:0:0:
320,192,95639,1,0,0:0:0:0:
448,192,95864,1,4,0:0:0:0:
192,192,95864,1,4,0:0:0:0:
320,192,96090,1,8,0:0:0:0:
448,192,96090,1,8,0:0:0:0:
64,192,96315,1,4,0:0:0:0:
320,192,96315,1,4,0:0:0:0:
192,192,96428,1,0,0:0:0:0:
448,192,96428,1,0,0:0:0:0:
64,192,96541,1,0,0:0:0:0:
320,192,96654,1,0,0:0:0:0:
448,192,96654,1,0,0:0:0:0:
192,192,96766,1,4,0:0:0:0:
64,192,96879,1,0,0:0:0:0:
320,192,96879,1,0,0:0:0:0:
192,192,96992,1,8,0:0:0:0:
448,192,96992,1,8,0:0:0:0:
448,192,97218,1,4,0:0:0:0:
320,192,97218,1,4,0:0:0:0:
320,192,97443,1,0,0:0:0:0:
64,192,97443,1,0,0:0:0:0:
192,192,97669,1,4,0:0:0:0:
448,192,97669,1,4,0:0:0:0:
448,192,97894,1,8,0:0:0:0:
320,192,97894,1,8,0:0:0:0:
192,192,98007,1,0,0:0:0:0:
64,192,98007,1,0,0:0:0:0:
320,192,98120,1,4,0:0:0:0:
448,192,98120,1,4,0:0:0:0:
192,192,98233,1,0,0:0:0:0:
64,192,98233,1,0,0:0:0:0:
320,192,98345,1,0,0:0:0:0:
192,192,98458,1,0,0:0:0:0:
448,192,98458,1,0,0:0:0:0:
64,192,98571,1,4,0:0:0:0:
320,192,98571,1,4,0:0:0:0:
64,192,98796,1,8,0:0:0:0:
320,192,98796,1,8,0:0:0:0:
64,192,99022,1,4,0:0:0:0:
192,192,99022,1,4,0:0:0:0:
192,192,99248,1,0,0:0:0:0:
64,192,99248,1,0,0:0:0:0:
192,192,99473,1,4,0:0:0:0:
320,192,99473,1,4,0:0:0:0:
448,192,99699,1,8,0:0:0:0:
320,192,99699,1,8,0:0:0:0:
64,192,99924,1,4,0:0:0:0:
192,192,99924,1,4,0:0:0:0:
320,192,100037,1,0,0:0:0:0:
192,192,100037,1,0,0:0:0:0:
64,192,100150,1,0,0:0:0:0:
320,192,100263,1,0,0:0:0:0:
448,192,100263,1,0,0:0:0:0:
192,192,100375,1,4,0:0:0:0:
320,192,100488,1,0,0:0:0:0:
64,192,100488,1,0,0:0:0:0:
448,192,100601,1,8,0:0:0:0:
192,192,100601,1,8,0:0:0:0:
320,192,100827,1,4,0:0:0:0:
448,192,100827,1,4,0:0:0:0:
192,192,101052,1,0,0:0:0:0:
64,192,101052,1,0,0:0:0:0:
192,192,101278,1,4,0:0:0:0:
320,192,101278,1,4,0:0:0:0:
448,192,101503,1,8,0:0:0:0:
320,192,101503,1,8,0:0:0:0:
192,192,101729,1,4,0:0:0:0:
64,192,101729,1,4,0:0:0:0:
320,192,101842,1,0,0:0:0:0:
192,192,101842,1,0,0:0:0:0:
64,192,101954,1,0,0:0:0:0:
448,192,102067,1,0,0:0:0:0:
320,192,102067,1,0,0:0:0:0:
64,192,102180,1,4,0:0:0:0:
448,192,102293,1,0,0:0:0:0:
192,192,102293,1,0,0:0:0:0:
320,192,102406,1,8,0:0:0:0:
64,192,102406,1,8,0:0:0:0:
192,192,102631,1,4,0:0:0:0:
64,192,102631,1,4,0:0:0:0:
320,192,102857,1,0,0:0:0:0:
64,192,102857,1,0,0:0:0:0:
448,192,103082,1,4,0:0:0:0:
192,192,103082,1,4,0:0:0:0:
448,192,103308,1,8,0:0:0:0:
320,192,103308,1,8,0:0:0:0:
320,192,103533,1,4,0:0:0:0:
64,192,103533,1,4,0:0:0:0:
448,192,103646,1,0,0:0:0:0:
192,192,103646,1,0,0:0:0:0:
64,192,103759,1,0,0:0:0:0:
448,192,103872,1,0,0:0:0:0:
320,192,103872,1,0,0:0:0:0:
192,192,103984,1,4,0:0:0:0:
320,192,104097,1,0,0:0:0:0:
64,192,104097,1,0,0:0:0:0:
192,192,104210,1,8,0:0:0:0:
448,192,104210,1,8,0:0:0:0:
320,192,104436,1,4,0:0:0:0:
448,192,104436,1,4,0:0:0:0:
64,192,104661,1,0,0:0:0:0:
320,192,104661,1,0,0:0:0:0:
192,192,104887,1,4,0:0:0:0:
448,192,104887,1,4,0:0:0:0:
448,192,105112,1,8,0:0:0:0:
192,192,105112,1,8,0:0:0:0:
320,192,105225,1,0,0:0:0:0:
64,192,105225,1,0,0:0:0:0:
448,192,105338,1,4,0:0:0:0:
192,192,105338,1,4,0:0:0:0:
64,192,105451,1,0,0:0:0:0:
320,192,105451,1,0,0:0:0:0:
320,192,105563,1,0,0:0:0:0:
448,192,105563,1,0,0:0:0:0:
192,192,105676,1,0,0:0:0:0:
64,192,105676,1,0,0:0:0:0:
448,192,105789,1,4,0:0:0:0:
320,192,105789,1,4,0:0:0:0:
64,192,105902,1,0,0:0:0:0:
192,192,105902,1,0,0:0:0:0:
448,192,106015,128,8,106240:0:0:0:0:
320,192,106015,128,8,106240:0:0:0:0:
192,192,106240,1,4,0:0:0:0:
64,192,106466,1,2,0:0:0:0:
320,192,106466,1,2,0:0:0:0:
448,192,106578,1,2,0:0:0:0:
192,192,106578,1,2,0:0:0:0:
320,192,106691,1,2,0:0:0:0:
448,192,106691,1,2,0:0:0:0:
64,192,106917,1,2,0:0:0:0:
192,192,106917,1,2,0:0:0:0:
64,192,107142,1,2,0:0:0:0:
320,192,107142,1,2,0:0:0:0:
448,192,107255,1,2,0:0:0:0:
192,192,107255,1,2,0:0:0:0:
64,192,107481,1,2,0:0:0:0:
192,192,107481,1,2,0:0:0:0:
448,192,107593,1,2,0:0:0:0:
320,192,107593,1,2,0:0:0:0:
64,192,107706,1,2,0:0:0:0:
192,192,107706,1,2,0:0:0:0:
448,192,107819,1,10,0:0:0:0:
320,192,107819,1,10,0:0:0:0:
64,192,107819,1,10,0:0:0:0:
448,192,108270,1,2,0:0:0:0:
192,192,108270,1,2,0:0:0:0:
64,192,108270,1,2,0:0:0:0:
320,192,108383,1,0,0:0:0:0:
192,192,108496,1,4,0:0:0:0:
448,192,108496,1,4,0:0:0:0:
64,192,108609,1,0,0:0:0:0:
192,192,108721,1,2,0:0:0:0:
320,192,108721,1,2,0:0:0:0:
448,192,108834,1,0,0:0:0:0:
64,192,108947,1,4,0:0:0:0:
320,192,108947,1,4,0:0:0:0:
192,192,109060,1,0,0:0:0:0:
64,192,109172,1,2,0:0:0:0:
448,192,109172,1,2,0:0:0:0:
192,192,109285,1,0,0:0:0:0:
320,192,109398,1,4,0:0:0:0:
192,192,109511,1,0,0:0:0:0:
64,192,109624,1,2,0:0:0:0:
448,192,109624,1,2,0:0:0:0:
320,192,109736,1,0,0:0:0:0:
192,192,109849,1,4,0:0:0:0:
448,192,109849,1,4,0:0:0:0:
320,192,109962,1,0,0:0:0:0:
64,192,110075,1,2,0:0:0:0:
448,192,110075,1,2,0:0:0:0:
320,192,110187,1,0,0:0:0:0:
192,192,110300,1,4,0:0:0:0:
448,192,110300,1,4,0:0:0:0:
64,192,110413,1,0,0:0:0:0:
192,192,110526,1,2,0:0:0:0:
320,192,110526,1,2,0:0:0:0:
448,192,110639,1,0,0:0:0:0:
320,192,110751,1,4,0:0:0:0:
64,192,110751,1,4,0:0:0:0:
192,192,110864,1,0,0:0:0:0:
448,192,110977,1,2,0:0:0:0:
64,192,110977,128,2,111090:0:0:0:0:
192,192,111090,128,0,111203:0:0:0:0:
448,192,111203,128,4,111315:0:0:0:0:
320,192,111315,128,0,111428:0:0:0:0:
64,192,111428,128,2,111541:0:0:0:0:
448,192,111428,1,2,0:0:0:0:
192,192,111541,128,0,111654:0:0:0:0:
448,192,111654,128,4,111766:0:0:0:0:
320,192,111766,128,0,111879:0:0:0:0:
64,192,111879,1,2,0:0:0:0:
448,192,111879,1,2,0:0:0:0:
320,192,111992,1,0,0:0:0:0:
192,192,112105,1,4,0:0:0:0:
448,192,112105,1,4,0:0:0:0:
64,192,112218,1,0,0:0:0:0:
320,192,112330,1,2,0:0:0:0:
192,192,112330,1,2,0:0:0:0:
448,192,112443,1,0,0:0:0:0:
320,192,112556,1,4,0:0:0:0:
64,192,112556,1,4,0:0:0:0:
192,192,112669,1,0,0:0:0:0:
448,192,112781,1,2,0:0:0:0:
64,192,112781,1,2,0:0:0:0:
320,192,112894,1,0,0:0:0:0:
192,192,113007,1,4,0:0:0:0:
448,192,113007,1,4,0:0:0:0:
64,192,113120,1,0,0:0:0:0:
448,192,113233,1,2,0:0:0:0:
320,192,113233,1,2,0:0:0:0:
192,192,113345,1,0,0:0:0:0:
64,192,113458,1,4,0:0:0:0:
320,192,113458,1,4,0:0:0:0:
192,192,113571,1,0,0:0:0:0:
64,192,113684,1,2,0:0:0:0:
448,192,113684,1,2,0:0:0:0:
192,192,113796,1,0,0:0:0:0:
320,192,113909,1,4,0:0:0:0:
64,192,113909,1,4,0:0:0:0:
192,192,114022,1,0,0:0:0:0:
320,192,114135,1,2,0:0:0:0:
448,192,114135,1,2,0:0:0:0:
192,192,114248,1,0,0:0:0:0:
448,192,114360,1,4,0:0:0:0:
64,192,114360,1,4,0:0:0:0:
192,192,114473,1,0,0:0:0:0:
64,192,114586,128,2,114699:0:0:0:0:
320,192,114586,1,2,0:0:0:0:
192,192,114699,128,0,114812:0:0:0:0:
448,192,114812,128,4,114924:0:0:0:0:
320,192,114924,128,0,115037:0:0:0:0:
192,192,115037,1,2,0:0:0:0:
64,192,115037,1,2,0:0:0:0:
448,192,115150,1,0,0:0:0:0:
192,192,115263,1,4,0:0:0:0:
320,192,115263,1,4,0:0:0:0:
64,192,115375,1,0,0:0:0:0:
320,192,115488,1,2,0:0:0:0:
448,192,115488,1,2,0:0:0:0:
64,192,115601,1,0,0:0:0:0:
448,192,115714,1,4,0:0:0:0:
192,192,115714,1,4,0:0:0:0:
320,192,115827,1,0,0:0:0:0:
64,192,115939,1,2,0:0:0:0:
192,192,115939,1,2,0:0:0:0:
320,192,116052,1,0,0:0:0:0:
64,192,116165,1,4,0:0:0:0:
448,192,116165,1,4,0:0:0:0:
192,192,116278,1,0,0:0:0:0:
320,192,116390,1,2,0:0:0:0:
448,192,116390,1,2,0:0:0:0:
192,192,116503,1,0,0:0:0:0:
320,192,116616,1,4,0:0:0:0:
192,192,116729,1,0,0:0:0:0:
64,192,116842,1,2,0:0:0:0:
448,192,116842,1,2,0:0:0:0:
192,192,116954,1,0,0:0:0:0:
320,192,117067,1,4,0:0:0:0:
448,192,117067,1,4,0:0:0:0:
192,192,117180,1,0,0:0:0:0:
64,192,117293,1,2,0:0:0:0:
320,192,117293,1,2,0:0:0:0:
192,192,117406,1,0,0:0:0:0:
320,192,117518,1,4,0:0:0:0:
448,192,117518,1,4,0:0:0:0:
64,192,117631,1,0,0:0:0:0:
192,192,117744,1,2,0:0:0:0:
320,192,117744,1,2,0:0:0:0:
448,192,117857,1,0,0:0:0:0:
64,192,117969,1,4,0:0:0:0:
320,192,117969,1,4,0:0:0:0:
192,192,118082,1,0,0:0:0:0:
64,192,118195,128,2,118308:0:0:0:0:
448,192,118195,1,2,0:0:0:0:
192,192,118308,128,0,118421:0:0:0:0:
448,192,118421,128,4,118533:0:0:0:0:
320,192,118533,128,0,118646:0:0:0:0:
64,192,118646,128,2,118759:0:0:0:0:
448,192,118646,1,2,0:0:0:0:
192,192,118759,128,0,118872:0:0:0:0:
448,192,118872,128,4,118984:0:0:0:0:
320,192,118984,128,0,119097:0:0:0:0:
448,192,119097,1,2,0:0:0:0:
64,192,119097,1,2,0:0:0:0:
320,192,119210,1,0,0:0:0:0:
448,192,119323,1,4,0:0:0:0:
192,192,119323,1,4,0:0:0:0:
64,192,119436,1,0,0:0:0:0:
192,192,119548,1,2,0:0:0:0:
320,192,119548,1,2,0:0:0:0:
448,192,119661,1,0,0:0:0:0:
320,192,119774,1,4,0:0:0:0:
64,192,119774,1,4,0:0:0:0:
448,192,119887,1,0,0:0:0:0:
64,192,119999,1,2,0:0:0:0:
192,192,119999,1,2,0:0:0:0:
448,192,120112,1,0,0:0:0:0:
320,192,120225,1,4,0:0:0:0:
64,192,120225,1,4,0:0:0:0:
192,192,120338,1,0,0:0:0:0:
448,192,120451,1,2,0:0:0:0:
64,192,120451,1,2,0:0:0:0:
320,192,120563,1,0,0:0:0:0:
448,192,120676,1,4,0:0:0:0:
192,192,120676,1,4,0:0:0:0:
64,192,120789,1,0,0:0:0:0:
320,192,120902,1,2,0:0:0:0:
192,192,120902,1,2,0:0:0:0:
448,192,121015,1,0,0:0:0:0:
64,192,121127,1,4,0:0:0:0:
320,192,121127,1,4,0:0:0:0:
448,192,121240,1,0,0:0:0:0:
64,192,121353,1,2,0:0:0:0:
192,192,121353,1,2,0:0:0:0:
320,192,121466,1,0,0:0:0:0:
64,192,121578,1,4,0:0:0:0:
448,192,121578,1,4,0:0:0:0:
192,192,121691,1,0,0:0:0:0:
448,192,121804,1,2,0:0:0:0:
64,192,121804,128,2,121917:0:0:0:0:
192,192,121917,128,0,122030:0:0:0:0:
448,192,122030,128,4,122142:0:0:0:0:
320,192,122142,128,0,122255:0:0:0:0:
448,192,122255,1,2,0:0:0:0:
64,192,122255,1,2,0:0:0:0:
192,192,122368,1,0,0:0:0:0:
448,192,122481,1,6,0:0:0:0:
320,192,122481,1,6,0:0:0:0:
192,192,122593,1,0,0:0:0:0:
64,192,122706,1,2,0:0:0:0:
320,192,122706,1,2,0:0:0:0:
448,192,122706,128,2,123157:0:0:0:0:
192,192,122819,1,0,0:0:0:0:
64,192,122932,1,4,0:0:0:0:
320,192,122932,1,4,0:0:0:0:
192,192,123045,1,4,0:0:0:0:
64,192,123157,1,10,0:0:0:0:
320,192,123157,1,10,0:0:0:0:
448,192,123270,1,0,0:0:0:0:
64,192,123383,1,4,0:0:0:0:
192,192,123383,128,4,123496:0:0:0:0:
448,192,123496,1,0,0:0:0:0:
320,192,123496,128,0,123609:0:0:0:0:
64,192,123609,1,2,0:0:0:0:
192,192,123609,128,2,124060:0:0:0:0:
448,192,123721,1,0,0:0:0:0:
320,192,123834,1,4,0:0:0:0:
448,192,123947,1,4,0:0:0:0:
320,192,124060,1,10,0:0:0:0:
64,192,124060,1,10,0:0:0:0:
192,192,124172,1,0,0:0:0:0:
64,192,124285,1,4,0:0:0:0:
448,192,124285,1,4,0:0:0:0:
320,192,124398,1,0,0:0:0:0:
448,192,124511,1,2,0:0:0:0:
64,192,124511,128,2,124962:0:0:0:0:
192,192,124624,1,0,0:0:0:0:
448,192,124736,1,4,0:0:0:0:
320,192,124736,1,4,0:0:0:0:
192,192,124849,1,4,0:0:0:0:
320,192,124962,1,10,0:0:0:0:
448,192,124962,128,10,125413:0:0:0:0:
64,192,125075,1,0,0:0:0:0:
320,192,125187,1,4,0:0:0:0:
192,192,125187,1,4,0:0:0:0:
64,192,125300,1,0,0:0:0:0:
192,192,125413,128,2,125639:0:0:0:0:
320,192,125413,128,2,125526:0:0:0:0:
448,192,125526,128,0,125639:0:0:0:0:
64,192,125639,128,4,125864:0:0:0:0:
320,192,125639,128,4,125751:0:0:0:0:
192,192,125751,128,0,125864:0:0:0:0:
448,192,125864,128,10,126090:0:0:0:0:
320,192,125864,128,10,125977:0:0:0:0:
192,192,125977,128,0,126090:0:0:0:0:
320,192,126090,128,4,126315:0:0:0:0:
64,192,126090,128,4,126203:0:0:0:0:
448,192,126203,128,0,126315:0:0:0:0:
192,192,126315,1,2,0:0:0:0:
64,192,126315,128,2,126766:0:0:0:0:
320,192,126428,1,0,0:0:0:0:
448,192,126541,1,4,0:0:0:0:
192,192,126541,1,4,0:0:0:0:
320,192,126654,1,4,0:0:0:0:
192,192,126766,1,10,0:0:0:0:
448,192,126766,1,10,0:0:0:0:
64,192,126879,1,0,0:0:0:0:
448,192,126992,1,4,0:0:0:0:
320,192,126992,1,4,0:0:0:0:
192,192,127105,1,0,0:0:0:0:
64,192,127218,1,2,0:0:0:0:
448,192,127218,128,2,127669:0:0:0:0:
320,192,127330,1,0,0:0:0:0:
64,192,127443,1,4,0:0:0:0:
192,192,127443,1,4,0:0:0:0:
320,192,127556,1,4,0:0:0:0:
192,192,127669,1,10,0:0:0:0:
64,192,127669,1,10,0:0:0:0:
448,192,127781,1,0,0:0:0:0:
64,192,127894,1,4,0:0:0:0:
320,192,127894,1,4,0:0:0:0:
192,192,128007,1,0,0:0:0:0:
64,192,128120,1,2,0:0:0:0:
320,192,128120,128,2,128571:0:0:0:0:
448,192,128120,1,2,0:0:0:0:
192,192,128233,1,0,0:0:0:0:
64,192,128345,1,4,0:0:0:0:
448,192,128345,1,4,0:0:0:0:
192,192,128458,1,4,0:0:0:0:
64,192,128571,1,10,0:0:0:0:
448,192,128571,128,10,129022:0:0:0:0:
192,192,128684,1,0,0:0:0:0:
320,192,128796,1,4,0:0:0:0:
64,192,128796,1,4,0:0:0:0:
192,192,128909,1,0,0:0:0:0:
64,192,129022,128,2,129135:0:0:0:0:
320,192,129022,128,2,129473:0:0:0:0:
192,192,129135,128,0,129248:0:0:0:0:
448,192,129248,128,4,129360:0:0:0:0:
192,192,129360,128,4,129473:0:0:0:0:
448,192,129473,1,10,0:0:0:0:
64,192,129473,128,10,129924:0:0:0:0:
320,192,129586,1,0,0:0:0:0:
448,192,129699,1,4,0:0:0:0:
192,192,129699,1,4,0:0:0:0:
320,192,129812,1,0,0:0:0:0:
192,192,129924,1,2,0:0:0:0:
320,192,129924,1,2,0:0:0:0:
448,192,129924,128,2,130375:0:0:0:0:
64,192,130037,1,0,0:0:0:0:
320,192,130150,1,4,0:0:0:0:
192,192,130150,1,4,0:0:0:0:
64,192,130263,1,0,0:0:0:0:
192,192,130375,1,12,0:0:0:0:
320,192,130375,1,12,0:0:0:0:
448,192,130488,1,0,0:0:0:0:
192,192,130601,128,4,130714:0:0:0:0:
64,192,130601,1,4,0:0:0:0:
320,192,130714,128,0,130827:0:0:0:0:
448,192,130714,1,0,0:0:0:0:
448,192,130827,1,2,0:0:0:0:
192,192,130827,128,6,131278:0:0:0:0:
64,192,130827,1,6,0:0:0:0:
320,192,130939,1,0,0:0:0:0:
64,192,131052,1,4,0:0:0:0:
64,192,131165,1,2,0:0:0:0:
320,192,131165,1,2,0:0:0:0:
448,192,131165,1,2,0:0:0:0:
448,192,131278,1,12,0:0:0:0:
320,192,131278,1,12,0:0:0:0:
192,192,131390,1,0,0:0:0:0:
448,192,131503,1,2,0:0:0:0:
320,192,131503,1,6,0:0:0:0:
64,192,131503,1,6,0:0:0:0:
192,192,131616,1,0,0:0:0:0:
320,192,131729,1,6,0:0:0:0:
448,192,131729,1,2,0:0:0:0:
64,192,131729,128,6,132180:0:0:0:0:
192,192,131842,1,0,0:0:0:0:
320,192,131954,1,4,0:0:0:0:
448,192,131954,1,4,0:0:0:0:
192,192,132067,1,0,0:0:0:0:
320,192,132180,1,12,0:0:0:0:
448,192,132180,128,12,132631:0:0:0:0:
192,192,132293,1,0,0:0:0:0:
320,192,132406,1,4,0:0:0:0:
64,192,132406,1,4,0:0:0:0:
192,192,132518,1,0,0:0:0:0:
64,192,132631,128,4,132857:0:0:0:0:
320,192,132631,1,4,0:0:0:0:
448,192,132744,1,2,0:0:0:0:
192,192,132744,1,2,0:0:0:0:
320,192,132857,1,6,0:0:0:0:
448,192,132857,1,6,0:0:0:0:
192,192,132857,128,2,133082:0:0:0:0:
64,192,132969,1,0,0:0:0:0:
320,192,133082,1,14,0:0:0:0:
64,192,133082,1,2,0:0:0:0:
448,192,133082,128,14,133308:0:0:0:0:
192,192,133195,1,0,0:0:0:0:
192,192,133308,1,6,0:0:0:0:
64,192,133308,1,6,0:0:0:0:
320,192,133308,128,2,133533:0:0:0:0:
448,192,133421,1,0,0:0:0:0:
192,192,133533,1,6,0:0:0:0:
64,192,133533,1,6,0:0:0:0:
320,192,133646,1,2,0:0:0:0:
448,192,133646,1,2,0:0:0:0:
192,192,133759,1,6,0:0:0:0:
64,192,133759,1,6,0:0:0:0:
320,192,133872,1,2,0:0:0:0:
448,192,133872,1,2,0:0:0:0:
192,192,133984,1,14,0:0:0:0:
64,192,133984,1,14,0:0:0:0:
448,192,134097,1,2,0:0:0:0:
320,192,134097,1,2,0:0:0:0:
64,192,134210,1,6,0:0:0:0:
192,192,134210,1,6,0:0:0:0:
320,192,134266,1,2,0:0:0:0:
448,192,134266,1,2,0:0:0:0:
192,192,134323,1,2,0:0:0:0:
64,192,134323,1,2,0:0:0:0:
320,192,134379,1,2,0:0:0:0:
448,192,134379,1,2,0:0:0:0:
64,192,134436,1,6,0:0:0:0:
192,192,134436,1,6,0:0:0:0:
448,192,134548,1,2,0:0:0:0:
320,192,134548,1,2,0:0:0:0:
192,192,134661,1,6,0:0:0:0:
64,192,134661,1,6,0:0:0:0:
320,192,134774,1,2,0:0:0:0:
448,192,134774,1,2,0:0:0:0:
192,192,134887,1,14,0:0:0:0:
64,192,134887,1,14,0:0:0:0:
448,192,134999,1,2,0:0:0:0:
320,192,134999,1,2,0:0:0:0:
192,192,135112,1,6,0:0:0:0:
64,192,135112,1,6,0:0:0:0:
320,192,135169,1,2,0:0:0:0:
448,192,135169,1,2,0:0:0:0:
192,192,135225,1,2,0:0:0:0:
64,192,135225,1,2,0:0:0:0:
320,192,135281,1,2,0:0:0:0:
448,192,135281,1,2,0:0:0:0:
64,192,135338,1,6,0:0:0:0:
192,192,135338,1,6,0:0:0:0:
320,192,135451,1,2,0:0:0:0:
448,192,135451,1,2,0:0:0:0:
320,192,135563,1,6,0:0:0:0:
192,192,135563,1,6,0:0:0:0:
448,192,135620,1,2,0:0:0:0:
64,192,135620,1,2,0:0:0:0:
320,192,135676,1,2,0:0:0:0:
192,192,135676,1,2,0:0:0:0:
448,192,135733,1,2,0:0:0:0:
64,192,135733,1,2,0:0:0:0:
192,192,135789,1,14,0:0:0:0:
320,192,135789,1,14,0:0:0:0:
64,192,135902,1,2,0:0:0:0:
448,192,135902,1,2,0:0:0:0:
448,192,136015,1,6,0:0:0:0:
192,192,136015,1,6,0:0:0:0:
320,192,136071,1,2,0:0:0:0:
64,192,136071,1,2,0:0:0:0:
192,192,136127,1,2,0:0:0:0:
448,192,136127,1,2,0:0:0:0:
64,192,136184,1,2,0:0:0:0:
320,192,136184,1,2,0:0:0:0:
192,192,136240,1,6,0:0:0:0:
448,192,136240,1,6,0:0:0:0:
320,192,136353,1,0,0:0:0:0:
192,192,136466,1,6,0:0:0:0:
64,192,136466,1,6,0:0:0:0:
448,192,136466,1,2,0:0:0:0:
448,192,136691,1,2,0:0:0:0:
192,192,136691,1,2,0:0:0:0:
64,192,136691,1,2,0:0:0:0:
320,192,136691,1,2,0:0:0:0:
