osu file format v13

[General]
AudioFilename: aihana.mp3
AudioLeadIn: 0
PreviewTime: 101136
Countdown: 0
SampleSet: Soft
StackLeniency: 0.7
Mode: 3
LetterboxInBreaks: 0
SpecialStyle: 0
WidescreenStoryboard: 1

[Editor]
Bookmarks: 15422,29136,42850,56565
DistanceSpacing: 0.8
BeatDivisor: 4
GridSize: 32
TimelineZoom: 1.9

[Metadata]
Title:Aihana (Love+ Edit)
TitleUnicode:Aihana (Love+ Edit)
Artist:Junk
ArtistUnicode:高嶺 愛花
Creator:richardfeder
Version:Normal
Source:BMS
Tags:Uplifting Trance BOF2009 LOVEPLUS Takane Manaka Simple_Star
BeatmapID:458797
BeatmapSetID:190529

[Difficulty]
HPDrainRate:7.5
CircleSize:7
OverallDifficulty:7.5
ApproachRate:5
SliderMultiplier:1.4
SliderTickRate:1

[Events]
//Background and Video events
0,0,"BG2.jpg",0,0
//Break Periods
//Storyboard Layer 0 (Background)
//Storyboard Layer 1 (Fail)
//Storyboard Layer 2 (Pass)
//Storyboard Layer 3 (Foreground)
//Storyboard Sound Samples
//Background Colour Transformations
3,100,163,162,255

[TimingPoints]
1692,428.571428571429,4,2,0,25,1,0

[HitObjects]
36,192,1692,5,0,0:0:0:70:kick.wav
182,192,2120,1,0,0:0:0:70:kick.wav
36,192,2549,1,0,0:0:0:70:kick.wav
182,192,2977,1,0,0:0:0:70:kick.wav
36,192,3406,1,0,0:0:0:70:kick.wav
182,192,3834,1,0,0:0:0:70:kick.wav
36,192,4263,1,0,0:0:0:70:kick.wav
182,192,4692,1,0,0:0:0:70:kick.wav
36,192,5120,1,0,0:0:0:70:kick.wav
182,192,5549,1,0,0:0:0:70:kick.wav
36,192,5977,1,0,0:0:0:70:kick.wav
182,192,6406,1,0,0:0:0:70:kick.wav
36,192,6834,1,0,0:0:0:70:kick.wav
182,192,7263,1,0,0:0:0:70:kick.wav
36,192,7692,1,0,0:0:0:70:kick.wav
182,192,8120,1,0,0:0:0:70:kick.wav
329,192,8334,1,0,0:0:0:70:kick.wav
36,192,8549,1,0,0:0:0:70:kick.wav
475,192,8977,1,0,0:0:0:0:
36,192,9406,1,0,0:0:0:70:kick.wav
475,192,9834,1,0,0:0:0:0:
36,192,10263,1,0,0:0:0:70:kick.wav
475,192,10692,1,0,0:0:0:0:
36,192,11120,1,0,0:0:0:70:kick.wav
475,192,11549,1,0,0:0:0:0:
36,192,11977,1,0,0:0:0:70:kick.wav
475,192,12406,1,0,0:0:0:0:
36,192,12834,1,0,0:0:0:70:kick.wav
475,192,13263,1,0,0:0:0:0:
36,192,13692,1,0,0:0:0:70:kick.wav
36,192,15406,1,0,0:0:0:70:kick.wav
475,192,15834,1,0,0:0:0:0:
36,192,16263,1,0,0:0:0:70:kick.wav
475,192,16692,1,0,0:0:0:0:
36,192,17120,1,0,0:0:0:70:kick.wav
109,192,17334,1,0,0:0:0:0:
475,192,17549,1,0,0:0:0:0:
329,192,17549,1,0,0:0:0:0:
256,192,17656,1,0,0:0:0:0:
182,192,17763,1,0,0:0:0:0:
36,192,17977,1,0,0:0:0:70:kick.wav
402,192,17977,1,0,0:0:0:0:
182,192,18299,1,0,0:0:0:0:
475,192,18406,1,0,0:0:0:0:
256,192,18620,1,0,0:0:0:0:
36,192,18834,1,0,0:0:0:70:kick.wav
109,192,19049,1,0,0:0:0:0:
329,192,19263,1,0,0:0:0:0:
475,192,19263,1,0,0:0:0:0:
256,192,19370,1,0,0:0:0:0:
182,192,19477,1,0,0:0:0:0:
402,192,19692,1,0,0:0:0:70:kick.wav
36,192,19692,1,0,0:0:0:0:
182,192,20013,1,0,0:0:0:0:
475,192,20120,1,0,0:0:0:0:
256,192,20334,1,0,0:0:0:0:
36,192,20549,1,0,0:0:0:70:kick.wav
109,192,20763,1,0,0:0:0:0:
475,192,20977,1,0,0:0:0:0:
329,192,20977,1,0,0:0:0:0:
256,192,21084,1,0,0:0:0:0:
182,192,21192,1,0,0:0:0:0:
36,192,21406,1,0,0:0:0:70:kick.wav
256,192,21406,1,0,0:0:0:0:
329,192,21727,1,0,0:0:0:0:
475,192,21834,1,0,0:0:0:0:
36,192,22049,1,0,0:0:0:0:
182,192,22049,1,0,0:0:0:0:
475,192,22263,1,0,0:0:0:70:kick.wav
182,192,22477,1,0,0:0:0:0:
402,192,22692,1,0,0:0:0:0:
36,192,22692,1,0,0:0:0:0:
256,192,22799,1,0,0:0:0:0:
109,192,22906,1,0,0:0:0:0:
329,192,23120,1,0,0:0:0:70:kick.wav
475,192,23120,1,0,0:0:0:0:
182,192,23442,1,0,0:0:0:0:
36,192,23549,1,0,0:0:0:0:
256,192,23763,1,0,0:0:0:0:
475,192,23977,1,0,0:0:0:70:kick.wav
182,192,24192,1,0,0:0:0:0:
36,192,24406,1,0,0:0:0:0:
402,192,24406,1,0,0:0:0:0:
256,192,24513,1,0,0:0:0:0:
109,192,24620,1,0,0:0:0:0:
475,192,24834,1,0,0:0:0:70:kick.wav
329,192,24834,1,0,0:0:0:0:
182,192,25156,1,0,0:0:0:0:
36,192,25263,1,0,0:0:0:0:
256,192,25477,1,0,0:0:0:0:
475,192,25692,1,0,0:0:0:70:kick.wav
182,192,25906,1,0,0:0:0:0:
36,192,26120,1,0,0:0:0:0:
402,192,26120,1,0,0:0:0:0:
256,192,26227,1,0,0:0:0:0:
109,192,26334,1,0,0:0:0:0:
475,192,26549,1,0,0:0:0:70:kick.wav
329,192,26549,1,0,0:0:0:0:
182,192,26870,1,0,0:0:0:0:
36,192,26977,1,0,0:0:0:0:
256,192,27192,1,0,0:0:0:0:
475,192,27406,1,0,0:0:0:70:kick.wav
182,192,27620,1,0,0:0:0:0:
36,192,27834,1,0,0:0:0:0:
402,192,27834,1,0,0:0:0:0:
256,192,27942,1,0,0:0:0:0:
109,192,28049,1,0,0:0:0:0:
475,192,28263,1,0,0:0:0:70:kick.wav
329,192,28263,1,0,0:0:0:0:
256,192,28584,1,0,0:0:0:0:
182,192,28906,1,0,0:0:0:0:
36,192,29120,1,4,0:0:0:70:kick.wav
475,192,29120,1,0,0:0:0:0:
182,192,29334,1,0,0:0:0:0:
329,192,29549,1,0,0:0:0:0:
402,192,29549,1,0,0:0:0:0:
182,192,29763,1,0,0:0:0:0:
36,192,29977,1,0,0:0:0:70:kick.wav
182,192,30192,1,0,0:0:0:0:
329,192,30406,1,0,0:0:0:0:
402,192,30406,1,0,0:0:0:0:
182,192,30620,1,0,0:0:0:0:
475,192,30834,1,0,0:0:0:70:kick.wav
329,192,31049,1,0,0:0:0:0:
182,192,31263,1,0,0:0:0:0:
36,192,31263,1,0,0:0:0:0:
329,192,31477,1,0,0:0:0:0:
475,192,31692,1,0,0:0:0:70:kick.wav
329,192,31906,1,0,0:0:0:0:
182,192,32120,1,0,0:0:0:0:
36,192,32120,1,0,0:0:0:0:
329,192,32334,1,0,0:0:0:0:
109,192,32549,1,0,0:0:0:70:kick.wav
182,192,32763,1,0,0:0:0:0:
475,192,32977,1,0,0:0:0:0:
256,192,32977,1,0,0:0:0:0:
182,192,33192,1,0,0:0:0:0:
109,192,33406,1,0,0:0:0:70:kick.wav
182,192,33620,1,0,0:0:0:0:
475,192,33834,1,0,0:0:0:0:
256,192,33834,1,0,0:0:0:0:
182,192,34049,1,0,0:0:0:0:
402,192,34263,1,0,0:0:0:70:kick.wav
329,192,34477,1,0,0:0:0:0:
36,192,34692,1,0,0:0:0:0:
256,192,34692,1,0,0:0:0:0:
329,192,34906,1,0,0:0:0:0:
402,192,35120,1,0,0:0:0:70:kick.wav
329,192,35334,1,0,0:0:0:0:
256,192,35549,1,0,0:0:0:0:
36,192,35549,1,0,0:0:0:0:
256,192,35763,1,0,0:0:0:70:kick.wav
256,192,35977,1,0,0:0:0:70:kick.wav
182,192,36192,1,0,0:0:0:0:
329,192,36406,1,0,0:0:0:0:
475,192,36406,1,0,0:0:0:0:
182,192,36620,1,0,0:0:0:0:
182,192,36834,1,0,0:0:0:70:kick.wav
329,192,37049,1,0,0:0:0:0:
182,192,37263,1,0,0:0:0:0:
36,192,37263,1,0,0:0:0:0:
329,192,37477,1,0,0:0:0:0:
329,192,37692,1,0,0:0:0:70:kick.wav
182,192,37906,1,0,0:0:0:0:
329,192,38120,1,0,0:0:0:0:
475,192,38120,1,0,0:0:0:0:
182,192,38334,1,0,0:0:0:0:
182,192,38549,1,0,0:0:0:70:kick.wav
329,192,38763,1,0,0:0:0:0:
182,192,38977,1,0,0:0:0:0:
36,192,38977,1,0,0:0:0:0:
329,192,39192,1,0,0:0:0:0:
182,192,39406,1,0,0:0:0:70:kick.wav
256,192,39620,1,0,0:0:0:0:
329,192,39834,1,0,0:0:0:0:
109,192,39834,1,0,0:0:0:0:
182,192,40049,1,0,0:0:0:0:
329,192,40263,1,0,0:0:0:70:kick.wav
256,192,40477,1,0,0:0:0:0:
182,192,40692,1,0,0:0:0:0:
402,192,40692,1,0,0:0:0:0:
329,192,40906,1,0,0:0:0:0:
182,192,41120,1,0,0:0:0:70:kick.wav
256,192,41334,1,0,0:0:0:0:
329,192,41549,1,0,0:0:0:0:
109,192,41549,1,0,0:0:0:0:
182,192,41763,1,0,0:0:0:0:
256,192,41977,1,0,0:0:0:70:kick.wav
36,192,42192,1,0,0:0:0:0:
109,192,42406,1,0,0:0:0:0:
182,192,42620,1,0,0:0:0:0:
475,192,42834,1,0,0:0:0:70:kick.wav
256,192,42834,128,0,44120:0:0:0:0:
36,192,43263,1,0,0:0:0:0:
182,192,43263,1,0,0:0:0:0:
475,192,43692,1,0,0:0:0:70:kick.wav
36,192,44120,1,0,0:0:0:0:
182,192,44120,1,0,0:0:0:0:
475,192,44549,1,0,0:0:0:70:kick.wav
36,192,44977,1,0,0:0:0:0:
182,192,44977,1,0,0:0:0:0:
475,192,45406,1,0,0:0:0:70:kick.wav
402,192,45834,1,0,0:0:0:0:
182,192,45834,1,0,0:0:0:0:
36,192,45834,1,0,0:0:0:0:
329,192,46049,128,0,47120:0:0:0:0:
475,192,46263,1,0,0:0:0:70:kick.wav
182,192,46692,1,0,0:0:0:0:
36,192,46692,1,0,0:0:0:0:
475,192,47120,1,0,0:0:0:70:kick.wav
182,192,47549,1,0,0:0:0:0:
36,192,47549,1,0,0:0:0:0:
256,192,47763,128,0,48620:0:0:0:0:
475,192,47977,1,0,0:0:0:70:kick.wav
182,192,48406,1,0,0:0:0:0:
36,192,48406,1,0,0:0:0:0:
109,192,48620,128,0,49049:0:0:0:0:
475,192,48834,1,0,0:0:0:70:kick.wav
402,192,49049,1,0,0:0:0:0:
182,192,49263,1,0,0:0:0:0:
36,192,49263,1,0,0:0:0:0:
329,192,49263,1,0,0:0:0:0:
256,192,49477,128,0,50549:0:0:0:0:
475,192,49477,1,0,0:0:0:70:kick.wav
36,192,49692,1,0,0:0:0:70:kick.wav
329,192,50120,1,0,0:0:0:0:
475,192,50120,1,0,0:0:0:0:
36,192,50549,1,0,0:0:0:70:kick.wav
329,192,50977,1,0,0:0:0:0:
475,192,50977,1,0,0:0:0:0:
36,192,51406,1,0,0:0:0:70:kick.wav
329,192,51834,1,0,0:0:0:0:
475,192,51834,1,0,0:0:0:0:
36,192,52263,1,0,0:0:0:70:kick.wav
109,192,52477,1,0,0:0:0:0:
329,192,52692,1,0,0:0:0:0:
475,192,52692,1,0,0:0:0:0:
182,192,52692,1,0,0:0:0:0:
256,192,52906,128,0,54406:0:0:0:0:
36,192,53120,1,0,0:0:0:70:kick.wav
329,192,53549,1,0,0:0:0:0:
475,192,53549,1,0,0:0:0:0:
36,192,53977,1,0,0:0:0:70:kick.wav
329,192,54406,1,0,0:0:0:0:
475,192,54406,1,0,0:0:0:0:
36,192,54834,1,0,0:0:0:70:kick.wav
329,192,55263,1,0,0:0:0:0:
475,192,55263,1,0,0:0:0:0:
36,192,55692,1,0,0:0:0:70:kick.wav
182,192,55799,1,0,0:0:0:70:kick.wav
182,192,56013,1,0,0:0:0:70:kick.wav
475,192,56120,1,0,0:0:0:0:
329,192,56120,1,0,0:0:0:0:
182,192,56334,1,0,0:0:0:0:
475,192,56549,1,4,0:0:0:70:kick.wav
329,192,56549,128,0,57834:0:0:0:0:
36,192,56977,1,0,0:0:0:0:
36,192,57834,1,0,0:0:0:0:
36,192,58692,1,0,0:0:0:0:
402,192,59549,1,0,0:0:0:0:
36,192,59549,1,0,0:0:0:0:
256,192,59763,128,0,60834:0:0:0:0:
36,192,60406,1,0,0:0:0:0:
36,192,61263,1,0,0:0:0:0:
329,192,61477,128,0,62334:0:0:0:0:
36,192,62120,1,0,0:0:0:0:
475,192,62334,128,0,62763:0:0:0:0:
329,192,62763,1,0,0:0:0:0:
256,192,62977,1,0,0:0:0:0:
36,192,62977,1,0,0:0:0:0:
182,192,63192,128,0,64692:0:0:0:0:
36,192,63834,1,0,0:0:0:0:
36,192,64692,1,0,0:0:0:0:
36,192,65549,1,0,0:0:0:0:
182,192,66192,1,0,0:0:0:0:
36,192,66406,1,0,0:0:0:0:
256,192,66406,1,0,0:0:0:0:
329,192,66620,128,0,68120:0:0:0:0:
36,192,67263,1,0,0:0:0:0:
36,192,68120,1,0,0:0:0:0:
36,192,68977,1,0,0:0:0:0:
402,192,69620,1,0,0:0:0:0:
36,192,69834,1,0,0:0:0:0:
329,192,69834,1,0,0:0:0:0:
256,192,70049,1,0,0:0:0:0:
475,192,70263,1,0,0:0:0:70:kick.wav
182,192,70263,128,0,71977:0:0:0:0:
182,192,73263,1,0,0:0:0:0:
256,192,73370,1,0,0:0:0:0:
329,192,73477,1,0,0:0:0:0:
402,192,73584,1,0,0:0:0:0:
36,192,73692,1,0,0:0:0:70:kick.wav
475,192,73692,1,0,0:0:0:0:
329,192,76906,1,0,0:0:0:0:
402,192,77013,1,0,0:0:0:0:
475,192,77120,1,0,0:0:0:0:
182,192,78620,1,0,0:0:0:0:
329,192,78727,1,0,0:0:0:0:
182,192,78834,1,0,0:0:0:0:
402,192,79477,1,0,0:0:0:0:
256,192,80120,1,0,0:0:0:0:
109,192,80549,1,0,0:0:0:0:
182,192,81192,1,0,0:0:0:0:
36,192,81299,1,0,0:0:0:0:
182,192,81406,1,0,0:0:0:0:
182,192,83763,1,0,0:0:0:0:
329,192,83870,1,0,0:0:0:0:
182,192,83977,1,0,0:0:0:0:
256,192,84620,1,0,0:0:0:0:
329,192,85692,1,0,0:0:0:0:
402,192,86334,1,0,0:0:0:0:
182,192,86977,1,0,0:0:0:0:
256,192,87084,1,0,0:0:0:0:
329,192,87192,1,0,0:0:0:0:
402,192,87299,1,0,0:0:0:0:
36,192,87406,1,0,0:0:0:70:kick.wav
475,192,87406,1,0,0:0:0:0:
109,192,87620,1,0,0:0:0:0:
109,192,87942,1,0,0:0:0:0:
182,192,88263,1,0,0:0:0:0:
182,192,88584,1,0,0:0:0:0:
182,192,88906,1,0,0:0:0:0:
109,192,89334,1,0,0:0:0:0:
109,192,89656,1,0,0:0:0:0:
182,192,89977,1,0,0:0:0:0:
182,192,90299,1,0,0:0:0:0:
182,192,90620,1,0,0:0:0:0:
256,192,91049,1,0,0:0:0:0:
256,192,91370,1,0,0:0:0:0:
329,192,91692,1,0,0:0:0:0:
329,192,92013,1,0,0:0:0:0:
329,192,92334,1,0,0:0:0:0:
402,192,92763,1,0,0:0:0:0:
402,192,93084,1,0,0:0:0:0:
475,192,93406,1,0,0:0:0:0:
475,192,93727,1,0,0:0:0:0:
329,192,94049,1,0,0:0:0:0:
36,192,94477,1,0,0:0:0:0:
36,192,94799,1,0,0:0:0:0:
109,192,95120,1,0,0:0:0:0:
109,192,95442,1,0,0:0:0:0:
109,192,95763,1,0,0:0:0:0:
36,192,96192,1,0,0:0:0:0:
36,192,96513,1,0,0:0:0:0:
109,192,96834,1,0,0:0:0:0:
109,192,97156,1,0,0:0:0:0:
109,192,97477,1,0,0:0:0:0:
182,192,97906,1,0,0:0:0:0:
182,192,98227,1,0,0:0:0:0:
256,192,98549,1,0,0:0:0:0:
256,192,98870,1,0,0:0:0:0:
256,192,99192,1,0,0:0:0:0:
329,192,99620,1,0,0:0:0:0:
329,192,99942,1,0,0:0:0:0:
402,192,100263,1,0,0:0:0:0:
402,192,100584,1,0,0:0:0:0:
402,192,100906,1,0,0:0:0:0:
36,192,101120,1,0,0:0:0:70:kick.wav
182,192,101334,1,0,0:0:0:0:
182,192,101656,1,0,0:0:0:0:
256,192,101977,1,0,0:0:0:0:
256,192,102299,1,0,0:0:0:0:
256,192,102620,1,0,0:0:0:0:
329,192,103049,1,0,0:0:0:0:
329,192,103370,1,0,0:0:0:0:
402,192,103692,1,0,0:0:0:0:
402,192,104013,1,0,0:0:0:0:
36,192,104120,1,0,0:0:0:0:
109,192,104227,1,0,0:0:0:0:
402,192,104334,1,0,0:0:0:0:
182,192,104334,1,0,0:0:0:0:
256,192,104442,1,0,0:0:0:0:
36,192,104549,1,0,0:0:0:70:kick.wav
329,192,104549,128,0,105834:0:0:0:0:
182,192,104977,1,0,0:0:0:0:
475,192,104977,1,0,0:0:0:0:
36,192,105406,1,0,0:0:0:70:kick.wav
182,192,105834,1,0,0:0:0:0:
475,192,105834,1,0,0:0:0:0:
36,192,106263,1,0,0:0:0:70:kick.wav
182,192,106692,1,0,0:0:0:0:
475,192,106692,1,0,0:0:0:0:
36,192,107120,1,0,0:0:0:70:kick.wav
182,192,107549,1,0,0:0:0:0:
475,192,107549,1,0,0:0:0:0:
256,192,107763,1,0,0:0:0:0:
329,192,107870,1,0,0:0:0:0:
36,192,107977,1,0,0:0:0:70:kick.wav
402,192,107977,128,0,109263:0:0:0:0:
182,192,108406,1,0,0:0:0:0:
475,192,108406,1,0,0:0:0:0:
36,192,108834,1,0,0:0:0:70:kick.wav
182,192,109263,1,0,0:0:0:0:
475,192,109263,1,0,0:0:0:0:
329,192,109477,1,0,0:0:0:0:
475,192,109584,1,0,0:0:0:0:
36,192,109692,1,0,0:0:0:70:kick.wav
329,192,109692,128,0,110334:0:0:0:0:
182,192,110120,1,0,0:0:0:0:
36,192,110120,1,0,0:0:0:0:
182,192,110334,128,0,110977:0:0:0:0:
475,192,110549,1,0,0:0:0:70:kick.wav
36,192,110977,128,0,111406:0:0:0:0:
329,192,110977,1,0,0:0:0:0:
475,192,110977,1,0,0:0:0:0:
182,192,111192,1,0,0:0:0:0:
475,192,111406,1,0,0:0:0:70:kick.wav
329,192,111406,128,0,112049:0:0:0:0:
36,192,111834,1,0,0:0:0:0:
182,192,111834,1,0,0:0:0:0:
256,192,112049,1,0,0:0:0:0:
109,192,112156,1,0,0:0:0:0:
475,192,112263,1,0,0:0:0:70:kick.wav
256,192,112263,128,0,113120:0:0:0:0:
182,192,112692,1,0,0:0:0:0:
36,192,112692,1,0,0:0:0:0:
475,192,113120,1,0,0:0:0:70:kick.wav
182,192,113549,1,0,0:0:0:0:
36,192,113549,1,0,0:0:0:0:
475,192,113977,1,0,0:0:0:70:kick.wav
36,192,114406,1,0,0:0:0:0:
182,192,114406,1,0,0:0:0:0:
402,192,114620,1,0,0:0:0:0:
329,192,114727,1,0,0:0:0:0:
36,192,114834,1,0,0:0:0:70:kick.wav
256,192,114834,128,0,115477:0:0:0:0:
36,192,115263,1,0,0:0:0:0:
182,192,115263,1,0,0:0:0:0:
402,192,115477,128,0,116549:0:0:0:0:
36,192,115692,1,0,0:0:0:70:kick.wav
36,192,116120,1,0,0:0:0:0:
182,192,116120,1,0,0:0:0:0:
475,192,116549,1,0,0:0:0:70:kick.wav
109,192,116549,128,0,117192:0:0:0:0:
475,192,116977,1,0,0:0:0:0:
329,192,116977,1,0,0:0:0:0:
256,192,117192,128,0,117834:0:0:0:0:
475,192,117406,1,0,0:0:0:70:kick.wav
36,192,117834,1,0,0:0:0:0:
109,192,117942,1,0,0:0:0:0:
182,192,118049,1,0,0:0:0:0:
256,192,118156,1,0,0:0:0:0:
475,192,118263,1,0,0:0:0:70:kick.wav
329,192,118263,128,0,119549:0:0:0:0:
36,192,118692,1,0,0:0:0:0:
182,192,118692,1,0,0:0:0:0:
475,192,119120,1,0,0:0:0:70:kick.wav
182,192,119549,1,0,0:0:0:0:
36,192,119549,1,0,0:0:0:0:
475,192,119977,1,0,0:0:0:70:kick.wav
182,192,120406,1,0,0:0:0:0:
36,192,120406,1,0,0:0:0:0:
475,192,120834,1,0,0:0:0:70:kick.wav
182,192,121263,1,0,0:0:0:0:
36,192,121263,1,0,0:0:0:0:
109,192,121477,1,0,0:0:0:0:
256,192,121584,1,0,0:0:0:0:
475,192,121692,1,0,0:0:0:0:kick.wav
402,192,121692,128,0,122977:0:0:0:0:
182,192,122120,1,0,0:0:0:0:
36,192,122120,1,0,0:0:0:0:
475,192,122549,1,0,0:0:0:70:kick.wav
182,192,122977,1,0,0:0:0:0:
36,192,122977,1,0,0:0:0:0:
475,192,123192,1,0,0:0:0:0:
329,192,123299,1,0,0:0:0:0:
475,192,123406,1,0,0:0:0:0:kick.wav
182,192,123406,128,0,124049:0:0:0:0:
329,192,123834,1,0,0:0:0:0:
475,192,123834,1,0,0:0:0:0:
402,192,124049,128,0,124692:0:0:0:0:
36,192,124263,1,0,0:0:0:70:kick.wav
256,192,124692,128,0,125120:0:0:0:0:
182,192,124692,1,0,0:0:0:0:
36,192,124692,1,0,0:0:0:0:
36,192,124906,1,0,0:0:0:70:kick.wav
475,192,125120,1,0,0:0:0:0:kick.wav
36,192,125120,1,0,0:0:0:0:
329,192,125549,1,0,0:0:0:0:
475,192,125549,1,0,0:0:0:0:
402,192,125763,1,0,0:0:0:0:
256,192,125870,1,0,0:0:0:0:
109,192,125977,1,0,0:0:0:0:kick.wav
402,192,125977,128,0,126834:0:0:0:0:
36,192,126406,1,0,0:0:0:0:
182,192,126406,1,0,0:0:0:0:
475,192,126834,1,0,0:0:0:70:kick.wav
182,192,127263,1,0,0:0:0:0:
36,192,127263,1,0,0:0:0:0:
475,192,127692,1,0,0:0:0:70:kick.wav
36,192,128120,1,0,0:0:0:0:
182,192,128120,1,0,0:0:0:0:
475,192,128549,1,0,0:0:0:70:kick.wav
182,192,128977,1,0,0:0:0:0:
36,192,128977,1,0,0:0:0:0:
475,192,129406,1,0,0:0:0:70:kick.wav
182,192,129834,1,0,0:0:0:0:
36,192,129834,1,0,0:0:0:0:
475,192,130263,1,0,0:0:0:70:kick.wav
36,192,131120,1,0,0:0:0:70:kick.wav
182,192,131120,1,0,0:0:0:0:
329,192,131227,1,0,0:0:0:70:kick.wav
475,192,131227,1,0,0:0:0:0:
182,192,131442,1,0,0:0:0:70:kick.wav
36,192,131442,1,0,0:0:0:0:
475,192,131763,1,0,0:0:0:0:
329,192,131870,1,0,0:0:0:0:
182,192,131977,1,0,0:0:0:70:kick.wav
36,192,131977,1,0,0:0:0:0:
