osu file format v5

[General]
AudioFilename: Junior Senior - Move Your Feet.mp3
AudioLeadIn: 3000
PreviewTime: -1
Countdown: 1
SampleSet: Normal
StackLeniency: 0.7
Mode: 0
LetterboxInBreaks: 1
EditorBookmarks: 12007,21918,22423,23938,24317,24948,25454,25706,25959,26464,26716,26969,27474,27726,27979,28484,28989,33029,41110,41363,41615,41868,42120,42373,42499,42878,43004,43257,43509,43635,43888,44140,44393,44519,45024,45277,45529,45656,45908,46161,46413,46539,46918,47044,47423,47549,47676,47802,47928,48307,48560,48938,49191,49443,49696,49948,50201,50454,50580,51464,51716,55251,57272,93446,94645,95087,95277,95908,96034,96161,96413,96729,96918,97044,97297,97549,97802,97928,98181,98433,99191,108219,116236,121161,121918,141741,147928,163585,164279,176464

[Metadata]
Title:Move Your Feet
Artist:Junior Senior
Creator:issues347
Version:Hard
Source:
Tags:

[Difficulty]
HPDrainRate:4
CircleSize:5
OverallDifficulty:6
SliderMultiplier:1.4
SliderTickRate:1

[Events]
//Background and Video events
1,-4487,"Move_Your_Feet___Junior_Senior.avi"
//Break Periods
2,126159,140818
//Storyboard Layer 0 (Background)
//Storyboard Layer 1 (Failing)
//Storyboard Layer 2 (Passing)
//Storyboard Layer 3 (Foreground)
//Storyboard Sound Samples
//Background Colour Transformations
3,100,163,162,255

[TimingPoints]
4746.92991491025,505.050505050505,4,1,0,100,1,0

[HitObjects]
192,128,4746,1,0
288,128,5251,1,0
352,192,5757,1,0
288,256,6262,1,0
192,192,6767,1,0
160,96,7272,5,0
160,96,7524,1,0
160,96,7777,1,0
160,96,8282,1,0
352,288,9292,5,0
352,288,9544,1,0
320,288,9671,1,0
352,256,9924,1,0
352,288,10302,1,0
352,288,10555,1,0
352,288,10807,1,0
352,256,11312,1,0
160,192,12007,6,4,B|288:160,2,122.5
160,288,15352,5,0
160,288,15604,1,0
160,288,15857,1,0
160,288,16362,1,0
160,96,17372,5,0
160,96,17624,1,0
160,128,17751,1,0
192,96,18004,1,0
160,96,18383,1,0
160,96,18635,1,0
160,96,18887,1,0
192,96,19392,1,0
256,288,20087,6,4,B|224:160,2,122.5
160,320,21413,1,6
96,256,21855,2,4,B|160:256|192:192,1,140
192,32,22865,2,4,B|192:96|256:128,1,140
416,128,23875,2,4,B|352:128|320:192,1,140
352,224,24885,6,0,B|256:224|256:320,1,140
256,304,25706,1,2
192,320,25895,2,0,B|128:288|160:192,1,140
158,197,26716,1,2
192,160,26906,2,0,B|288:160|320:224,1,140
314,214,27726,1,2
352,160,27916,2,0,B|416:224|384:288,1,140
288,288,28926,6,0,B|288:192|384:192,1,140
368,192,29747,1,2
384,128,29936,2,0,B|352:64|256:96,1,140
261,94,30757,1,2
224,128,30946,2,0,B|224:224|288:256,1,140
278,250,31767,1,2
224,288,31956,2,0,B|288:352|352:320,1,140
224,288,32966,6,0,B|224:192|128:192,1,140
144,192,33787,1,2
128,128,33976,2,0,B|160:64|256:96,1,140
251,94,34797,1,2
288,128,34986,2,0,B|288:224|224:256,1,140
234,250,35807,1,2
288,288,35996,2,0,B|224:352|160:320,1,140
160,224,37007,6,0,B|256:224|256:320,1,140
256,304,37828,1,2
320,320,38017,2,0,B|384:288|352:192,1,140
354,197,38838,1,2
320,160,39027,2,0,B|224:160|192:224,1,140
198,214,39848,1,2
160,160,40101,2,0,B|96:224|128:288,1,140
96,128,41110,5,0
160,128,41363,1,0
224,128,41615,1,0
288,128,41868,1,0
352,128,42120,2,0,B|384:160|384:192,1,70
384,224,42499,1,0
320,256,43004,5,0
256,256,43257,1,0
192,256,43509,1,0
128,288,43635,1,0
128,224,43888,1,0
128,160,44140,2,0,B|160:128|192:128,1,70
256,128,44519,1,0
512,352,45024,5,0
480,288,45277,2,0,B|416:256,1,70
384,256,45656,1,0
448,224,45908,1,0
320,256,46161,1,0
256,160,46413,1,0
256,160,46539,2,0,B|352:128|288:96,1,105
292,98,47044,2,0,B|192:96|256:160,1,105
256,192,47549,5,0
256,224,47675,1,0
224,224,47801,1,0
192,224,47927,1,0
160,224,48054,1,0
64,224,48243,2,14,B|96:160,1,70
64,60,48938,6,0,B|150:60,1,70
478,321,49443,2,0,B|392:320,1,70
96,160,49948,1,0
192,160,50201,1,0
288,160,50454,1,0
320,160,50580,1,0
448,64,50959,5,0
384,64,51211,1,0
32,320,51464,1,0
96,320,51716,1,0
416,160,51969,1,0
320,160,52222,1,0
224,160,52475,1,0
192,160,52601,1,0
448,324,52979,6,4,B|362:324,1,70
34,63,53484,2,4,B|120:64,1,70
416,224,53989,1,4
320,224,54242,1,14
224,224,54495,1,14
192,224,54620,1,14
256,192,55251,12,0,57272
160,96,57714,5,0
160,96,57966,1,0
160,96,58219,1,0
160,96,58724,1,0
352,288,59734,5,0
352,288,59986,1,0
320,288,60113,1,0
352,256,60366,1,0
352,288,60744,1,0
352,288,60997,1,0
352,288,61249,1,0
352,256,61754,1,0
160,192,62449,6,4,B|288:160,2,122.5
160,288,65794,5,0
160,288,66046,1,0
160,288,66299,1,0
160,288,66804,1,0
160,96,67814,5,0
160,96,68066,1,0
160,128,68193,1,0
192,96,68446,1,0
160,96,68825,1,0
160,96,69077,1,0
160,96,69329,1,0
192,96,69834,1,0
256,288,70529,6,4,B|224:160,2,122.5
160,320,71855,1,6
96,256,72297,2,4,B|160:256|192:192,1,140
192,32,73307,2,4,B|192:96|256:128,1,140
416,128,74317,2,4,B|352:128|320:192,1,140
352,224,75327,6,0,B|256:224|256:320,1,140
256,304,76148,1,2
192,320,76337,2,0,B|128:288|160:192,1,140
158,197,77158,1,2
192,160,77348,2,0,B|288:160|320:224,1,140
314,214,78168,1,2
352,160,78358,2,0,B|416:224|384:288,1,140
288,288,79368,6,0,B|288:192|384:192,1,140
368,192,80189,1,2
384,128,80378,2,0,B|352:64|256:96,1,140
261,94,81199,1,2
224,128,81388,2,0,B|224:224|288:256,1,140
278,250,82209,1,2
224,288,82398,2,0,B|288:352|352:320,1,140
224,288,83408,6,0,B|224:192|128:192,1,140
144,192,84229,1,2
128,128,84418,2,0,B|160:64|256:96,1,140
251,94,85239,1,2
288,128,85428,2,0,B|288:224|224:256,1,140
234,250,86249,1,2
288,288,86438,2,0,B|224:352|160:320,1,140
160,224,87449,6,0,B|256:224|256:320,1,140
256,304,88270,1,2
320,320,88459,2,0,B|384:288|352:192,1,140
354,197,89280,1,2
320,160,89469,2,0,B|224:160|192:224,1,140
198,214,90290,1,2
160,160,90543,2,0,B|96:224|128:288,1,140
96,128,91552,5,0
160,128,91805,1,0
224,128,92057,1,0
288,128,92310,1,0
352,128,92562,2,0,B|384:160|384:192,1,70
384,224,92941,1,0
320,256,93257,5,0
288,256,93509,1,0
224,256,93762,1,0
192,256,93888,1,0
160,256,94077,1,0
96,224,94330,1,0
96,160,94582,2,0,B|128:128|128:128|192:192,1,122.5
480,320,95277,5,0
448,256,95529,1,0
416,256,95782,1,0
352,256,95908,1,0
352,256,96161,1,0
256,224,96413,1,0
256,160,96602,1,0
96,64,96855,5,0
128,96,96981,1,0
192,128,97297,1,0
128,192,97486,1,0
160,256,97739,1,0
192,256,97865,1,0
160,320,98118,2,0,B|96:288,1,70
64,224,98685,2,14,B|96:160,1,70
95,161,99191,1,0
64,60,99380,6,0,B|150:60,1,70
478,321,99885,2,0,B|392:320,1,70
96,160,100390,1,0
192,160,100643,1,0
288,160,100896,1,0
320,160,101022,1,0
448,64,101401,5,0
384,64,101653,1,0
32,320,101906,1,0
96,320,102158,1,0
416,160,102411,1,0
320,160,102664,1,0
224,160,102917,1,0
192,160,103043,1,0
448,324,103421,6,4,B|362:324,1,70
34,63,103926,2,4,B|120:64,1,70
416,224,104431,1,4
320,224,104684,1,14
224,224,104937,1,14
192,224,105062,1,14
256,192,105693,12,0,107714
160,288,108219,5,0
160,288,108471,1,0
160,288,108724,1,0
160,288,109229,1,0
160,96,110239,5,0
160,96,110491,1,0
160,128,110618,1,0
192,96,110871,1,0
160,96,111249,1,0
160,96,111501,1,0
160,96,111754,1,0
192,96,112259,1,0
256,288,112954,6,4,B|224:160,2,122.5
160,288,116300,5,0
160,288,116552,1,0
160,288,116805,1,0
160,288,117310,1,0
160,96,118320,5,0
160,96,118572,1,0
160,128,118699,1,0
192,96,118952,1,0
160,96,119330,1,0
160,96,119582,1,0
160,96,119835,1,0
192,96,120340,1,0
192,224,121161,6,4,B|288:256|320:288|160:320,1,210
96,256,122423,2,4,B|160:256|192:192,1,140
192,32,123433,2,4,B|192:96|256:128,1,140
416,128,124443,2,4,B|352:128|320:192,1,140
352,192,125390,1,6
256,192,125895,1,6
64,60,141805,6,0,B|150:60,1,70
478,321,142310,2,0,B|392:320,1,70
96,160,142815,1,0
192,160,143068,1,0
288,160,143321,1,0
320,160,143447,1,0
448,64,143826,5,0
384,64,144078,1,0
32,320,144331,1,0
96,320,144583,1,0
416,160,144836,1,0
320,160,145089,1,0
224,160,145342,1,0
192,160,145468,1,0
448,324,145846,6,4,B|362:324,1,70
34,63,146351,2,4,B|120:64,1,70
416,224,146856,1,4
320,224,147109,1,14
224,224,147362,1,14
192,224,147487,1,14
256,160,147865,5,14
64,32,148181,5,0
256,32,148623,1,0
448,32,149128,1,0
480,160,149633,1,0
256,160,150138,1,0
160,96,150706,5,0
192,96,150958,1,0
224,96,151211,1,0
160,128,151716,1,0
352,288,152726,5,0
384,288,152978,1,0
384,288,153105,1,0
384,224,153358,1,0
320,224,153736,1,0
288,224,153989,1,0
288,288,154241,1,0
352,256,154683,1,0
160,192,155441,6,4,B|288:160,2,122.5
160,96,158786,5,0
224,96,159038,1,0
288,96,159291,1,0
128,128,159796,1,0
160,288,160806,5,0
192,256,161058,1,0
192,256,161185,1,0
224,224,161438,1,0
288,160,161817,1,0
320,128,162069,1,0
256,128,162321,1,0
192,128,162764,1,0
96,192,163522,2,0,B|192:256|192:256|224:160,1,210
352,96,166868,5,0
320,96,167120,1,0
288,96,167373,1,0
352,128,167878,1,0
160,288,168888,5,0
128,288,169140,1,0
128,288,169267,1,0
128,224,169520,1,0
192,224,169898,1,0
224,224,170151,1,0
224,288,170403,1,0
160,256,170845,1,0
352,192,171603,6,4,B|224:160,2,122.5
160,320,172928,1,6
96,256,173370,2,4,B|160:256|192:192,1,140
192,32,174380,2,4,B|192:96|256:128,1,140
416,128,175390,2,4,B|352:128|320:192,1,140
352,320,176464,1,6
416,256,176906,2,4,B|352:256|320:192,1,140
320,32,177916,2,4,B|320:96|256:128,1,140
96,128,178926,2,4,B|160:128|192:192,1,140
256,192,179936,5,4
