osu file format v13

[General]
AudioFilename: -Nightcore - Lights Out ( Go Crazy )-.mp3
AudioLeadIn: 0
PreviewTime: 79942
Countdown: 0
SampleSet: Soft
StackLeniency: 0.7
Mode: 3
LetterboxInBreaks: 0
SpecialStyle: 0
WidescreenStoryboard: 0

[Editor]
Bookmarks: 44871,111777,135698
DistanceSpacing: 1
BeatDivisor: 4
GridSize: 16
TimelineZoom: 3.550005

[Metadata]
Title:Lights out (Go Crazy)
TitleUnicode:Lights out (Go Crazy)
Artist:Junior Caldera ft. Far East Movement & Natalia Kills
ArtistUnicode:Junior Caldera ft. Far East Movement & Natalia Kills
Creator:mike91lau
Version:Crazy
Source:
Tags:Nightcore
BeatmapID:434116
BeatmapSetID:180700

[Difficulty]
HPDrainRate:8
CircleSize:4
OverallDifficulty:8
ApproachRate:5
SliderMultiplier:1.4
SliderTickRate:1

[Events]
//Background and Video events
0,0,"123.png",0,0
//Break Periods
//Storyboard Layer 0 (Background)
//Storyboard Layer 1 (Fail)
//Storyboard Layer 2 (Pass)
//Storyboard Layer 3 (Foreground)
//Storyboard Sound Samples
Sample,220,0,"hiphop_kick.wav",35
Sample,519,0,"hiphop_closehh.wav",35
Sample,618,0,"hiphop_kick.wav",35
Sample,618,0,"hiphop_snare.wav",35
Sample,1017,0,"hiphop_kick.wav",35
Sample,1216,0,"hiphop_snare.wav",35
Sample,1416,0,"hiphop_kick.wav",35
Sample,1615,0,"hiphop_closehh.wav",35
Sample,1814,0,"hiphop_kick.wav",35
Sample,2014,0,"hiphop_closehh.wav",35
Sample,2213,0,"hiphop_kick.wav",35
Sample,2412,0,"hiphop_closehh.wav",35
Sample,2612,0,"hiphop_kick.wav",35
Sample,2811,0,"hiphop_closehh.wav",35
Sample,3010,0,"hiphop_kick.wav",35
Sample,3210,0,"hiphop_closehh.wav",35
Sample,3409,0,"hiphop_kick.wav",35
Sample,3708,0,"hiphop_closehh.wav",35
Sample,3808,0,"hiphop_kick.wav",35
Sample,3808,0,"hiphop_snare.wav",35
Sample,4007,0,"hiphop_closehh.wav",35
Sample,4206,0,"hiphop_kick.wav",35
Sample,4406,0,"hiphop_snare.wav",35
Sample,4605,0,"hiphop_kick.wav",35
Sample,4804,0,"hiphop_closehh.wav",35
Sample,5004,0,"hiphop_kick.wav",35
Sample,5203,0,"hiphop_closehh.wav",35
Sample,5402,0,"hiphop_kick.wav",35
Sample,5801,0,"hiphop_kick.wav",35
Sample,6000,0,"hiphop_closehh.wav",35
Sample,6200,0,"hiphop_kick.wav",35
Sample,6399,0,"hiphop_closehh.wav",35
Sample,6598,0,"hiphop_kick.wav",35
Sample,32113,0,"hiphop_kick.wav",50
Sample,32113,0,"hiphop_ride.wav",35
Sample,32911,0,"hiphop_openhh.wav",35
Sample,33509,0,"hiphop_closehh.wav",35
Sample,33708,0,"hiphop_kick.wav",35
Sample,33907,0,"hiphop_closehh.wav",35
Sample,34306,0,"hiphop_closehh.wav",35
Sample,34505,0,"hiphop_kick.wav",35
Sample,34505,0,"hiphop_closehh.wav",35
Sample,34705,0,"hiphop_closehh.wav",35
Sample,34904,0,"hiphop_openhh.wav",35
Sample,35103,0,"hiphop_closehh.wav",35
Sample,35303,0,"hiphop_snare.wav",35
Sample,35303,0,"hiphop_kick.wav",50
Sample,35502,0,"hiphop_closehh.wav",35
Sample,35701,0,"hiphop_closehh.wav",35
Sample,35901,0,"hiphop_openhh.wav",35
Sample,36100,0,"hiphop_kick.wav",35
Sample,36100,0,"hiphop_closehh.wav",35
Sample,36299,0,"hiphop_closehh.wav",35
Sample,36499,0,"hiphop_closehh.wav",35
Sample,36698,0,"hiphop_openhh.wav",35
Sample,36897,0,"hiphop_kick.wav",35
Sample,37097,0,"hiphop_closehh.wav",35
Sample,37296,0,"hiphop_closehh.wav",35
Sample,37495,0,"hiphop_closehh.wav",35
Sample,37695,0,"hiphop_closehh.wav",35
Sample,37695,0,"hiphop_kick.wav",35
Sample,37894,0,"hiphop_closehh.wav",35
Sample,38093,0,"hiphop_kick.wav",35
Sample,38093,0,"hiphop_closehh.wav",35
Sample,38492,0,"hiphop_kick.wav",35
Sample,38691,0,"hiphop_closehh.wav",35
Sample,38891,0,"hiphop_kick.wav",35
Sample,39090,0,"hiphop_closehh.wav",35
Sample,39289,0,"hiphop_kick.wav",35
Sample,39489,0,"hiphop_closehh.wav",35
Sample,39688,0,"hiphop_kick.wav",35
Sample,39887,0,"hiphop_closehh.wav",35
Sample,40087,0,"hiphop_kick.wav",35
Sample,40286,0,"hiphop_closehh.wav",35
Sample,40485,0,"hiphop_kick.wav",35
Sample,40685,0,"hiphop_closehh.wav",35
Sample,40884,0,"hiphop_kick.wav",35
Sample,41083,0,"hiphop_closehh.wav",35
Sample,41283,0,"hiphop_kick.wav",35
Sample,41482,0,"hiphop_closehh.wav",35
Sample,41681,0,"hiphop_kick.wav",35
Sample,41881,0,"hiphop_kick.wav",35
Sample,42080,0,"hiphop_kick.wav",35
Sample,42279,0,"hiphop_kick.wav",35
Sample,42479,0,"hiphop_kick.wav",35
Sample,42678,0,"hiphop_kick.wav",35
Sample,42877,0,"hiphop_kick.wav",35
Sample,43077,0,"hiphop_kick.wav",35
Sample,43276,0,"hiphop_kick.wav",35
Sample,43376,0,"hiphop_kick.wav",35
Sample,43475,0,"hiphop_kick.wav",35
Sample,43575,0,"hiphop_kick.wav",35
Sample,43675,0,"hiphop_kick.wav",35
Sample,43774,0,"hiphop_kick.wav",35
Sample,43874,0,"hiphop_kick.wav",35
Sample,43974,0,"hiphop_kick.wav",35
Sample,44073,0,"hiphop_openhh.wav",35
Sample,44472,0,"hiphop_kick.wav",50
Sample,44472,0,"hiphop_ride.wav",50
Sample,54169,0,"hiphop_snare.wav",35
Sample,54169,0,"hiphop_openhh.wav",35
Sample,57229,0,"hiphop_openhh.wav",35
Sample,57429,0,"hiphop_snare.wav",35
Sample,57429,0,"hiphop_openhh.wav",35
Sample,57628,0,"hiphop_kick.wav",35
Sample,57927,0,"hiphop_closehh.wav",35
Sample,58425,0,"hiphop_kick.wav",35
Sample,59223,0,"hiphop_kick.wav",35
Sample,60020,0,"hiphop_kick.wav",35
Sample,60818,0,"hiphop_kick.wav",35
Sample,61117,0,"hiphop_closehh.wav",35
Sample,61615,0,"hiphop_kick.wav",35
Sample,62412,0,"hiphop_kick.wav",35
Sample,63210,0,"hiphop_kick.wav",35
Sample,64007,0,"hiphop_kick.wav",35
Sample,88724,0,"hiphop_kick.wav",35
Sample,89123,0,"hiphop_kick.wav",35
Sample,98492,0,"hiphop_tom1.wav",15
Sample,98592,0,"hiphop_tom1.wav",15
Sample,98891,0,"hiphop_snare.wav",35
Sample,98891,0,"hiphop_openhh.wav",35
Sample,101681,0,"hiphop_tom1.wav",15
Sample,101781,0,"hiphop_tom1.wav",15
Sample,102080,0,"hiphop_snare.wav",35
Sample,102080,0,"hiphop_openhh.wav",35
Sample,104871,0,"hiphop_tom1.wav",15
Sample,104970,0,"hiphop_tom1.wav",15
Sample,105269,0,"hiphop_snare.wav",35
Sample,105269,0,"hiphop_openhh.wav",35
Sample,108060,0,"hiphop_tom1.wav",15
Sample,108160,0,"hiphop_tom1.wav",15
Sample,108459,0,"hiphop_snare.wav",35
Sample,108459,0,"hiphop_openhh.wav",35
Sample,111947,0,"hiphop_closehh.wav",35
Sample,112146,0,"hiphop_closehh.wav",35
Sample,112246,0,"hiphop_openhh.wav",35
Sample,112545,0,"hiphop_closehh.wav",35
Sample,112645,0,"hiphop_openhh.wav",35
Sample,112844,0,"hiphop_openhh.wav",35
Sample,113043,0,"hiphop_closehh.wav",35
Sample,113342,0,"hiphop_openhh.wav",35
Sample,113542,0,"hiphop_closehh.wav",35
Sample,113741,0,"hiphop_closehh.wav",35
Sample,113841,0,"hiphop_openhh.wav",35
Sample,114140,0,"hiphop_closehh.wav",35
Sample,114239,0,"hiphop_openhh.wav",35
Sample,114439,0,"hiphop_openhh.wav",35
Sample,114638,0,"hiphop_closehh.wav",35
Sample,114837,0,"hiphop_closehh.wav",35
Sample,114937,0,"hiphop_openhh.wav",35
Sample,115136,0,"hiphop_closehh.wav",35
Sample,115334,0,"hiphop_closehh.wav",35
Sample,115435,0,"hiphop_openhh.wav",35
Sample,115734,0,"hiphop_closehh.wav",35
Sample,115834,0,"hiphop_openhh.wav",35
Sample,116033,0,"hiphop_openhh.wav",35
Sample,116233,0,"hiphop_closehh.wav",35
Sample,116432,0,"hiphop_closehh.wav",35
Sample,116532,0,"hiphop_openhh.wav",35
Sample,116731,0,"hiphop_closehh.wav",35
Sample,116930,0,"hiphop_closehh.wav",35
Sample,117030,0,"hiphop_openhh.wav",35
Sample,117329,0,"hiphop_closehh.wav",35
Sample,117429,0,"hiphop_openhh.wav",35
Sample,117628,0,"hiphop_openhh.wav",35
Sample,117827,0,"hiphop_closehh.wav",35
Sample,118027,0,"hiphop_closehh.wav",35
Sample,118126,0,"hiphop_openhh.wav",35
Sample,118326,0,"hiphop_closehh.wav",35
Sample,118525,0,"hiphop_closehh.wav",35
Sample,118625,0,"hiphop_openhh.wav",35
Sample,118924,0,"hiphop_closehh.wav",35
Sample,119023,0,"hiphop_openhh.wav",35
Sample,119223,0,"hiphop_openhh.wav",35
Sample,119422,0,"hiphop_closehh.wav",35
Sample,119621,0,"hiphop_openhh.wav",35
Sample,119721,0,"hiphop_closehh.wav",35
Sample,119920,0,"hiphop_closehh.wav",35
Sample,120120,0,"hiphop_closehh.wav",35
Sample,120220,0,"hiphop_openhh.wav",35
Sample,120519,0,"hiphop_closehh.wav",35
Sample,120618,0,"hiphop_openhh.wav",35
Sample,120818,0,"hiphop_openhh.wav",35
Sample,121017,0,"hiphop_closehh.wav",35
Sample,121216,0,"hiphop_closehh.wav",35
Sample,121316,0,"hiphop_openhh.wav",35
Sample,121515,0,"hiphop_closehh.wav",35
Sample,121715,0,"hiphop_closehh.wav",35
Sample,121814,0,"hiphop_openhh.wav",35
Sample,122113,0,"hiphop_closehh.wav",35
Sample,122213,0,"hiphop_openhh.wav",35
Sample,122412,0,"hiphop_openhh.wav",35
Sample,122612,0,"hiphop_closehh.wav",35
Sample,122811,0,"hiphop_closehh.wav",35
Sample,122911,0,"hiphop_openhh.wav",35
Sample,123110,0,"hiphop_closehh.wav",35
Sample,123309,0,"hiphop_closehh.wav",35
Sample,123409,0,"hiphop_openhh.wav",35
Sample,123708,0,"hiphop_closehh.wav",35
Sample,123808,0,"hiphop_openhh.wav",35
Sample,124007,0,"hiphop_openhh.wav",35
Sample,124206,0,"hiphop_closehh.wav",35
Sample,124406,0,"hiphop_closehh.wav",35
Sample,124505,0,"hiphop_openhh.wav",35
Sample,124705,0,"hiphop_closehh.wav",35
Sample,124904,0,"hiphop_closehh.wav",35
Sample,125004,0,"hiphop_openhh.wav",35
Sample,125303,0,"hiphop_closehh.wav",35
Sample,125402,0,"hiphop_openhh.wav",35
Sample,125602,0,"hiphop_openhh.wav",35
Sample,125801,0,"hiphop_closehh.wav",35
Sample,126000,0,"hiphop_closehh.wav",35
Sample,126100,0,"hiphop_openhh.wav",35
Sample,126299,0,"hiphop_closehh.wav",35
Sample,126499,0,"hiphop_closehh.wav",35
Sample,126598,0,"hiphop_openhh.wav",35
Sample,126897,0,"hiphop_closehh.wav",35
Sample,126997,0,"hiphop_openhh.wav",35
Sample,127196,0,"hiphop_openhh.wav",35
Sample,127396,0,"hiphop_closehh.wav",35
Sample,127595,0,"hiphop_closehh.wav",35
Sample,127695,0,"hiphop_openhh.wav",35
Sample,127894,0,"hiphop_closehh.wav",35
Sample,128093,0,"hiphop_closehh.wav",35
Sample,128193,0,"hiphop_openhh.wav",35
Sample,128392,0,"hiphop_closehh.wav",35
Sample,128492,0,"hiphop_openhh.wav",35
Sample,128791,0,"hiphop_openhh.wav",35
Sample,128990,0,"hiphop_closehh.wav",35
Sample,129190,0,"hiphop_closehh.wav",35
Sample,129289,0,"hiphop_openhh.wav",35
Sample,129489,0,"hiphop_closehh.wav",35
Sample,129688,0,"hiphop_closehh.wav",35
Sample,129788,0,"hiphop_openhh.wav",35
Sample,130087,0,"hiphop_closehh.wav",35
Sample,130186,0,"hiphop_openhh.wav",35
Sample,130386,0,"hiphop_openhh.wav",35
Sample,130585,0,"hiphop_closehh.wav",35
Sample,130784,0,"hiphop_closehh.wav",35
Sample,130884,0,"hiphop_openhh.wav",35
Sample,131083,0,"hiphop_closehh.wav",35
Sample,131283,0,"hiphop_closehh.wav",35
Sample,131382,0,"hiphop_openhh.wav",35
Sample,131681,0,"hiphop_closehh.wav",35
Sample,131781,0,"hiphop_openhh.wav",35
Sample,131980,0,"hiphop_openhh.wav",35
Sample,132180,0,"hiphop_closehh.wav",35
Sample,132379,0,"hiphop_closehh.wav",35
Sample,132479,0,"hiphop_openhh.wav",35
Sample,132678,0,"hiphop_closehh.wav",35
Sample,132877,0,"hiphop_closehh.wav",35
Sample,132977,0,"hiphop_openhh.wav",35
Sample,133276,0,"hiphop_closehh.wav",35
Sample,133376,0,"hiphop_openhh.wav",35
Sample,133575,0,"hiphop_openhh.wav",35
Sample,133774,0,"hiphop_closehh.wav",35
Sample,133974,0,"hiphop_closehh.wav",35
Sample,134073,0,"hiphop_openhh.wav",35
Sample,134273,0,"hiphop_closehh.wav",35
Sample,134472,0,"hiphop_closehh.wav",35
Sample,134572,0,"hiphop_openhh.wav",35
Sample,134871,0,"hiphop_closehh.wav",35
Sample,134970,0,"hiphop_openhh.wav",35
Sample,135170,0,"hiphop_openhh.wav",35
Sample,135369,0,"hiphop_closehh.wav",35
Sample,135568,0,"hiphop_closehh.wav",35
Sample,135668,0,"hiphop_openhh.wav",35
Sample,135967,0,"hiphop_ride.wav",70
Sample,136366,0,"hiphop_ride.wav",70
Sample,136764,0,"hiphop_ride.wav",70
Sample,137163,0,"hiphop_ride.wav",70
Sample,137562,0,"hiphop_ride.wav",70
Sample,137960,0,"hiphop_ride.wav",70
Sample,138359,0,"hiphop_ride.wav",70
Sample,138758,0,"hiphop_ride.wav",70
Sample,139156,0,"hiphop_ride.wav",70
Sample,139555,0,"hiphop_ride.wav",70
Sample,142146,0,"hiphop_ride.wav",35
Sample,142545,0,"hiphop_openhh.wav",35
Sample,145535,0,"hiphop_tom1.wav",15
Sample,145635,0,"hiphop_tom1.wav",15
Sample,145934,0,"hiphop_snare.wav",35
Sample,145934,0,"hiphop_openhh.wav",35
Sample,148724,0,"hiphop_tom1.wav",15
Sample,148824,0,"hiphop_tom1.wav",15
Sample,149123,0,"hiphop_openhh.wav",35
Sample,149123,0,"hiphop_snare.wav",35
Sample,151914,0,"hiphop_tom1.wav",15
Sample,152014,0,"hiphop_tom1.wav",15
Sample,152313,0,"hiphop_openhh.wav",35
Sample,152313,0,"hiphop_snare.wav",35
Sample,155103,0,"hiphop_tom1.wav",15
Sample,155203,0,"hiphop_tom1.wav",15
Sample,155502,0,"hiphop_snare.wav",35
Sample,155502,0,"hiphop_openhh.wav",35
//Background Colour Transformations
3,100,163,162,255

[TimingPoints]
216,398.671096345515,4,2,1,50,1,0
44867,-100,4,2,1,50,0,1
57624,-100,4,2,1,50,0,0
95897,-100,4,2,1,50,0,1
108654,-100,4,2,1,50,0,0

[HitObjects]
320,192,216,5,0,0:0:0:35:hiphop_kick.wav
64,192,216,5,0,0:0:0:35:hiphop_closehh.wav
64,192,415,1,0,0:0:0:35:hiphop_closehh.wav
192,192,515,1,0,0:0:0:35:hiphop_closehh.wav
320,192,614,1,0,0:0:0:35:hiphop_openhh.wav
448,192,614,1,0,0:0:0:35:hiphop_snare.wav
64,192,814,1,0,0:0:0:35:hiphop_closehh.wav
448,192,1013,1,0,0:0:0:35:hiphop_closehh.wav
192,192,1013,1,0,0:0:0:35:hiphop_kick.wav
64,192,1212,1,0,0:0:0:35:hiphop_closehh.wav
320,192,1212,1,0,0:0:0:35:hiphop_snare.wav
192,192,1412,1,0,0:0:0:35:hiphop_kick.wav
448,192,1412,1,0,0:0:0:35:hiphop_closehh.wav
448,192,1611,1,0,0:0:0:35:hiphop_openhh.wav
64,192,1611,1,0,0:0:0:35:hiphop_closehh.wav
320,192,1810,1,0,0:0:0:35:hiphop_closehh.wav
192,192,1810,1,0,0:0:0:35:hiphop_kick.wav
64,192,2010,1,0,0:0:0:35:hiphop_openhh.wav
448,192,2209,1,0,0:0:0:35:hiphop_kick.wav
320,192,2209,1,0,0:0:0:35:hiphop_closehh.wav
192,192,2408,1,0,0:0:0:15:hiphop_closehh.wav
448,192,2608,1,0,0:0:0:15:hiphop_closehh.wav
64,192,2608,1,0,0:0:0:15:hiphop_kick.wav
192,192,2807,1,0,0:0:0:15:hiphop_closehh.wav
448,192,3006,1,0,0:0:0:15:hiphop_closehh.wav
320,192,3006,1,0,0:0:0:15:hiphop_kick.wav
192,192,3206,1,0,0:0:0:15:hiphop_closehh.wav
64,192,3405,5,0,0:0:0:35:hiphop_closehh.wav
320,192,3405,1,0,0:0:0:35:hiphop_kick.wav
448,192,3604,1,0,0:0:0:35:hiphop_closehh.wav
320,192,3704,1,0,0:0:0:35:hiphop_closehh.wav
64,192,3804,1,0,0:0:0:35:hiphop_snare.wav
192,192,3804,1,0,0:0:0:35:hiphop_openhh.wav
320,192,4003,1,0,0:0:0:35:hiphop_closehh.wav
192,192,4202,1,0,0:0:0:35:hiphop_closehh.wav
64,192,4202,1,0,0:0:0:35:hiphop_kick.wav
448,192,4402,1,0,0:0:0:35:hiphop_closehh.wav
192,192,4402,1,0,0:0:0:35:hiphop_snare.wav
320,192,4601,1,0,0:0:0:35:hiphop_kick.wav
448,192,4601,1,0,0:0:0:35:hiphop_closehh.wav
320,192,4800,1,0,0:0:0:35:hiphop_openhh.wav
64,192,4800,1,0,0:0:0:35:hiphop_closehh.wav
448,192,5000,1,0,0:0:0:35:hiphop_kick.wav
192,192,5000,1,0,0:0:0:35:hiphop_closehh.wav
64,192,5199,1,0,0:0:0:35:hiphop_openhh.wav
448,192,5398,1,0,0:0:0:35:hiphop_kick.wav
192,192,5398,1,0,0:0:0:35:hiphop_closehh.wav
64,192,5598,1,0,0:0:0:15:hiphop_closehh.wav
192,192,5797,1,0,0:0:0:15:hiphop_kick.wav
320,192,5797,1,0,0:0:0:15:hiphop_closehh.wav
448,192,5797,128,0,6594:0:0:0:15:hiphop_ride.wav
64,192,5996,1,0,0:0:0:15:hiphop_closehh.wav
320,192,6196,1,0,0:0:0:15:hiphop_closehh.wav
192,192,6196,1,0,0:0:0:15:hiphop_kick.wav
192,192,6395,1,0,0:0:0:15:hiphop_closehh.wav
320,192,6594,1,0,0:0:0:35:hiphop_kick.wav
64,192,6594,128,0,6794:0:0:0:35:hiphop_clap.wav
192,192,6794,1,0,0:0:0:35:hiphop_closehh.wav
320,192,6993,128,0,7192:0:0:0:35:hiphop_clap.wav
64,192,6993,1,0,0:0:0:35:hiphop_snare.wav
448,192,6993,1,0,0:0:0:35:hiphop_snare.wav
448,192,7192,1,0,0:0:0:35:hiphop_closehh.wav
320,192,7392,1,0,0:0:0:35:hiphop_kick.wav
192,192,7392,128,0,7591:0:0:0:35:hiphop_clap.wav
64,192,7591,1,0,0:0:0:35:hiphop_kick.wav
448,192,7591,1,0,0:0:0:35:hiphop_closehh.wav
448,192,7790,128,0,7990:0:0:0:35:hiphop_clap.wav
64,192,7790,1,0,0:0:0:35:hiphop_snare.wav
192,192,7790,1,0,0:0:0:35:hiphop_snare.wav
64,192,7990,1,0,0:0:0:35:hiphop_closehh.wav
64,192,8189,128,0,8388:0:0:0:35:hiphop_clap.wav
448,192,8189,1,0,0:0:0:35:hiphop_kick.wav
192,192,8388,1,0,0:0:0:35:hiphop_kick.wav
320,192,8388,1,0,0:0:0:35:hiphop_closehh.wav
448,192,8588,128,0,8787:0:0:0:35:hiphop_clap.wav
64,192,8588,1,0,0:0:0:35:hiphop_snare.wav
320,192,8588,1,0,0:0:0:35:hiphop_snare.wav
192,192,8787,1,0,0:0:0:35:hiphop_closehh.wav
448,192,8986,128,0,9186:0:0:0:35:hiphop_clap.wav
64,192,8986,1,0,0:0:0:35:hiphop_kick.wav
320,192,9186,1,0,0:0:0:35:hiphop_kick.wav
192,192,9186,1,0,0:0:0:35:hiphop_closehh.wav
320,192,9385,128,0,9584:0:0:0:35:hiphop_clap.wav
64,192,9385,1,0,0:0:0:35:hiphop_snare.wav
448,192,9385,1,0,0:0:0:35:hiphop_snare.wav
192,192,9584,1,0,0:0:0:35:hiphop_closehh.wav
448,192,9784,1,0,0:0:0:35:hiphop_kick.wav
192,192,9784,128,0,9983:0:0:0:35:hiphop_clap.wav
64,192,9983,1,0,0:0:0:35:hiphop_kick.wav
320,192,9983,1,0,0:0:0:35:hiphop_closehh.wav
192,192,10182,1,0,0:0:0:35:hiphop_snare.wav
448,192,10182,1,0,0:0:0:35:hiphop_snare.wav
64,192,10182,128,0,10382:0:0:0:35:hiphop_clap.wav
192,192,10382,1,0,0:0:0:35:hiphop_closehh.wav
64,192,10581,1,0,0:0:0:35:hiphop_kick.wav
192,192,10581,128,0,10780:0:0:0:35:hiphop_clap.wav
320,192,10780,1,0,0:0:0:35:hiphop_kick.wav
448,192,10780,1,0,0:0:0:35:hiphop_closehh.wav
320,192,10980,1,0,0:0:0:35:hiphop_snare.wav
64,192,10980,1,0,0:0:0:35:hiphop_snare.wav
448,192,10980,128,0,11179:0:0:0:35:hiphop_clap.wav
320,192,11179,1,0,0:0:0:35:hiphop_closehh.wav
64,192,11378,1,0,0:0:0:35:hiphop_kick.wav
192,192,11378,128,0,11578:0:0:0:35:hiphop_clap.wav
448,192,11578,1,0,0:0:0:35:hiphop_kick.wav
320,192,11578,1,0,0:0:0:35:hiphop_closehh.wav
192,192,11777,1,0,0:0:0:35:hiphop_snare.wav
448,192,11777,1,0,0:0:0:35:hiphop_snare.wav
64,192,11777,128,0,11976:0:0:0:35:hiphop_clap.wav
320,192,11976,1,0,0:0:0:35:hiphop_closehh.wav
320,192,12176,1,0,0:0:0:35:hiphop_kick.wav
64,192,12176,128,0,12375:0:0:0:35:hiphop_clap.wav
192,192,12375,1,0,0:0:0:35:hiphop_kick.wav
448,192,12375,1,0,0:0:0:35:hiphop_closehh.wav
448,192,12574,128,0,12774:0:0:0:35:hiphop_clap.wav
192,192,12574,1,0,0:0:0:35:hiphop_snare.wav
64,192,12574,1,0,0:0:0:35:hiphop_snare.wav
320,192,12774,1,0,0:0:0:35:hiphop_closehh.wav
192,192,12973,128,0,13172:0:0:0:35:hiphop_clap.wav
64,192,12973,1,0,0:0:0:35:hiphop_kick.wav
448,192,13172,1,0,0:0:0:35:hiphop_kick.wav
320,192,13172,1,0,0:0:0:35:hiphop_closehh.wav
192,192,13372,1,0,0:0:0:35:hiphop_snare.wav
64,192,13372,1,0,0:0:0:35:hiphop_snare.wav
448,192,13372,128,0,13571:0:0:0:35:hiphop_clap.wav
64,192,13571,1,0,0:0:0:35:hiphop_closehh.wav
448,192,13770,1,0,0:0:0:35:hiphop_kick.wav
192,192,13770,128,0,13970:0:0:0:35:hiphop_clap.wav
64,192,13970,1,0,0:0:0:35:hiphop_kick.wav
320,192,13970,1,0,0:0:0:35:hiphop_closehh.wav
64,192,14169,1,0,0:0:0:35:hiphop_clap.wav
448,192,14169,1,0,0:0:0:35:hiphop_snare.wav
320,192,14169,128,0,14368:0:0:0:35:hiphop_clap.wav
448,192,14368,1,0,0:0:0:35:hiphop_closehh.wav
64,192,14568,1,0,0:0:0:35:hiphop_kick.wav
448,192,14568,128,0,14767:0:0:0:35:hiphop_clap.wav
320,192,14767,1,0,0:0:0:35:hiphop_kick.wav
192,192,14767,1,0,0:0:0:35:hiphop_closehh.wav
64,192,14966,1,0,0:0:0:35:hiphop_clap.wav
192,192,14966,1,0,0:0:0:35:hiphop_snare.wav
448,192,14966,128,0,15166:0:0:0:35:hiphop_clap.wav
320,192,15166,1,0,0:0:0:35:hiphop_closehh.wav
448,192,15365,1,0,0:0:0:35:hiphop_kick.wav
192,192,15365,128,0,15564:0:0:0:35:hiphop_clap.wav
320,192,15564,1,0,0:0:0:35:hiphop_kick.wav
64,192,15564,1,0,0:0:0:35:hiphop_closehh.wav
64,192,15764,1,0,0:0:0:35:hiphop_clap.wav
192,192,15764,1,0,0:0:0:35:hiphop_snare.wav
448,192,15764,128,0,15963:0:0:0:35:hiphop_clap.wav
320,192,15963,1,0,0:0:0:35:hiphop_closehh.wav
192,192,16162,128,0,16362:0:0:0:35:hiphop_clap.wav
448,192,16162,1,0,0:0:0:35:hiphop_kick.wav
64,192,16362,1,0,0:0:0:35:hiphop_kick.wav
320,192,16362,1,0,0:0:0:35:hiphop_closehh.wav
448,192,16561,128,0,16760:0:0:0:35:hiphop_clap.wav
320,192,16561,1,0,0:0:0:35:hiphop_snare.wav
64,192,16561,1,0,0:0:0:35:hiphop_clap.wav
192,192,16760,1,0,0:0:0:35:hiphop_closehh.wav
448,192,16960,1,0,0:0:0:35:hiphop_kick.wav
192,192,16960,128,0,17159:0:0:0:35:hiphop_clap.wav
64,192,17159,1,0,0:0:0:35:hiphop_kick.wav
320,192,17159,1,0,0:0:0:35:hiphop_closehh.wav
64,192,17358,1,0,0:0:0:35:hiphop_snare.wav
192,192,17358,1,0,0:0:0:35:hiphop_clap.wav
448,192,17358,128,0,17558:0:0:0:35:hiphop_clap.wav
320,192,17558,1,0,0:0:0:35:hiphop_closehh.wav
320,192,17757,1,0,0:0:0:35:hiphop_kick.wav
64,192,17757,128,0,17956:0:0:0:35:hiphop_kick.wav
192,192,17956,128,0,18156:0:0:0:35:hiphop_closehh.wav
448,192,17956,1,0,0:0:0:35:hiphop_clap.wav
320,192,18156,128,0,18355:0:0:0:35:hiphop_snare.wav
64,192,18156,1,0,0:0:0:35:hiphop_snare.wav
448,192,18355,128,0,18554:0:0:0:35:hiphop_closehh.wav
192,192,18355,1,0,0:0:0:35:hiphop_clap.wav
64,192,18554,1,0,0:0:0:35:hiphop_kick.wav
320,192,18554,128,0,18754:0:0:0:35:hiphop_kick.wav
192,192,18754,128,0,18953:0:0:0:35:hiphop_closehh.wav
448,192,18754,1,0,0:0:0:35:hiphop_clap.wav
64,192,18953,128,0,19152:0:0:0:35:hiphop_clap.wav
448,192,18953,1,0,0:0:0:35:hiphop_snare.wav
320,192,19152,1,0,0:0:0:35:hiphop_closehh.wav
192,192,19352,1,0,0:0:0:35:hiphop_kick.wav
448,192,19352,128,0,19551:0:0:0:35:hiphop_clap.wav
64,192,19551,1,0,0:0:0:35:hiphop_kick.wav
320,192,19551,1,0,0:0:0:35:hiphop_closehh.wav
192,192,19750,1,0,0:0:0:35:hiphop_clap.wav
64,192,19750,128,0,19950:0:0:0:35:hiphop_clap.wav
448,192,19750,1,0,0:0:0:35:hiphop_snare.wav
320,192,19950,1,0,0:0:0:35:hiphop_closehh.wav
192,192,20149,128,0,20348:0:0:0:35:hiphop_clap.wav
448,192,20149,1,0,0:0:0:35:hiphop_kick.wav
64,192,20348,1,0,0:0:0:35:hiphop_kick.wav
320,192,20348,1,0,0:0:0:35:hiphop_closehh.wav
320,192,20548,128,0,20747:0:0:0:35:hiphop_clap.wav
192,192,20548,1,0,0:0:0:35:hiphop_snare.wav
448,192,20548,1,0,0:0:0:35:hiphop_clap.wav
64,192,20747,1,0,0:0:0:35:hiphop_closehh.wav
320,192,20946,1,0,0:0:0:35:hiphop_kick.wav
448,192,20946,128,0,21146:0:0:0:35:hiphop_clap.wav
64,192,21146,1,0,0:0:0:35:hiphop_kick.wav
320,192,21146,1,0,0:0:0:35:hiphop_closehh.wav
192,192,21345,1,0,0:0:0:35:hiphop_clap.wav
64,192,21345,128,0,21544:0:0:0:35:hiphop_clap.wav
448,192,21345,1,0,0:0:0:35:hiphop_snare.wav
192,192,21544,1,0,0:0:0:35:hiphop_closehh.wav
64,192,21744,1,0,0:0:0:35:hiphop_kick.wav
320,192,21744,128,0,21943:0:0:0:35:hiphop_clap.wav
192,192,21943,1,0,0:0:0:35:hiphop_kick.wav
448,192,21943,1,0,0:0:0:35:hiphop_closehh.wav
320,192,22142,1,0,0:0:0:35:hiphop_snare.wav
192,192,22142,1,0,0:0:0:35:hiphop_clap.wav
64,192,22142,128,0,22342:0:0:0:35:hiphop_clap.wav
192,192,22342,1,0,0:0:0:35:hiphop_closehh.wav
448,192,22541,1,0,0:0:0:35:hiphop_kick.wav
320,192,22541,128,0,22740:0:0:0:35:hiphop_clap.wav
64,192,22740,1,0,0:0:0:35:hiphop_kick.wav
192,192,22740,1,0,0:0:0:35:hiphop_closehh.wav
64,192,22940,1,0,0:0:0:35:hiphop_snare.wav
320,192,22940,1,0,0:0:0:35:hiphop_snare.wav
448,192,22940,128,0,23139:0:0:0:35:hiphop_clap.wav
192,192,23139,1,0,0:0:0:35:hiphop_closehh.wav
448,192,23338,1,0,0:0:0:35:hiphop_kick.wav
192,192,23338,128,0,23538:0:0:0:35:hiphop_clap.wav
320,192,23538,1,0,0:0:0:35:hiphop_kick.wav
64,192,23538,1,0,0:0:0:35:hiphop_closehh.wav
320,192,23737,1,0,0:0:0:35:hiphop_snare.wav
448,192,23737,1,0,0:0:0:35:hiphop_snare.wav
64,192,23737,128,0,23936:0:0:0:35:hiphop_clap.wav
448,192,23936,128,0,24136:0:0:0:35:hiphop_clap.wav
192,192,23936,1,0,0:0:0:35:hiphop_closehh.wav
64,192,24136,128,0,24335:0:0:0:35:hiphop_clap.wav
320,192,24136,1,0,0:0:0:35:hiphop_kick.wav
320,192,24335,128,0,24534:0:0:0:35:hiphop_clap.wav
192,192,24335,1,0,0:0:0:35:hiphop_closehh.wav
192,192,24534,128,0,24734:0:0:0:35:hiphop_clap.wav
448,192,24534,1,0,0:0:0:35:hiphop_snare.wav
320,192,24734,128,0,24933:0:0:0:35:hiphop_clap.wav
64,192,24734,1,0,0:0:0:35:hiphop_closehh.wav
64,192,24933,128,0,25132:0:0:0:35:hiphop_clap.wav
448,192,24933,1,0,0:0:0:35:hiphop_kick.wav
448,192,25132,128,0,25332:0:0:0:35:hiphop_clap.wav
320,192,25132,1,0,0:0:0:35:hiphop_closehh.wav
64,192,25332,128,0,25531:0:0:0:35:hiphop_clap.wav
192,192,25332,1,0,0:0:0:35:hiphop_snare.wav
448,192,25531,128,0,25730:0:0:0:35:hiphop_clap.wav
320,192,25531,1,0,0:0:0:35:hiphop_closehh.wav
192,192,25730,1,0,0:0:0:35:hiphop_kick.wav
64,192,25730,128,0,25930:0:0:0:35:hiphop_clap.wav
320,192,25930,1,0,0:0:0:35:hiphop_closehh.wav
192,192,26129,1,0,0:0:0:35:hiphop_clap.wav
448,192,26129,128,0,26328:0:0:0:35:hiphop_clap.wav
64,192,26328,1,0,0:0:0:35:hiphop_snare.wav
320,192,26328,1,0,0:0:0:35:hiphop_closehh.wav
448,192,26528,1,0,0:0:0:35:hiphop_kick.wav
64,192,26528,128,0,26727:0:0:0:35:hiphop_clap.wav
192,192,26528,1,0,0:0:0:35:hiphop_kick.wav
320,192,26727,1,0,0:0:0:35:hiphop_closehh.wav
448,192,26926,1,0,0:0:0:35:hiphop_clap.wav
192,192,26926,128,0,27126:0:0:0:35:hiphop_clap.wav
64,192,27126,1,0,0:0:0:35:hiphop_snare.wav
448,192,27126,1,0,0:0:0:35:hiphop_closehh.wav
448,192,27325,1,0,0:0:0:35:hiphop_kick.wav
64,192,27325,1,0,0:0:0:35:hiphop_kick.wav
320,192,27325,128,0,27524:0:0:0:35:hiphop_clap.wav
192,192,27524,1,0,0:0:0:35:hiphop_closehh.wav
192,192,27724,128,0,27923:0:0:0:35:hiphop_clap.wav
448,192,27724,1,0,0:0:0:35:hiphop_snare.wav
64,192,27923,1,0,0:0:0:35:hiphop_clap.wav
320,192,27923,1,0,0:0:0:35:hiphop_closehh.wav
320,192,28122,128,0,28322:0:0:0:35:hiphop_clap.wav
448,192,28122,1,0,0:0:0:35:hiphop_kick.wav
192,192,28122,1,0,0:0:0:35:hiphop_kick.wav
64,192,28322,1,0,0:0:0:35:hiphop_closehh.wav
192,192,28521,1,0,0:0:0:35:hiphop_snare.wav
448,192,28521,128,0,28720:0:0:0:35:hiphop_clap.wav
64,192,28720,1,0,0:0:0:35:hiphop_clap.wav
320,192,28720,1,0,0:0:0:35:hiphop_closehh.wav
64,192,28920,1,0,0:0:0:35:hiphop_kick.wav
320,192,28920,128,0,29119:0:0:0:35:hiphop_clap.wav
192,192,29119,1,0,0:0:0:35:hiphop_closehh.wav
448,192,29119,128,0,29318:0:0:0:35:hiphop_clap.wav
320,192,29318,1,0,0:0:0:35:hiphop_snare.wav
64,192,29318,1,0,0:0:0:35:hiphop_clap.wav
192,192,29518,1,0,0:0:0:35:hiphop_closehh.wav
448,192,29717,1,0,0:0:0:35:hiphop_kick.wav
192,192,29717,128,0,29916:0:0:0:35:hiphop_clap.wav
320,192,29916,1,0,0:0:0:35:hiphop_closehh.wav
64,192,29916,128,0,30116:0:0:0:35:hiphop_clap.wav
192,192,30116,1,0,0:0:0:35:hiphop_snare.wav
448,192,30116,1,0,0:0:0:35:hiphop_clap.wav
320,192,30315,1,0,0:0:0:35:hiphop_closehh.wav
320,192,30515,1,0,0:0:0:35:hiphop_kick.wav
64,192,30515,1,0,0:0:0:0:
192,192,30614,1,0,0:0:0:0:
320,192,30714,1,0,0:0:0:0:
448,192,30814,1,0,0:0:0:0:
64,192,30913,1,0,0:0:0:35:hiphop_kick.wav
320,192,30913,1,0,0:0:0:35:hiphop_kick.wav
192,192,31013,1,0,0:0:0:0:
320,192,31113,1,0,0:0:0:0:
448,192,31212,1,0,0:0:0:0:
64,192,31312,1,0,0:0:0:35:hiphop_kick.wav
320,192,31312,1,0,0:0:0:35:hiphop_kick.wav
192,192,31412,1,0,0:0:0:0:
320,192,31511,1,0,0:0:0:0:
448,192,31611,1,0,0:0:0:0:
64,192,31711,1,0,0:0:0:35:hiphop_kick.wav
320,192,31711,1,0,0:0:0:35:hiphop_kick.wav
192,192,31810,1,0,0:0:0:0:
320,192,31910,1,0,0:0:0:0:
448,192,32010,1,0,0:0:0:0:
64,192,32109,128,0,32508:0:0:0:35:hiphop_ride.wav
192,192,32109,128,0,32508:0:0:0:35:hiphop_ride.wav
448,192,32907,1,0,0:0:0:35:hiphop_openhh.wav
448,192,33505,1,0,0:0:0:35:hiphop_closehh.wav
64,192,33704,1,0,0:0:0:35:hiphop_kick.wav
448,192,33903,1,0,0:0:0:35:hiphop_closehh.wav
448,192,34302,1,0,0:0:0:35:hiphop_closehh.wav
320,192,34501,1,0,0:0:0:35:hiphop_closehh.wav
64,192,34501,1,0,0:0:0:35:hiphop_kick.wav
192,192,34701,1,0,0:0:0:35:hiphop_closehh.wav
64,192,34900,1,0,0:0:0:35:hiphop_openhh.wav
192,192,35099,1,0,0:0:0:35:hiphop_closehh.wav
320,192,35299,1,0,0:0:0:35:hiphop_kick.wav
448,192,35299,1,0,0:0:0:35:hiphop_closehh.wav
192,192,35498,1,0,0:0:0:35:hiphop_closehh.wav
64,192,35697,1,0,0:0:0:35:hiphop_closehh.wav
192,192,35897,1,0,0:0:0:35:hiphop_openhh.wav
64,192,36096,1,0,0:0:0:35:hiphop_closehh.wav
448,192,36096,1,0,0:0:0:35:hiphop_kick.wav
320,192,36295,1,0,0:0:0:35:hiphop_closehh.wav
192,192,36495,1,0,0:0:0:35:hiphop_closehh.wav
320,192,36694,1,0,0:0:0:35:hiphop_openhh.wav
448,192,36893,1,0,0:0:0:35:hiphop_closehh.wav
192,192,36893,1,0,0:0:0:35:hiphop_kick.wav
64,192,37093,1,0,0:0:0:35:hiphop_closehh.wav
320,192,37292,1,0,0:0:0:35:hiphop_closehh.wav
192,192,37491,1,0,0:0:0:35:hiphop_closehh.wav
320,192,37691,1,0,0:0:0:35:hiphop_closehh.wav
448,192,37691,1,0,0:0:0:35:hiphop_kick.wav
64,192,37890,1,0,0:0:0:35:hiphop_closehh.wav
320,192,38089,1,0,0:0:0:35:hiphop_closehh.wav
448,192,38089,1,0,0:0:0:35:hiphop_kick.wav
192,192,38289,1,0,0:0:0:35:hiphop_closehh.wav
448,192,38488,1,0,0:0:0:35:hiphop_kick.wav
64,192,38488,128,0,38687:0:0:0:35:hiphop_clap.wav
192,192,38687,128,0,38887:0:0:0:35:hiphop_clap.wav
320,192,38887,128,0,39086:0:0:0:35:hiphop_clap.wav
64,192,38887,1,0,0:0:0:35:hiphop_kick.wav
448,192,39086,128,0,39285:0:0:0:35:hiphop_clap.wav
320,192,39285,128,0,39485:0:0:0:35:hiphop_clap.wav
64,192,39285,1,0,0:0:0:35:hiphop_kick.wav
192,192,39485,128,0,39684:0:0:0:35:hiphop_clap.wav
64,192,39684,128,0,39883:0:0:0:35:hiphop_clap.wav
320,192,39684,1,0,0:0:0:35:hiphop_kick.wav
448,192,39883,1,0,0:0:0:35:hiphop_closehh.wav
448,192,40083,128,0,40282:0:0:0:35:hiphop_clap.wav
64,192,40083,1,0,0:0:0:35:hiphop_kick.wav
320,192,40282,128,0,40481:0:0:0:35:hiphop_clap.wav
192,192,40481,128,0,40681:0:0:0:35:hiphop_clap.wav
448,192,40481,1,0,0:0:0:35:hiphop_kick.wav
64,192,40681,128,0,40880:0:0:0:35:hiphop_clap.wav
192,192,40880,128,0,41079:0:0:0:35:hiphop_clap.wav
448,192,40880,1,0,0:0:0:35:hiphop_kick.wav
320,192,41079,128,0,41279:0:0:0:35:hiphop_clap.wav
64,192,41279,1,0,0:0:0:35:hiphop_kick.wav
448,192,41279,128,0,41478:0:0:0:35:hiphop_clap.wav
192,192,41478,1,0,0:0:0:35:hiphop_closehh.wav
448,192,41677,128,0,41877:0:0:0:35:hiphop_clap.wav
64,192,41677,1,0,0:0:0:35:hiphop_kick.wav
64,192,41877,128,0,42076:0:0:0:35:hiphop_clap.wav
320,192,41877,1,0,0:0:0:35:hiphop_kick.wav
448,192,42076,128,0,42275:0:0:0:35:hiphop_clap.wav
192,192,42076,1,0,0:0:0:35:hiphop_kick.wav
64,192,42275,128,0,42475:0:0:0:35:hiphop_clap.wav
320,192,42275,1,0,0:0:0:35:hiphop_kick.wav
320,192,42475,128,0,42674:0:0:0:35:hiphop_clap.wav
192,192,42475,1,0,0:0:0:35:hiphop_kick.wav
192,192,42674,128,0,42873:0:0:0:35:hiphop_clap.wav
448,192,42674,1,0,0:0:0:35:hiphop_kick.wav
320,192,42873,128,0,43073:0:0:0:35:hiphop_clap.wav
64,192,42873,1,0,0:0:0:35:hiphop_kick.wav
192,192,43073,128,0,43272:0:0:0:35:hiphop_clap.wav
448,192,43073,1,0,0:0:0:35:hiphop_kick.wav
64,192,43272,1,0,0:0:0:35:hiphop_kick.wav
448,192,43372,1,0,0:0:0:35:hiphop_kick.wav
320,192,43471,1,0,0:0:0:35:hiphop_kick.wav
192,192,43571,1,0,0:0:0:35:hiphop_kick.wav
64,192,43671,1,0,0:0:0:35:hiphop_kick.wav
192,192,43770,1,0,0:0:0:35:hiphop_kick.wav
320,192,43870,1,0,0:0:0:35:hiphop_kick.wav
448,192,43970,1,0,0:0:0:35:hiphop_kick.wav
64,192,44069,128,0,44867:0:0:0:35:hiphop_openhh.wav
320,192,44069,1,0,0:0:0:35:hiphop_snare.wav
448,192,44468,128,0,44867:0:0:0:35:hiphop_openhh.wav
192,192,44468,1,0,0:0:0:35:hiphop_snare.wav
320,192,44867,128,0,45664:0:0:0:35:hiphop_kick.wav
192,192,44867,1,0,0:0:0:35:hiphop_kick.wav
64,192,45265,1,0,0:0:0:35:hiphop_kick.wav
448,192,45265,1,0,0:0:0:35:hiphop_kick.wav
192,192,45265,128,0,45664:0:0:0:35:hiphop_kick.wav
64,192,45664,1,0,0:0:0:35:hiphop_kick.wav
448,192,45664,1,0,0:0:0:35:hiphop_kick.wav
64,192,45863,1,0,0:0:0:35:hiphop_clap.wav
192,192,45963,1,0,0:0:0:35:hiphop_clap.wav
448,192,46063,1,0,0:0:0:35:hiphop_snare.wav
320,192,46063,1,0,0:0:0:35:hiphop_openhh.wav
64,192,46063,128,0,46162:0:0:0:35:hiphop_clap.wav
192,192,46162,128,0,46262:0:0:0:35:hiphop_clap.wav
320,192,46262,128,0,46362:0:0:0:35:hiphop_clap.wav
448,192,46362,128,0,46461:0:0:0:35:hiphop_clap.wav
192,192,46461,1,0,0:0:0:35:hiphop_kick.wav
64,192,46461,1,0,0:0:0:35:hiphop_kick.wav
320,192,46561,1,0,0:0:0:35:hiphop_tom3.wav
320,192,46760,1,0,0:0:0:35:hiphop_tom3.wav
192,192,46860,1,0,0:0:0:35:hiphop_kick.wav
64,192,46860,1,0,0:0:0:35:hiphop_kick.wav
448,192,46860,1,0,0:0:0:35:hiphop_tom3.wav
320,192,47059,1,0,0:0:0:35:hiphop_tom3.wav
448,192,47159,1,0,0:0:0:35:hiphop_tom3.wav
64,192,47259,1,0,0:0:0:35:hiphop_kick.wav
192,192,47259,1,0,0:0:0:35:hiphop_kick.wav
448,192,47458,1,0,0:0:0:35:hiphop_tom3.wav
320,192,47558,1,0,0:0:0:35:hiphop_tom3.wav
64,192,47657,1,0,0:0:0:35:hiphop_snare.wav
192,192,47657,1,0,0:0:0:35:hiphop_openhh.wav
448,192,47657,128,0,47757:0:0:0:35:hiphop_clap.wav
320,192,47757,128,0,47857:0:0:0:35:hiphop_clap.wav
192,192,47857,128,0,47956:0:0:0:35:hiphop_clap.wav
64,192,47956,128,0,48056:0:0:0:35:hiphop_clap.wav
320,192,48056,1,0,0:0:0:35:hiphop_kick.wav
448,192,48056,1,0,0:0:0:35:hiphop_kick.wav
192,192,48156,1,0,0:0:0:35:hiphop_tom2.wav
192,192,48355,1,0,0:0:0:35:hiphop_tom2.wav
320,192,48455,1,0,0:0:0:35:hiphop_kick.wav
448,192,48455,1,0,0:0:0:35:hiphop_kick.wav
64,192,48455,1,0,0:0:0:35:hiphop_tom2.wav
192,192,48654,1,0,0:0:0:35:hiphop_tom2.wav
64,192,48754,1,0,0:0:0:35:hiphop_tom2.wav
192,192,48853,1,0,0:0:0:35:hiphop_kick.wav
448,192,48853,1,0,0:0:0:35:hiphop_kick.wav
320,192,49053,1,0,0:0:0:35:hiphop_tom2.wav
448,192,49252,1,0,0:0:0:35:hiphop_snare.wav
64,192,49252,128,0,49451:0:0:0:35:hiphop_snare.wav
192,192,49252,128,0,49850:0:0:0:35:hiphop_clap.wav
320,192,49451,1,0,0:0:0:35:hiphop_closehh.wav
448,192,49651,1,0,0:0:0:35:hiphop_kick.wav
320,192,49850,128,0,50448:0:0:0:35:hiphop_clap.wav
64,192,49850,1,0,0:0:0:35:hiphop_closehh.wav
192,192,50049,1,0,0:0:0:35:hiphop_snare.wav
64,192,50249,1,0,0:0:0:35:hiphop_closehh.wav
448,192,50448,1,0,0:0:0:35:hiphop_kick.wav
192,192,50448,1,0,0:0:0:35:hiphop_kick.wav
320,192,50647,1,0,0:0:0:35:hiphop_closehh.wav
64,192,50847,1,0,0:0:0:35:hiphop_snare.wav
448,192,50847,1,0,0:0:0:35:hiphop_openhh.wav
192,192,51046,1,0,0:0:0:35:hiphop_snare.wav
320,192,51046,1,0,0:0:0:35:hiphop_openhh.wav
64,192,51245,1,0,0:0:0:35:hiphop_kick.wav
448,192,51245,1,0,0:0:0:35:hiphop_kick.wav
192,192,51245,128,0,51445:0:0:0:35:hiphop_clap.wav
320,192,51245,128,0,51445:0:0:0:35:hiphop_clap.wav
64,192,51644,1,0,0:0:0:35:hiphop_kick.wav
448,192,51644,1,0,0:0:0:35:hiphop_kick.wav
192,192,51744,1,0,0:0:0:35:hiphop_clap.wav
320,192,51843,1,0,0:0:0:35:hiphop_clap.wav
192,192,51943,1,0,0:0:0:35:hiphop_clap.wav
64,192,52043,1,0,0:0:0:35:hiphop_kick.wav
448,192,52043,1,0,0:0:0:35:hiphop_kick.wav
320,192,52043,128,0,52242:0:0:0:35:hiphop_clap.wav
192,192,52242,128,0,52441:0:0:0:35:hiphop_clap.wav
64,192,52441,1,0,0:0:0:35:hiphop_snare.wav
320,192,52441,128,0,52641:0:0:0:35:hiphop_snare.wav
448,192,52641,1,0,0:0:0:35:hiphop_closehh.wav
320,192,52840,1,0,0:0:0:35:hiphop_kick.wav
192,192,52840,1,0,0:0:0:35:hiphop_kick.wav
64,192,52840,128,0,53039:0:0:0:35:hiphop_clap.wav
448,192,53039,128,0,53239:0:0:0:35:hiphop_clap.wav
320,192,53239,128,0,53438:0:0:0:35:hiphop_clap.wav
192,192,53239,1,0,0:0:0:35:hiphop_kick.wav
448,192,53438,1,0,0:0:0:35:hiphop_closehh.wav
64,192,53637,1,0,0:0:0:35:hiphop_kick.wav
320,192,53637,1,0,0:0:0:35:hiphop_kick.wav
64,192,53837,1,0,0:0:0:35:hiphop_clap.wav
192,192,53936,1,0,0:0:0:35:hiphop_clap.wav
320,192,54036,1,0,0:0:0:35:hiphop_snare.wav
448,192,54036,1,0,0:0:0:35:hiphop_snare.wav
320,192,54235,1,0,0:0:0:35:hiphop_snare.wav
448,192,54235,1,0,0:0:0:35:hiphop_snare.wav
64,192,54435,1,0,0:0:0:35:hiphop_kick.wav
192,192,54435,1,0,0:0:0:35:hiphop_kick.wav
448,192,54435,128,0,54833:0:0:0:35:hiphop_clap.wav
192,192,54833,1,0,0:0:0:35:hiphop_kick.wav
64,192,54833,1,0,0:0:0:35:hiphop_kick.wav
320,192,54833,128,0,55232:0:0:0:35:hiphop_clap.wav
192,192,55232,1,0,0:0:0:35:hiphop_kick.wav
64,192,55232,1,0,0:0:0:35:hiphop_kick.wav
448,192,55232,128,0,55431:0:0:0:35:hiphop_clap.wav
64,192,55431,128,0,55631:0:0:0:35:hiphop_clap.wav
320,192,55631,1,0,0:0:0:35:hiphop_openhh.wav
192,192,55631,1,0,0:0:0:35:hiphop_snare.wav
448,192,55631,128,0,55830:0:0:0:35:hiphop_clap.wav
64,192,55830,128,0,56029:0:0:0:35:hiphop_clap.wav
320,192,56029,1,0,0:0:0:35:hiphop_kick.wav
448,192,56029,1,0,0:0:0:35:hiphop_kick.wav
192,192,56029,128,0,56229:0:0:0:35:hiphop_clap.wav
320,192,56229,128,0,56428:0:0:0:35:hiphop_clap.wav
64,192,56428,1,0,0:0:0:35:hiphop_kick.wav
448,192,56428,1,0,0:0:0:35:hiphop_kick.wav
192,192,56428,128,0,56627:0:0:0:35:hiphop_clap.wav
320,192,56627,128,0,56827:0:0:0:35:hiphop_clap.wav
64,192,56827,1,0,0:0:0:35:hiphop_kick.wav
192,192,56827,1,0,0:0:0:35:hiphop_kick.wav
448,192,57026,1,0,0:0:0:35:hiphop_clap.wav
320,192,57126,1,0,0:0:0:35:hiphop_clap.wav
64,192,57225,1,0,0:0:0:35:hiphop_openhh.wav
192,192,57225,1,0,0:0:0:35:hiphop_snare.wav
192,192,57425,1,0,0:0:0:35:hiphop_snare.wav
64,192,57425,1,0,0:0:0:35:hiphop_openhh.wav
320,192,57624,5,0,0:0:0:35:hiphop_kick.wav
448,192,57624,5,0,0:0:0:35:hiphop_closehh.wav
448,192,57823,1,0,0:0:0:35:hiphop_closehh.wav
320,192,57923,1,0,0:0:0:35:hiphop_closehh.wav
64,192,58023,1,0,0:0:0:35:hiphop_snare.wav
192,192,58023,1,0,0:0:0:35:hiphop_openhh.wav
448,192,58222,1,0,0:0:0:35:hiphop_closehh.wav
192,192,58421,1,0,0:0:0:35:hiphop_closehh.wav
320,192,58421,1,0,0:0:0:35:hiphop_kick.wav
64,192,58621,1,0,0:0:0:35:hiphop_snare.wav
320,192,58621,1,0,0:0:0:35:hiphop_closehh.wav
448,192,58820,1,0,0:0:0:35:hiphop_kick.wav
192,192,58820,1,0,0:0:0:35:hiphop_closehh.wav
64,192,59019,1,0,0:0:0:35:hiphop_openhh.wav
320,192,59019,1,0,0:0:0:35:hiphop_closehh.wav
192,192,59219,1,0,0:0:0:35:hiphop_closehh.wav
448,192,59219,1,0,0:0:0:35:hiphop_kick.wav
320,192,59418,1,0,0:0:0:35:hiphop_openhh.wav
192,192,59617,1,0,0:0:0:35:hiphop_closehh.wav
64,192,59617,1,0,0:0:0:35:hiphop_kick.wav
320,192,59817,1,0,0:0:0:15:hiphop_closehh.wav
448,192,60016,1,0,0:0:0:15:hiphop_kick.wav
64,192,60016,1,0,0:0:0:15:hiphop_closehh.wav
320,192,60216,1,0,0:0:0:15:hiphop_closehh.wav
64,192,60415,1,0,0:0:0:15:hiphop_closehh.wav
192,192,60415,1,0,0:0:0:15:hiphop_kick.wav
448,192,60614,1,0,0:0:0:15:hiphop_closehh.wav
320,192,60814,5,0,0:0:0:35:hiphop_kick.wav
64,192,60814,5,0,0:0:0:35:hiphop_closehh.wav
64,192,61013,1,0,0:0:0:35:hiphop_closehh.wav
192,192,61113,1,0,0:0:0:35:hiphop_closehh.wav
320,192,61212,1,0,0:0:0:35:hiphop_openhh.wav
448,192,61212,1,0,0:0:0:35:hiphop_snare.wav
64,192,61412,1,0,0:0:0:35:hiphop_closehh.wav
448,192,61611,1,0,0:0:0:35:hiphop_closehh.wav
320,192,61611,1,0,0:0:0:35:hiphop_kick.wav
192,192,61810,1,0,0:0:0:35:hiphop_snare.wav
64,192,61810,1,0,0:0:0:35:hiphop_closehh.wav
192,192,62010,1,0,0:0:0:35:hiphop_kick.wav
320,192,62010,1,0,0:0:0:35:hiphop_closehh.wav
448,192,62209,1,0,0:0:0:35:hiphop_openhh.wav
320,192,62209,1,0,0:0:0:35:hiphop_closehh.wav
320,192,62408,1,0,0:0:0:35:hiphop_closehh.wav
192,192,62408,1,0,0:0:0:35:hiphop_kick.wav
64,192,62608,1,0,0:0:0:35:hiphop_openhh.wav
320,192,62807,1,0,0:0:0:35:hiphop_closehh.wav
448,192,62807,1,0,0:0:0:35:hiphop_kick.wav
192,192,63006,1,0,0:0:0:15:hiphop_closehh.wav
64,192,63206,1,0,0:0:0:15:hiphop_kick.wav
448,192,63206,1,0,0:0:0:15:hiphop_closehh.wav
448,192,63405,128,0,63604:0:0:0:35:hiphop_clap.wav
320,192,63405,1,0,0:0:0:15:hiphop_closehh.wav
192,192,63604,1,0,0:0:0:15:hiphop_kick.wav
320,192,63604,128,0,63804:0:0:0:35:hiphop_clap.wav
64,192,63804,1,0,0:0:0:35:hiphop_kick.wav
192,192,63804,128,0,64003:0:0:0:35:hiphop_clap.wav
320,192,64003,1,0,0:0:0:35:hiphop_openhh.wav
448,192,64003,1,0,0:0:0:35:hiphop_snare.wav
64,192,64202,1,0,0:0:0:35:hiphop_closehh.wav
192,192,64202,1,0,0:0:0:35:hiphop_closehh.wav
320,192,64402,1,0,0:0:0:35:hiphop_clap.wav
448,192,64402,128,0,64601:0:0:0:35:hiphop_snare.wav
192,192,64402,1,0,0:0:0:35:hiphop_closehh.wav
64,192,64601,1,0,0:0:0:35:hiphop_closehh.wav
448,192,64800,1,0,0:0:0:35:hiphop_kick.wav
320,192,64800,1,0,0:0:0:35:hiphop_kick.wav
192,192,65000,1,0,0:0:0:35:hiphop_openhh.wav
64,192,65000,1,0,0:0:0:35:hiphop_closehh.wav
192,192,65199,1,0,0:0:0:35:hiphop_clap.wav
448,192,65199,128,0,65398:0:0:0:35:hiphop_snare.wav
320,192,65398,1,0,0:0:0:35:hiphop_closehh.wav
64,192,65398,1,0,0:0:0:35:hiphop_closehh.wav
64,192,65598,1,0,0:0:0:35:hiphop_kick.wav
320,192,65598,1,0,0:0:0:35:hiphop_kick.wav
192,192,65797,1,0,0:0:0:35:hiphop_closehh.wav
448,192,65797,1,0,0:0:0:35:hiphop_closehh.wav
192,192,65996,128,0,66196:0:0:0:35:hiphop_snare.wav
320,192,65996,1,0,0:0:0:35:hiphop_clap.wav
448,192,65996,1,0,0:0:0:35:hiphop_closehh.wav
64,192,66196,1,0,0:0:0:35:hiphop_closehh.wav
192,192,66395,1,0,0:0:0:35:hiphop_kick.wav
448,192,66395,1,0,0:0:0:35:hiphop_kick.wav
192,192,66594,1,0,0:0:0:35:hiphop_openhh.wav
448,192,66594,1,0,0:0:0:35:hiphop_closehh.wav
320,192,66794,128,0,66993:0:0:0:35:hiphop_snare.wav
64,192,66794,1,0,0:0:0:35:hiphop_clap.wav
448,192,66993,1,0,0:0:0:35:hiphop_closehh.wav
192,192,66993,1,0,0:0:0:35:hiphop_closehh.wav
448,192,67192,1,0,0:0:0:35:hiphop_kick.wav
64,192,67192,1,0,0:0:0:35:hiphop_kick.wav
320,192,67392,1,0,0:0:0:35:hiphop_closehh.wav
64,192,67392,1,0,0:0:0:35:hiphop_closehh.wav
320,192,67591,128,0,67790:0:0:0:35:hiphop_snare.wav
64,192,67591,1,0,0:0:0:35:hiphop_clap.wav
448,192,67591,1,0,0:0:0:35:hiphop_closehh.wav
192,192,67790,1,0,0:0:0:35:hiphop_closehh.wav
448,192,67990,1,0,0:0:0:35:hiphop_kick.wav
64,192,67990,1,0,0:0:0:35:hiphop_kick.wav
192,192,68189,1,0,0:0:0:35:hiphop_openhh.wav
448,192,68189,1,0,0:0:0:35:hiphop_closehh.wav
448,192,68388,1,0,0:0:0:35:hiphop_clap.wav
192,192,68388,128,0,68588:0:0:0:35:hiphop_snare.wav
64,192,68588,1,0,0:0:0:35:hiphop_closehh.wav
320,192,68588,1,0,0:0:0:35:hiphop_closehh.wav
448,192,68787,1,0,0:0:0:35:hiphop_kick.wav
64,192,68787,1,0,0:0:0:35:hiphop_kick.wav
192,192,68986,1,0,0:0:0:35:hiphop_closehh.wav
320,192,68986,1,0,0:0:0:35:hiphop_closehh.wav
64,192,69186,1,0,0:0:0:35:hiphop_clap.wav
320,192,69186,128,0,69385:0:0:0:35:hiphop_snare.wav
192,192,69186,1,0,0:0:0:35:hiphop_closehh.wav
448,192,69385,1,0,0:0:0:35:hiphop_closehh.wav
320,192,69584,1,0,0:0:0:35:hiphop_kick.wav
64,192,69584,1,0,0:0:0:35:hiphop_kick.wav
448,192,69784,1,0,0:0:0:35:hiphop_closehh.wav
192,192,69784,1,0,0:0:0:35:hiphop_openhh.wav
192,192,69983,128,0,70182:0:0:0:35:hiphop_snare.wav
320,192,69983,1,0,0:0:0:35:hiphop_clap.wav
448,192,70182,1,0,0:0:0:35:hiphop_closehh.wav
64,192,70182,1,0,0:0:0:35:hiphop_closehh.wav
64,192,70382,1,0,0:0:0:35:hiphop_kick.wav
320,192,70382,1,0,0:0:0:35:hiphop_kick.wav
448,192,70581,1,0,0:0:0:35:hiphop_closehh.wav
192,192,70581,1,0,0:0:0:35:hiphop_closehh.wav
320,192,70780,128,0,70980:0:0:0:35:hiphop_snare.wav
64,192,70780,1,0,0:0:0:35:hiphop_clap.wav
448,192,70780,1,0,0:0:0:35:hiphop_closehh.wav
192,192,70980,1,0,0:0:0:35:hiphop_closehh.wav
320,192,71179,1,0,0:0:0:35:hiphop_kick.wav
64,192,71179,1,0,0:0:0:35:hiphop_kick.wav
448,192,71378,1,0,0:0:0:35:hiphop_closehh.wav
192,192,71378,1,0,0:0:0:35:hiphop_openhh.wav
64,192,71578,1,0,0:0:0:35:hiphop_clap.wav
320,192,71578,128,0,71777:0:0:0:35:hiphop_snare.wav
192,192,71777,1,0,0:0:0:35:hiphop_closehh.wav
64,192,71777,1,0,0:0:0:35:hiphop_closehh.wav
320,192,71976,1,0,0:0:0:35:hiphop_kick.wav
448,192,71976,1,0,0:0:0:35:hiphop_kick.wav
192,192,72176,1,0,0:0:0:35:hiphop_closehh.wav
64,192,72176,1,0,0:0:0:35:hiphop_closehh.wav
320,192,72375,1,0,0:0:0:35:hiphop_clap.wav
448,192,72375,128,0,72574:0:0:0:35:hiphop_snare.wav
192,192,72375,1,0,0:0:0:35:hiphop_closehh.wav
64,192,72574,1,0,0:0:0:35:hiphop_closehh.wav
448,192,72774,1,0,0:0:0:35:hiphop_kick.wav
320,192,72774,1,0,0:0:0:35:hiphop_kick.wav
64,192,72973,1,0,0:0:0:35:hiphop_closehh.wav
192,192,72973,1,0,0:0:0:35:hiphop_openhh.wav
320,192,73172,128,0,73372:0:0:0:35:hiphop_snare.wav
192,192,73172,1,0,0:0:0:35:hiphop_clap.wav
448,192,73372,1,0,0:0:0:35:hiphop_closehh.wav
64,192,73372,1,0,0:0:0:35:hiphop_closehh.wav
448,192,73571,1,0,0:0:0:35:hiphop_kick.wav
320,192,73571,1,0,0:0:0:35:hiphop_kick.wav
64,192,73770,1,0,0:0:0:35:hiphop_closehh.wav
192,192,73770,1,0,0:0:0:35:hiphop_closehh.wav
192,192,73970,128,0,74169:0:0:0:35:hiphop_snare.wav
448,192,73970,1,0,0:0:0:35:hiphop_clap.wav
320,192,73970,1,0,0:0:0:35:hiphop_closehh.wav
64,192,74169,1,0,0:0:0:35:hiphop_closehh.wav
192,192,74368,1,0,0:0:0:35:hiphop_kick.wav
448,192,74368,1,0,0:0:0:35:hiphop_kick.wav
320,192,74568,1,0,0:0:0:35:hiphop_openhh.wav
64,192,74568,1,0,0:0:0:35:hiphop_closehh.wav
192,192,74767,1,0,0:0:0:35:hiphop_clap.wav
64,192,74767,128,0,74966:0:0:0:35:hiphop_snare.wav
320,192,74966,1,0,0:0:0:35:hiphop_closehh.wav
448,192,74966,1,0,0:0:0:35:hiphop_closehh.wav
448,192,75166,128,0,75764:0:0:0:35:hiphop_kick.wav
320,192,75365,128,0,75963:0:0:0:35:hiphop_closehh.wav
192,192,75564,128,0,76162:0:0:0:35:hiphop_snare.wav
64,192,75764,128,0,76362:0:0:0:35:hiphop_closehh.wav
448,192,75963,128,0,76561:0:0:0:35:hiphop_kick.wav
320,192,76162,128,0,76561:0:0:0:35:hiphop_openhh.wav
192,192,76362,128,0,76561:0:0:0:35:hiphop_snare.wav
64,192,76561,1,0,0:0:0:35:hiphop_closehh.wav
192,192,76760,1,0,0:0:0:35:hiphop_kick.wav
448,192,76760,1,0,0:0:0:35:hiphop_kick.wav
320,192,76960,1,0,0:0:0:35:hiphop_closehh.wav
64,192,76960,1,0,0:0:0:35:hiphop_closehh.wav
448,192,77159,1,0,0:0:0:35:hiphop_closehh.wav
320,192,77159,128,0,77358:0:0:0:35:hiphop_snare.wav
192,192,77159,1,0,0:0:0:35:hiphop_clap.wav
64,192,77358,1,0,0:0:0:35:hiphop_closehh.wav
192,192,77558,1,0,0:0:0:35:hiphop_kick.wav
320,192,77558,1,0,0:0:0:35:hiphop_kick.wav
448,192,77757,1,0,0:0:0:35:hiphop_closehh.wav
64,192,77757,1,0,0:0:0:35:hiphop_openhh.wav
192,192,77956,1,0,0:0:0:35:hiphop_clap.wav
320,192,77956,128,0,78156:0:0:0:35:hiphop_snare.wav
64,192,78156,1,0,0:0:0:35:hiphop_closehh.wav
448,192,78156,1,0,0:0:0:35:hiphop_closehh.wav
192,192,78355,1,0,0:0:0:35:hiphop_kick.wav
320,192,78355,1,0,0:0:0:35:hiphop_kick.wav
448,192,78554,1,0,0:0:0:35:hiphop_closehh.wav
64,192,78554,1,0,0:0:0:35:hiphop_closehh.wav
192,192,78754,128,0,78953:0:0:0:35:hiphop_snare.wav
320,192,78754,1,0,0:0:0:35:hiphop_clap.wav
64,192,78754,1,0,0:0:0:35:hiphop_closehh.wav
448,192,78953,1,0,0:0:0:35:hiphop_closehh.wav
320,192,79152,1,0,0:0:0:35:hiphop_kick.wav
192,192,79152,1,0,0:0:0:35:hiphop_kick.wav
448,192,79352,1,0,0:0:0:35:hiphop_openhh.wav
64,192,79352,1,0,0:0:0:35:hiphop_closehh.wav
320,192,79551,128,0,79750:0:0:0:35:hiphop_snare.wav
64,192,79551,1,0,0:0:0:35:hiphop_clap.wav
192,192,79750,1,0,0:0:0:35:hiphop_closehh.wav
448,192,79750,1,0,0:0:0:35:hiphop_closehh.wav
320,192,79950,1,0,0:0:0:70:hiphop_kick.wav
64,192,79950,128,0,81544:0:0:0:70:hiphop_clap.wav
192,192,79950,1,0,0:0:0:35:hiphop_kick.wav
448,192,80149,1,0,0:0:0:70:hiphop_closehh.wav
320,192,80348,1,0,0:0:0:70:hiphop_snare.wav
192,192,80348,128,0,80548:0:0:0:70:hiphop_clap.wav
448,192,80548,1,0,0:0:0:70:hiphop_closehh.wav
320,192,80747,1,0,0:0:0:70:hiphop_kick.wav
192,192,80747,1,0,0:0:0:70:hiphop_kick.wav
448,192,80946,1,0,0:0:0:70:hiphop_closehh.wav
192,192,81146,1,0,0:0:0:70:hiphop_snare.wav
320,192,81146,128,0,81345:0:0:0:70:hiphop_clap.wav
448,192,81345,1,0,0:0:0:70:hiphop_closehh.wav
320,192,81544,1,0,0:0:0:70:hiphop_kick.wav
448,192,81544,128,0,83139:0:0:0:70:hiphop_clap.wav
192,192,81544,1,0,0:0:0:35:hiphop_kick.wav
192,192,81744,1,0,0:0:0:70:hiphop_closehh.wav
64,192,81943,1,0,0:0:0:70:hiphop_snare.wav
320,192,81943,128,0,82142:0:0:0:70:hiphop_clap.wav
192,192,82142,1,0,0:0:0:70:hiphop_closehh.wav
320,192,82342,1,0,0:0:0:70:hiphop_kick.wav
64,192,82342,1,0,0:0:0:70:hiphop_kick.wav
192,192,82541,1,0,0:0:0:70:hiphop_closehh.wav
64,192,82740,1,0,0:0:0:70:hiphop_snare.wav
192,192,82740,128,0,82940:0:0:0:70:hiphop_clap.wav
320,192,82940,1,0,0:0:0:70:hiphop_closehh.wav
64,192,83139,1,0,0:0:0:70:hiphop_kick.wav
192,192,83139,1,0,0:0:0:70:hiphop_kick.wav
320,192,83139,128,0,84734:0:0:0:35:hiphop_clap.wav
448,192,83936,1,0,0:0:0:35:hiphop_openhh.wav
448,192,84534,1,0,0:0:0:35:hiphop_closehh.wav
64,192,84734,1,0,0:0:0:35:hiphop_kick.wav
192,192,84734,128,0,86328:0:0:0:35:hiphop_clap.wav
448,192,84933,1,0,0:0:0:35:hiphop_closehh.wav
448,192,85332,1,0,0:0:0:35:hiphop_closehh.wav
64,192,85531,1,0,0:0:0:35:hiphop_kick.wav
320,192,85531,1,0,0:0:0:35:hiphop_closehh.wav
448,192,85730,1,0,0:0:0:35:hiphop_closehh.wav
64,192,85930,1,0,0:0:0:35:hiphop_openhh.wav
448,192,86129,1,0,0:0:0:35:hiphop_closehh.wav
320,192,86328,1,0,0:0:0:35:hiphop_kick.wav
64,192,86328,128,0,87923:0:0:0:35:hiphop_clap.wav
192,192,86528,1,0,0:0:0:35:hiphop_closehh.wav
448,192,86727,1,0,0:0:0:35:hiphop_closehh.wav
192,192,86926,1,0,0:0:0:35:hiphop_openhh.wav
448,192,87126,1,0,0:0:0:35:hiphop_closehh.wav
320,192,87126,1,0,0:0:0:35:hiphop_kick.wav
192,192,87325,1,0,0:0:0:35:hiphop_closehh.wav
448,192,87524,1,0,0:0:0:35:hiphop_closehh.wav
320,192,87724,1,0,0:0:0:35:hiphop_openhh.wav
192,192,87923,1,0,0:0:0:35:hiphop_kick.wav
448,192,87923,128,0,89518:0:0:0:35:hiphop_clap.wav
320,192,88122,1,0,0:0:0:35:hiphop_closehh.wav
192,192,88322,1,0,0:0:0:35:hiphop_closehh.wav
320,192,88521,1,0,0:0:0:35:hiphop_closehh.wav
192,192,88720,1,0,0:0:0:35:hiphop_closehh.wav
64,192,88720,1,0,0:0:0:35:hiphop_kick.wav
320,192,88920,1,0,0:0:0:35:hiphop_closehh.wav
192,192,89119,1,0,0:0:0:35:hiphop_kick.wav
64,192,89119,1,0,0:0:0:35:hiphop_closehh.wav
320,192,89318,1,0,0:0:0:35:hiphop_closehh.wav
64,192,89518,5,0,0:0:0:35:hiphop_kick.wav
192,192,89518,1,0,0:0:0:35:hiphop_kick.wav
320,192,89518,128,0,90913:0:0:0:35:hiphop_clap.wav
64,192,89916,1,0,0:0:0:35:hiphop_kick.wav
192,192,89916,1,0,0:0:0:35:hiphop_kick.wav
64,192,90315,1,0,0:0:0:35:hiphop_kick.wav
192,192,90315,1,0,0:0:0:35:hiphop_kick.wav
64,192,90714,1,0,0:0:0:35:hiphop_kick.wav
192,192,90714,1,0,0:0:0:35:hiphop_kick.wav
448,192,90913,128,0,92707:0:0:0:35:hiphop_clap.wav
64,192,91113,1,0,0:0:0:35:hiphop_kick.wav
320,192,91113,1,0,0:0:0:35:hiphop_kick.wav
64,192,91511,1,0,0:0:0:35:hiphop_kick.wav
320,192,91511,1,0,0:0:0:35:hiphop_kick.wav
64,192,91910,1,0,0:0:0:35:hiphop_kick.wav
320,192,91910,1,0,0:0:0:35:hiphop_kick.wav
64,192,92309,1,0,0:0:0:35:hiphop_kick.wav
320,192,92309,1,0,0:0:0:35:hiphop_kick.wav
64,192,92707,1,0,0:0:0:35:hiphop_kick.wav
192,192,92707,1,0,0:0:0:35:hiphop_kick.wav
320,192,92707,128,0,94103:0:0:0:35:hiphop_clap.wav
448,192,92907,1,0,0:0:0:35:hiphop_snare.wav
64,192,93106,1,0,0:0:0:35:hiphop_kick.wav
192,192,93106,1,0,0:0:0:35:hiphop_kick.wav
448,192,93305,1,0,0:0:0:35:hiphop_snare.wav
192,192,93505,1,0,0:0:0:35:hiphop_kick.wav
64,192,93505,1,0,0:0:0:35:hiphop_kick.wav
448,192,93704,1,0,0:0:0:35:hiphop_snare.wav
64,192,93903,1,0,0:0:0:35:hiphop_kick.wav
192,192,93903,1,0,0:0:0:35:hiphop_kick.wav
448,192,94103,1,0,0:0:0:35:hiphop_snare.wav
448,192,94302,1,0,0:0:0:0:
192,192,94302,1,0,0:0:0:35:hiphop_kick.wav
64,192,94302,1,0,0:0:0:35:hiphop_kick.wav
320,192,94402,1,0,0:0:0:0:
192,192,94501,1,0,0:0:0:0:
64,192,94601,1,0,0:0:0:0:
448,192,94701,1,0,0:0:0:0:
320,192,94800,1,0,0:0:0:0:
192,192,94900,1,0,0:0:0:0:
64,192,95000,1,0,0:0:0:0:
448,192,95099,1,0,0:0:0:35:hiphop_openhh.wav
192,192,95099,1,0,0:0:0:35:hiphop_kick.wav
320,192,95099,1,0,0:0:0:35:hiphop_snare.wav
64,192,95498,1,0,0:0:0:35:hiphop_openhh.wav
320,192,95498,1,0,0:0:0:35:hiphop_kick.wav
192,192,95498,1,0,0:0:0:35:hiphop_snare.wav
192,192,95897,1,0,0:0:0:35:hiphop_kick.wav
320,192,95897,1,0,0:0:0:35:hiphop_kick.wav
448,192,95897,128,0,96295:0:0:0:0:
320,192,96295,1,0,0:0:0:35:hiphop_kick.wav
192,192,96295,1,0,0:0:0:35:hiphop_kick.wav
64,192,96295,128,0,96694:0:0:0:0:
320,192,96694,1,0,0:0:0:35:hiphop_kick.wav
192,192,96694,1,0,0:0:0:35:hiphop_kick.wav
320,192,96893,128,0,96993:0:0:0:35:hiphop_clap.wav
64,192,96993,128,0,97093:0:0:0:35:hiphop_clap.wav
448,192,97093,128,0,97192:0:0:0:35:hiphop_clap.wav
192,192,97192,128,0,97292:0:0:0:35:hiphop_clap.wav
64,192,97292,128,0,97392:0:0:0:35:hiphop_clap.wav
448,192,97392,128,0,97491:0:0:0:35:hiphop_clap.wav
192,192,97491,1,0,0:0:0:35:hiphop_kick.wav
320,192,97491,1,0,0:0:0:35:hiphop_kick.wav
64,192,97591,1,0,0:0:0:35:hiphop_clap.wav
64,192,97790,1,0,0:0:0:35:hiphop_clap.wav
320,192,97890,1,0,0:0:0:35:hiphop_kick.wav
448,192,97890,1,0,0:0:0:35:hiphop_kick.wav
192,192,97890,1,0,0:0:0:35:hiphop_clap.wav
64,192,98089,1,0,0:0:0:35:hiphop_clap.wav
192,192,98189,1,0,0:0:0:35:hiphop_clap.wav
320,192,98289,1,0,0:0:0:35:hiphop_kick.wav
448,192,98289,1,0,0:0:0:35:hiphop_kick.wav
192,192,98488,128,0,98588:0:0:0:35:hiphop_clap.wav
320,192,98588,128,0,98687:0:0:0:35:hiphop_clap.wav
64,192,98687,128,0,98787:0:0:0:35:hiphop_clap.wav
320,192,98787,128,0,98887:0:0:0:35:hiphop_clap.wav
192,192,98887,128,0,98986:0:0:0:35:hiphop_clap.wav
448,192,98986,128,0,99086:0:0:0:35:hiphop_clap.wav
320,192,99086,1,0,0:0:0:35:hiphop_kick.wav
192,192,99086,1,0,0:0:0:35:hiphop_kick.wav
64,192,99186,1,0,0:0:0:35:hiphop_tom2.wav
448,192,99385,1,0,0:0:0:35:hiphop_tom2.wav
64,192,99485,1,0,0:0:0:35:hiphop_kick.wav
192,192,99485,1,0,0:0:0:35:hiphop_kick.wav
320,192,99485,1,0,0:0:0:35:hiphop_tom2.wav
448,192,99684,1,0,0:0:0:35:hiphop_tom2.wav
320,192,99784,1,0,0:0:0:35:hiphop_tom2.wav
64,192,99883,1,0,0:0:0:35:hiphop_kick.wav
192,192,99883,1,0,0:0:0:35:hiphop_kick.wav
320,192,100083,1,0,0:0:0:35:hiphop_tom2.wav
64,192,100282,128,0,100481:0:0:0:35:hiphop_clap.wav
192,192,100282,1,0,0:0:0:35:hiphop_snare.wav
448,192,100282,1,0,0:0:0:35:hiphop_snare.wav
448,192,100481,128,0,100681:0:0:0:35:hiphop_clap.wav
192,192,100481,1,0,0:0:0:35:hiphop_closehh.wav
64,192,100681,128,0,100880:0:0:0:35:hiphop_clap.wav
192,192,100681,1,0,0:0:0:35:hiphop_kick.wav
448,192,100880,128,0,101079:0:0:0:35:hiphop_clap.wav
320,192,100880,1,0,0:0:0:35:hiphop_closehh.wav
64,192,101079,128,0,101279:0:0:0:35:hiphop_clap.wav
320,192,101079,1,0,0:0:0:35:hiphop_snare.wav
448,192,101279,128,0,101478:0:0:0:35:hiphop_clap.wav
320,192,101279,1,0,0:0:0:35:hiphop_closehh.wav
64,192,101478,1,0,0:0:0:35:hiphop_kick.wav
64,192,101677,1,0,0:0:0:35:hiphop_clap.wav
192,192,101777,1,0,0:0:0:35:hiphop_clap.wav
320,192,101877,1,0,0:0:0:35:hiphop_snare.wav
448,192,101877,1,0,0:0:0:35:hiphop_openhh.wav
320,192,102076,1,0,0:0:0:35:hiphop_snare.wav
448,192,102076,1,0,0:0:0:35:hiphop_openhh.wav
64,192,102275,1,0,0:0:0:35:hiphop_kick.wav
192,192,102275,1,0,0:0:0:35:hiphop_kick.wav
320,192,102275,128,0,102475:0:0:0:35:hiphop_clap.wav
192,192,102674,1,0,0:0:0:35:hiphop_kick.wav
448,192,102674,1,0,0:0:0:35:hiphop_kick.wav
64,192,102674,128,0,102774:0:0:0:35:hiphop_clap.wav
320,192,102774,128,0,102873:0:0:0:35:hiphop_clap.wav
192,192,102873,128,0,102973:0:0:0:35:hiphop_clap.wav
320,192,102973,128,0,103073:0:0:0:35:hiphop_clap.wav
448,192,103073,1,0,0:0:0:35:hiphop_kick.wav
64,192,103073,128,0,103272:0:0:0:35:hiphop_clap.wav
320,192,103272,128,0,103471:0:0:0:35:hiphop_clap.wav
64,192,103471,1,0,0:0:0:35:hiphop_openhh.wav
448,192,103471,1,0,0:0:0:35:hiphop_snare.wav
192,192,103471,128,0,103671:0:0:0:35:hiphop_clap.wav
64,192,103870,1,0,0:0:0:35:hiphop_kick.wav
320,192,103870,1,0,0:0:0:35:hiphop_kick.wav
448,192,103870,128,0,104069:0:0:0:35:hiphop_clap.wav
448,192,104269,1,0,0:0:0:35:hiphop_kick.wav
192,192,104269,1,0,0:0:0:35:hiphop_kick.wav
64,192,104269,128,0,104468:0:0:0:35:hiphop_clap.wav
64,192,104667,1,0,0:0:0:35:hiphop_kick.wav
320,192,104667,1,0,0:0:0:35:hiphop_kick.wav
192,192,104867,1,0,0:0:0:35:hiphop_clap.wav
320,192,104966,1,0,0:0:0:35:hiphop_clap.wav
64,192,105066,1,0,0:0:0:35:hiphop_snare.wav
448,192,105066,1,0,0:0:0:35:hiphop_openhh.wav
64,192,105265,1,0,0:0:0:35:hiphop_snare.wav
448,192,105265,1,0,0:0:0:35:hiphop_openhh.wav
192,192,105465,1,0,0:0:0:35:hiphop_kick.wav
320,192,105465,1,0,0:0:0:35:hiphop_kick.wav
448,192,105465,128,0,105863:0:0:0:35:hiphop_clap.wav
192,192,105863,1,0,0:0:0:35:hiphop_kick.wav
320,192,105863,1,0,0:0:0:35:hiphop_kick.wav
64,192,105863,128,0,106262:0:0:0:35:hiphop_clap.wav
192,192,106262,1,0,0:0:0:35:hiphop_kick.wav
448,192,106262,128,0,106461:0:0:0:35:hiphop_clap.wav
64,192,106461,128,0,106661:0:0:0:35:hiphop_clap.wav
320,192,106461,1,0,0:0:0:35:hiphop_closehh.wav
448,192,106661,128,0,106860:0:0:0:35:hiphop_clap.wav
192,192,106661,1,0,0:0:0:35:hiphop_snare.wav
64,192,106860,128,0,107059:0:0:0:35:hiphop_clap.wav
320,192,106860,1,0,0:0:0:35:hiphop_closehh.wav
192,192,107059,1,0,0:0:0:35:hiphop_kick.wav
320,192,107059,128,0,107259:0:0:0:35:hiphop_clap.wav
192,192,107259,128,0,107458:0:0:0:35:hiphop_clap.wav
448,192,107259,1,0,0:0:0:35:hiphop_closehh.wav
64,192,107458,1,0,0:0:0:35:hiphop_kick.wav
320,192,107458,128,0,107657:0:0:0:35:hiphop_clap.wav
192,192,107657,128,0,107857:0:0:0:35:hiphop_clap.wav
448,192,107657,1,0,0:0:0:35:hiphop_closehh.wav
64,192,107857,1,0,0:0:0:35:hiphop_kick.wav
448,192,108056,1,0,0:0:0:35:hiphop_clap.wav
192,192,108156,1,0,0:0:0:35:hiphop_clap.wav
64,192,108255,1,0,0:0:0:35:hiphop_openhh.wav
320,192,108255,1,0,0:0:0:35:hiphop_snare.wav
192,192,108455,1,0,0:0:0:35:hiphop_openhh.wav
448,192,108455,1,0,0:0:0:35:hiphop_snare.wav
320,192,108654,5,0,0:0:0:35:hiphop_kick.wav
64,192,108654,1,0,0:0:0:35:hiphop_kick.wav
448,192,108654,128,0,111843:0:0:0:35:hiphop_clap.wav
64,192,110049,128,0,111843:0:0:0:35:hiphop_clap.wav
192,192,111843,1,0,0:0:0:35:hiphop_kick.wav
320,192,111843,1,0,0:0:0:35:hiphop_kick.wav
64,192,111943,1,0,0:0:0:0:
320,192,112142,1,0,0:0:0:0:
192,192,112242,1,0,0:0:0:35:hiphop_openhh.wav
192,192,112541,1,0,0:0:0:35:hiphop_openhh.wav
64,192,112641,1,0,0:0:0:35:hiphop_openhh.wav
448,192,112641,1,0,0:0:0:35:hiphop_clap.wav
192,192,112840,1,0,0:0:0:35:hiphop_openhh.wav
64,192,113039,1,0,0:0:0:35:hiphop_kick.wav
320,192,113039,1,0,0:0:0:35:hiphop_kick.wav
192,192,113239,1,0,0:0:0:35:hiphop_openhh.wav
448,192,113338,1,0,0:0:0:35:hiphop_openhh.wav
64,192,113438,1,0,0:0:0:35:hiphop_kick.wav
320,192,113438,1,0,0:0:0:35:hiphop_kick.wav
192,192,113538,1,0,0:0:0:0:
64,192,113737,1,0,0:0:0:0:
448,192,113837,1,0,0:0:0:35:hiphop_openhh.wav
192,192,114036,1,0,0:0:0:35:hiphop_kick.wav
64,192,114036,1,0,0:0:0:35:hiphop_kick.wav
320,192,114136,1,0,0:0:0:0:
64,192,114235,1,0,0:0:0:35:hiphop_openhh.wav
448,192,114235,1,0,0:0:0:35:hiphop_clap.wav
192,192,114435,1,0,0:0:0:35:hiphop_openhh.wav
320,192,114634,1,0,0:0:0:0:
64,192,114833,1,0,0:0:0:35:hiphop_openhh.wav
448,192,114833,1,0,0:0:0:35:hiphop_clap.wav
320,192,114933,1,0,0:0:0:35:hiphop_openhh.wav
192,192,115033,1,0,0:0:0:35:hiphop_kick.wav
64,192,115033,1,0,0:0:0:35:hiphop_kick.wav
448,192,115132,1,0,0:0:0:0:
320,192,115332,1,0,0:0:0:0:
192,192,115431,1,0,0:0:0:35:hiphop_openhh.wav
320,192,115730,1,0,0:0:0:0:
448,192,115830,1,0,0:0:0:35:hiphop_clap.wav
64,192,115830,1,0,0:0:0:35:hiphop_openhh.wav
192,192,116029,1,0,0:0:0:35:hiphop_openhh.wav
320,192,116229,1,0,0:0:0:0:
64,192,116428,1,0,0:0:0:35:hiphop_clap.wav
320,192,116428,1,0,0:0:0:35:hiphop_openhh.wav
448,192,116528,1,0,0:0:0:35:hiphop_openhh.wav
192,192,116627,1,0,0:0:0:35:hiphop_kick.wav
320,192,116627,1,0,0:0:0:35:hiphop_kick.wav
64,192,116727,1,0,0:0:0:0:
448,192,116926,1,0,0:0:0:0:
192,192,117026,1,0,0:0:0:35:hiphop_kick.wav
320,192,117026,1,0,0:0:0:35:hiphop_kick.wav
64,192,117225,1,0,0:0:0:35:hiphop_kick.wav
320,192,117225,1,0,0:0:0:35:hiphop_kick.wav
192,192,117325,1,0,0:0:0:0:
64,192,117425,1,0,0:0:0:35:hiphop_openhh.wav
448,192,117425,1,0,0:0:0:35:hiphop_clap.wav
192,192,117624,1,0,0:0:0:35:hiphop_kick.wav
320,192,117624,1,0,0:0:0:35:hiphop_kick.wav
192,192,117823,1,0,0:0:0:35:hiphop_kick.wav
320,192,117823,1,0,0:0:0:35:hiphop_kick.wav
64,192,118023,1,0,0:0:0:35:hiphop_openhh.wav
448,192,118023,1,0,0:0:0:35:hiphop_clap.wav
192,192,118122,1,0,0:0:0:35:hiphop_openhh.wav
320,192,118222,1,0,0:0:0:35:hiphop_kick.wav
448,192,118222,1,0,0:0:0:35:hiphop_kick.wav
64,192,118322,1,0,0:0:0:0:
320,192,118521,1,0,0:0:0:0:
192,192,118621,1,0,0:0:0:35:hiphop_openhh.wav
192,192,118920,1,0,0:0:0:0:
320,192,119019,1,0,0:0:0:35:hiphop_openhh.wav
448,192,119019,1,0,0:0:0:35:hiphop_clap.wav
64,192,119219,1,0,0:0:0:35:hiphop_openhh.wav
192,192,119418,1,0,0:0:0:0:
64,192,119617,1,0,0:0:0:35:hiphop_clap.wav
448,192,119617,1,0,0:0:0:35:hiphop_openhh.wav
320,192,119717,1,0,0:0:0:35:hiphop_openhh.wav
64,192,119817,1,0,0:0:0:35:hiphop_kick.wav
192,192,119817,1,0,0:0:0:35:hiphop_kick.wav
320,192,119916,1,0,0:0:0:0:
448,192,120116,1,0,0:0:0:0:
64,192,120216,1,0,0:0:0:35:hiphop_kick.wav
192,192,120216,1,0,0:0:0:35:hiphop_kick.wav
192,192,120515,1,0,0:0:0:0:
320,192,120614,1,0,0:0:0:35:hiphop_openhh.wav
448,192,120614,1,0,0:0:0:35:hiphop_clap.wav
192,192,120814,1,0,0:0:0:35:hiphop_openhh.wav
320,192,121013,1,0,0:0:0:0:
448,192,121212,1,0,0:0:0:35:hiphop_openhh.wav
64,192,121212,1,0,0:0:0:35:hiphop_clap.wav
320,192,121312,1,0,0:0:0:35:hiphop_openhh.wav
64,192,121412,1,0,0:0:0:35:hiphop_kick.wav
448,192,121412,1,0,0:0:0:35:hiphop_kick.wav
192,192,121511,1,0,0:0:0:0:
320,192,121711,1,0,0:0:0:0:
192,192,121810,1,0,0:0:0:35:hiphop_openhh.wav
64,192,122109,1,0,0:0:0:0:
192,192,122209,5,0,0:0:0:35:hiphop_openhh.wav
320,192,122209,1,0,0:0:0:35:hiphop_clap.wav
192,192,122408,1,0,0:0:0:35:hiphop_openhh.wav
320,192,122608,1,0,0:0:0:0:
320,192,122807,1,0,0:0:0:35:hiphop_openhh.wav
448,192,122807,1,0,0:0:0:35:hiphop_clap.wav
192,192,122907,1,0,0:0:0:35:hiphop_openhh.wav
64,192,123006,1,0,0:0:0:35:hiphop_kick.wav
448,192,123006,1,0,0:0:0:35:hiphop_kick.wav
192,192,123106,1,0,0:0:0:0:
448,192,123305,1,0,0:0:0:0:
192,192,123405,1,0,0:0:0:35:hiphop_kick.wav
320,192,123405,1,0,0:0:0:35:hiphop_kick.wav
320,192,123704,1,0,0:0:0:0:
192,192,123804,1,0,0:0:0:35:hiphop_openhh.wav
448,192,123804,1,0,0:0:0:35:hiphop_clap.wav
64,192,124003,1,0,0:0:0:35:hiphop_clap.wav
192,192,124103,1,0,0:0:0:35:hiphop_clap.wav
320,192,124202,1,0,0:0:0:35:hiphop_kick.wav
448,192,124302,1,0,0:0:0:35:hiphop_clap.wav
320,192,124402,1,0,0:0:0:35:hiphop_clap.wav
192,192,124501,1,0,0:0:0:35:hiphop_clap.wav
64,192,124601,1,0,0:0:0:60:hiphop_kick.wav
448,192,124701,1,0,0:0:0:0:
448,192,124900,1,0,0:0:0:0:
192,192,125000,1,0,0:0:0:35:hiphop_openhh.wav
192,192,125299,1,0,0:0:0:0:
64,192,125398,1,0,0:0:0:35:hiphop_openhh.wav
448,192,125398,1,0,0:0:0:35:hiphop_clap.wav
320,192,125598,1,0,0:0:0:35:hiphop_openhh.wav
192,192,125797,1,0,0:0:0:35:hiphop_kick.wav
448,192,125797,1,0,0:0:0:35:hiphop_kick.wav
64,192,125996,1,0,0:0:0:35:hiphop_closehh.wav
448,192,125996,1,0,0:0:0:35:hiphop_openhh.wav
320,192,126096,1,0,0:0:0:35:hiphop_openhh.wav
192,192,126196,1,0,0:0:0:35:hiphop_kick.wav
448,192,126196,1,0,0:0:0:35:hiphop_kick.wav
64,192,126295,1,0,0:0:0:0:
320,192,126495,1,0,0:0:0:0:
448,192,126594,1,0,0:0:0:35:hiphop_openhh.wav
192,192,126794,1,0,0:0:0:35:hiphop_kick.wav
64,192,126794,1,0,0:0:0:35:hiphop_kick.wav
320,192,126893,1,0,0:0:0:0:
64,192,126993,1,0,0:0:0:35:hiphop_openhh.wav
448,192,126993,1,0,0:0:0:35:hiphop_clap.wav
192,192,127192,1,0,0:0:0:35:hiphop_openhh.wav
320,192,127392,1,0,0:0:0:0:
192,192,127591,1,0,0:0:0:35:hiphop_clap.wav
448,192,127591,1,0,0:0:0:35:hiphop_openhh.wav
320,192,127691,1,0,0:0:0:35:hiphop_openhh.wav
64,192,127790,1,0,0:0:0:35:hiphop_kick.wav
192,192,127790,1,0,0:0:0:35:hiphop_kick.wav
320,192,127890,1,0,0:0:0:0:
192,192,128089,1,0,0:0:0:0:
320,192,128189,1,0,0:0:0:35:hiphop_openhh.wav
192,192,128388,1,0,0:0:0:0:
320,192,128488,1,0,0:0:0:35:hiphop_openhh.wav
64,192,128588,1,0,0:0:0:35:hiphop_openhh.wav
448,192,128588,1,0,0:0:0:35:hiphop_clap.wav
320,192,128787,1,0,0:0:0:35:hiphop_openhh.wav
192,192,128986,1,0,0:0:0:0:
64,192,129186,1,0,0:0:0:35:hiphop_clap.wav
448,192,129186,1,0,0:0:0:35:hiphop_openhh.wav
192,192,129285,1,0,0:0:0:35:hiphop_openhh.wav
320,192,129385,1,0,0:0:0:35:hiphop_kick.wav
448,192,129385,1,0,0:0:0:35:hiphop_kick.wav
64,192,129485,1,0,0:0:0:0:
448,192,129684,1,0,0:0:0:0:
192,192,129784,1,0,0:0:0:35:hiphop_kick.wav
320,192,129784,1,0,0:0:0:35:hiphop_kick.wav
64,192,129983,1,0,0:0:0:35:hiphop_kick.wav
320,192,129983,1,0,0:0:0:35:hiphop_kick.wav
192,192,130083,1,0,0:0:0:0:
448,192,130182,1,0,0:0:0:35:hiphop_clap.wav
64,192,130182,1,0,0:0:0:35:hiphop_openhh.wav
192,192,130382,1,0,0:0:0:35:hiphop_kick.wav
64,192,130382,1,0,0:0:0:35:hiphop_kick.wav
320,192,130581,1,0,0:0:0:35:hiphop_kick.wav
448,192,130581,1,0,0:0:0:35:hiphop_kick.wav
64,192,130780,1,0,0:0:0:35:hiphop_clap.wav
192,192,130780,1,0,0:0:0:35:hiphop_openhh.wav
320,192,130880,1,0,0:0:0:35:hiphop_openhh.wav
448,192,130980,1,0,0:0:0:35:hiphop_clap.wav
192,192,130980,1,0,0:0:0:35:hiphop_openhh.wav
64,192,131079,1,0,0:0:0:0:
320,192,131279,1,0,0:0:0:0:
192,192,131378,1,0,0:0:0:35:hiphop_openhh.wav
192,192,131677,1,0,0:0:0:0:
64,192,131777,1,0,0:0:0:35:hiphop_clap.wav
448,192,131777,1,0,0:0:0:35:hiphop_openhh.wav
192,192,131976,1,0,0:0:0:35:hiphop_openhh.wav
320,192,132176,1,0,0:0:0:0:
448,192,132375,1,0,0:0:0:35:hiphop_clap.wav
64,192,132375,1,0,0:0:0:35:hiphop_openhh.wav
320,192,132475,1,0,0:0:0:35:hiphop_openhh.wav
64,192,132574,1,0,0:0:0:35:hiphop_kick.wav
448,192,132574,1,0,0:0:0:35:hiphop_kick.wav
192,192,132674,1,0,0:0:0:0:
448,192,132873,1,0,0:0:0:0:
192,192,132973,5,0,0:0:0:35:hiphop_kick.wav
320,192,132973,1,0,0:0:0:35:hiphop_kick.wav
320,192,133272,1,0,0:0:0:0:
64,192,133372,1,0,0:0:0:35:hiphop_clap.wav
448,192,133372,1,0,0:0:0:35:hiphop_openhh.wav
192,192,133571,1,0,0:0:0:35:hiphop_openhh.wav
320,192,133770,1,0,0:0:0:0:
64,192,133970,1,0,0:0:0:35:hiphop_openhh.wav
448,192,133970,1,0,0:0:0:35:hiphop_clap.wav
192,192,134069,1,0,0:0:0:35:hiphop_openhh.wav
64,192,134169,5,0,0:0:0:35:hiphop_kick.wav
448,192,134169,1,0,0:0:0:35:hiphop_kick.wav
320,192,134269,1,0,0:0:0:0:
192,192,134468,1,0,0:0:0:0:
320,192,134568,1,0,0:0:0:35:hiphop_openhh.wav
192,192,134867,1,0,0:0:0:0:
64,192,134966,1,0,0:0:0:35:hiphop_clap.wav
448,192,134966,1,0,0:0:0:35:hiphop_openhh.wav
192,192,135166,1,0,0:0:0:35:hiphop_openhh.wav
320,192,135365,1,0,0:0:0:0:
64,192,135564,1,0,0:0:0:35:hiphop_openhh.wav
192,192,135564,1,0,0:0:0:35:hiphop_clap.wav
448,192,135664,1,0,0:0:0:35:hiphop_openhh.wav
192,192,135764,1,0,0:0:0:35:hiphop_kick.wav
320,192,135764,1,0,0:0:0:35:hiphop_kick.wav
64,192,135963,1,0,0:0:0:35:hiphop_kick.wav
448,192,135963,128,0,136362:0:0:0:0:
192,192,136162,1,0,0:0:0:35:hiphop_closehh.wav
320,192,136162,1,0,0:0:0:35:hiphop_snare.wav
64,192,136362,1,0,0:0:0:35:hiphop_kick.wav
192,192,136561,1,0,0:0:0:35:hiphop_closehh.wav
320,192,136561,1,0,0:0:0:35:hiphop_snare.wav
448,192,136760,1,0,0:0:0:35:hiphop_kick.wav
64,192,136760,128,0,137159:0:0:0:0:
320,192,136960,1,0,0:0:0:35:hiphop_closehh.wav
192,192,136960,1,0,0:0:0:35:hiphop_snare.wav
448,192,137159,1,0,0:0:0:35:hiphop_kick.wav
192,192,137358,1,0,0:0:0:35:hiphop_closehh.wav
320,192,137358,1,0,0:0:0:35:hiphop_snare.wav
64,192,137558,1,0,0:0:0:35:hiphop_kick.wav
448,192,137558,128,0,137956:0:0:0:0:
192,192,137757,1,0,0:0:0:35:hiphop_closehh.wav
320,192,137757,1,0,0:0:0:35:hiphop_snare.wav
64,192,137956,1,0,0:0:0:35:hiphop_kick.wav
192,192,138156,1,0,0:0:0:35:hiphop_closehh.wav
320,192,138156,1,0,0:0:0:35:hiphop_snare.wav
448,192,138355,1,0,0:0:0:35:hiphop_kick.wav
64,192,138355,128,0,138754:0:0:0:0:
320,192,138554,1,0,0:0:0:35:hiphop_closehh.wav
192,192,138554,1,0,0:0:0:35:hiphop_snare.wav
448,192,138754,1,0,0:0:0:35:hiphop_kick.wav
192,192,138953,1,0,0:0:0:35:hiphop_closehh.wav
320,192,138953,1,0,0:0:0:35:hiphop_snare.wav
64,192,139152,1,0,0:0:0:35:hiphop_kick.wav
448,192,139152,128,0,139551:0:0:0:0:
192,192,139352,1,0,0:0:0:35:hiphop_closehh.wav
320,192,139352,1,0,0:0:0:35:hiphop_snare.wav
64,192,139551,1,0,0:0:0:35:hiphop_kick.wav
192,192,139750,1,0,0:0:0:35:hiphop_snare.wav
320,192,139750,1,0,0:0:0:35:hiphop_snare.wav
64,192,139950,1,0,0:0:0:35:hiphop_snare.wav
448,192,139950,1,0,0:0:0:35:hiphop_closehh.wav
192,192,140149,1,0,0:0:0:35:hiphop_snare.wav
320,192,140149,1,0,0:0:0:35:hiphop_snare.wav
64,192,140348,1,0,0:0:0:35:hiphop_snare.wav
448,192,140348,1,0,0:0:0:35:hiphop_closehh.wav
192,192,140548,1,0,0:0:0:35:hiphop_snare.wav
320,192,140548,1,0,0:0:0:35:hiphop_snare.wav
64,192,140747,1,0,0:0:0:35:hiphop_snare.wav
448,192,140747,1,0,0:0:0:35:hiphop_closehh.wav
192,192,140946,1,0,0:0:0:35:hiphop_snare.wav
320,192,140946,1,0,0:0:0:35:hiphop_snare.wav
64,192,141146,1,0,0:0:0:35:hiphop_snare.wav
448,192,141146,1,0,0:0:0:35:hiphop_closehh.wav
192,192,141345,1,0,0:0:0:70:hiphop_clap.wav
320,192,141345,1,0,0:0:0:70:hiphop_clap.wav
64,192,141445,1,0,0:0:0:70:hiphop_clap.wav
448,192,141445,1,0,0:0:0:70:hiphop_clap.wav
192,192,141544,1,0,0:0:0:70:hiphop_clap.wav
320,192,141544,1,0,0:0:0:70:hiphop_clap.wav
64,192,141644,1,0,0:0:0:70:hiphop_clap.wav
448,192,141644,1,0,0:0:0:70:hiphop_clap.wav
192,192,141744,1,0,0:0:0:70:hiphop_clap.wav
320,192,141744,1,0,0:0:0:70:hiphop_clap.wav
64,192,141843,1,0,0:0:0:70:hiphop_clap.wav
448,192,141843,1,0,0:0:0:70:hiphop_clap.wav
192,192,141943,1,0,0:0:0:70:hiphop_clap.wav
320,192,141943,1,0,0:0:0:70:hiphop_clap.wav
64,192,142043,1,0,0:0:0:70:hiphop_clap.wav
448,192,142043,1,0,0:0:0:70:hiphop_clap.wav
192,192,142142,1,0,0:0:0:35:hiphop_ride.wav
320,192,142142,1,0,0:0:0:35:hiphop_ride.wav
64,192,142541,1,0,0:0:0:35:hiphop_openhh.wav
448,192,142541,1,0,0:0:0:35:hiphop_clap.wav
192,192,142940,1,0,0:0:0:35:hiphop_kick.wav
320,192,142940,1,0,0:0:0:35:hiphop_kick.wav
64,192,142940,128,0,143338:0:0:0:35:hiphop_clap.wav
192,192,143338,1,0,0:0:0:35:hiphop_kick.wav
320,192,143338,1,0,0:0:0:35:hiphop_kick.wav
448,192,143338,128,0,143737:0:0:0:35:hiphop_clap.wav
192,192,143737,1,0,0:0:0:35:hiphop_kick.wav
320,192,143737,1,0,0:0:0:35:hiphop_kick.wav
192,192,143936,128,0,144036:0:0:0:35:hiphop_clap.wav
448,192,144036,128,0,144136:0:0:0:35:hiphop_clap.wav
64,192,144136,128,0,144235:0:0:0:35:hiphop_clap.wav
320,192,144235,128,0,144335:0:0:0:35:hiphop_clap.wav
192,192,144335,128,0,144435:0:0:0:35:hiphop_clap.wav
320,192,144534,1,0,0:0:0:35:hiphop_kick.wav
448,192,144534,1,0,0:0:0:35:hiphop_kick.wav
64,192,144634,1,0,0:0:0:35:hiphop_clap.wav
64,192,144833,1,0,0:0:0:35:hiphop_clap.wav
320,192,144933,1,0,0:0:0:35:hiphop_kick.wav
448,192,144933,1,0,0:0:0:35:hiphop_kick.wav
192,192,144933,1,0,0:0:0:35:hiphop_clap.wav
64,192,145132,1,0,0:0:0:35:hiphop_clap.wav
192,192,145232,1,0,0:0:0:35:hiphop_clap.wav
320,192,145332,1,0,0:0:0:35:hiphop_kick.wav
448,192,145332,1,0,0:0:0:35:hiphop_kick.wav
448,192,145531,1,0,0:0:0:35:hiphop_clap.wav
320,192,145631,1,0,0:0:0:35:hiphop_clap.wav
64,192,145730,1,0,0:0:0:35:hiphop_openhh.wav
192,192,145730,1,0,0:0:0:35:hiphop_snare.wav
64,192,145930,1,0,0:0:0:35:hiphop_openhh.wav
192,192,145930,1,0,0:0:0:35:hiphop_snare.wav
320,192,146129,1,0,0:0:0:35:hiphop_kick.wav
448,192,146129,1,0,0:0:0:35:hiphop_kick.wav
192,192,146229,1,0,0:0:0:35:hiphop_tom3.wav
320,192,146428,1,0,0:0:0:35:hiphop_tom3.wav
64,192,146528,1,0,0:0:0:35:hiphop_kick.wav
192,192,146528,1,0,0:0:0:35:hiphop_kick.wav
448,192,146528,1,0,0:0:0:35:hiphop_clap.wav
320,192,146727,1,0,0:0:0:35:hiphop_tom3.wav
192,192,146827,1,0,0:0:0:35:hiphop_tom3.wav
448,192,146926,1,0,0:0:0:35:hiphop_kick.wav
320,192,146926,1,0,0:0:0:35:hiphop_kick.wav
192,192,147126,1,0,0:0:0:35:hiphop_tom3.wav
320,192,147325,1,0,0:0:0:35:hiphop_snare.wav
448,192,147325,128,0,147524:0:0:0:35:hiphop_clap.wav
64,192,147524,128,0,147724:0:0:0:35:hiphop_clap.wav
192,192,147724,1,0,0:0:0:35:hiphop_kick.wav
448,192,147724,128,0,147923:0:0:0:35:hiphop_clap.wav
64,192,147923,128,0,148122:0:0:0:35:hiphop_clap.wav
320,192,148122,1,0,0:0:0:35:hiphop_kick.wav
448,192,148122,128,0,148322:0:0:0:35:hiphop_clap.wav
64,192,148322,128,0,148521:0:0:0:35:hiphop_clap.wav
192,192,148521,1,0,0:0:0:35:hiphop_kick.wav
448,192,148521,128,0,148720:0:0:0:35:hiphop_clap.wav
64,192,148720,1,0,0:0:0:35:hiphop_clap.wav
320,192,148820,1,0,0:0:0:35:hiphop_clap.wav
192,192,148920,1,0,0:0:0:35:hiphop_snare.wav
448,192,148920,1,0,0:0:0:35:hiphop_openhh.wav
192,192,149119,1,0,0:0:0:35:hiphop_snare.wav
448,192,149119,1,0,0:0:0:35:hiphop_openhh.wav
64,192,149318,1,0,0:0:0:35:hiphop_kick.wav
320,192,149318,1,0,0:0:0:35:hiphop_kick.wav
64,192,149717,1,0,0:0:0:35:hiphop_kick.wav
320,192,149717,1,0,0:0:0:35:hiphop_kick.wav
192,192,149817,1,0,0:0:0:35:hiphop_clap.wav
320,192,149916,1,0,0:0:0:35:hiphop_clap.wav
448,192,150016,1,0,0:0:0:35:hiphop_clap.wav
64,192,150116,1,0,0:0:0:35:hiphop_kick.wav
320,192,150116,1,0,0:0:0:35:hiphop_kick.wav
192,192,150116,128,0,150315:0:0:0:35:hiphop_clap.wav
320,192,150315,128,0,150515:0:0:0:35:hiphop_clap.wav
448,192,150515,1,0,0:0:0:35:hiphop_snare.wav
192,192,150515,1,0,0:0:0:35:hiphop_snare.wav
64,192,150515,128,0,150714:0:0:0:35:hiphop_clap.wav
448,192,150913,1,0,0:0:0:35:hiphop_kick.wav
320,192,150913,1,0,0:0:0:35:hiphop_kick.wav
192,192,150913,128,0,151312:0:0:0:35:hiphop_clap.wav
320,192,151312,1,0,0:0:0:35:hiphop_kick.wav
448,192,151312,1,0,0:0:0:35:hiphop_kick.wav
64,192,151312,128,0,151711:0:0:0:35:hiphop_clap.wav
320,192,151711,1,0,0:0:0:35:hiphop_kick.wav
448,192,151711,1,0,0:0:0:35:hiphop_kick.wav
192,192,151711,128,0,152109:0:0:0:35:hiphop_clap.wav
320,192,151910,1,0,0:0:0:35:hiphop_clap.wav
448,192,152010,1,0,0:0:0:35:hiphop_clap.wav
64,192,152109,1,0,0:0:0:35:hiphop_snare.wav
320,192,152109,1,0,0:0:0:35:hiphop_snare.wav
64,192,152309,1,0,0:0:0:35:hiphop_openhh.wav
320,192,152309,1,0,0:0:0:35:hiphop_snare.wav
192,192,152508,1,0,0:0:0:35:hiphop_kick.wav
448,192,152508,1,0,0:0:0:35:hiphop_kick.wav
64,192,152508,128,0,152707:0:0:0:35:hiphop_clap.wav
192,192,152907,1,0,0:0:0:35:hiphop_kick.wav
448,192,152907,1,0,0:0:0:35:hiphop_kick.wav
64,192,152907,128,0,153106:0:0:0:35:hiphop_clap.wav
320,192,152907,128,0,153305:0:0:0:35:hiphop_clap.wav
64,192,153305,128,0,153704:0:0:0:35:hiphop_kick.wav
192,192,153505,128,0,153903:0:0:0:35:hiphop_closehh.wav
320,192,153704,128,0,154103:0:0:0:35:hiphop_snare.wav
448,192,153903,128,0,154302:0:0:0:35:hiphop_closehh.wav
64,192,154103,128,0,154501:0:0:0:35:hiphop_kick.wav
192,192,154302,128,0,154701:0:0:0:35:hiphop_closehh.wav
320,192,154501,128,0,154900:0:0:0:35:hiphop_snare.wav
448,192,154701,128,0,155099:0:0:0:35:hiphop_closehh.wav
64,192,154900,128,0,155099:0:0:0:35:hiphop_clap.wav
192,192,154900,1,0,0:0:0:35:hiphop_kick.wav
320,192,155099,1,0,0:0:0:35:hiphop_clap.wav
448,192,155199,1,0,0:0:0:35:hiphop_clap.wav
320,192,155299,1,0,0:0:0:35:hiphop_snare.wav
192,192,155299,1,0,0:0:0:35:hiphop_openhh.wav
192,192,155498,1,0,0:0:0:35:hiphop_snare.wav
320,192,155498,1,0,0:0:0:35:hiphop_openhh.wav
