osu file format v14

[General]
AudioFilename: 08.When We Wish a Upon a Star.mp3
AudioLeadIn: 1500
PreviewTime: 79275
Countdown: 0
SampleSet: Soft
StackLeniency: 0.7
Mode: 0
LetterboxInBreaks: 0
WidescreenStoryboard: 0

[Editor]
DistanceSpacing: 1
BeatDivisor: 4
GridSize: 4
TimelineZoom: 1.7

[Metadata]
Title:When We Wish a Upon a Star
TitleUnicode:When We Wish a Upon a Star
Artist:Junichi Shimizu
ArtistUnicode:清水準一
Creator:-Hakurei-
Version:Wish
Source:クドわふたー
Tags:key sound label eroge visual novel kud wafter original soundtrack lit120 mako sakata kudryavka noumi 能美 クドリャフカ VisualArt's one's future
BeatmapID:740005
BeatmapSetID:334449

[Difficulty]
HPDrainRate:5
CircleSize:4.5
OverallDifficulty:5
ApproachRate:6
SliderMultiplier:1.6
SliderTickRate:1

[Events]
//Background and Video events
0,0,"moe.jpg",0,0
//Break Periods
//Storyboard Layer 0 (Background)
//Storyboard Layer 1 (Fail)
//Storyboard Layer 2 (Pass)
//Storyboard Layer 3 (Foreground)
//Storyboard Sound Samples

[TimingPoints]
2229.63483146067,681.818181818182,4,2,1,30,1,0
16206,-100,4,2,1,20,0,0
60184,-100,3,2,1,30,0,0
65638,-100,3,2,1,40,0,0
70411,-100,4,2,1,40,0,0
81320,-100,4,2,1,30,0,1
81661,-90.9090909090909,4,2,1,50,0,1
119502,-100,4,2,1,40,0,0
124275,-100,4,2,1,25,0,0
124956,-100,4,2,1,20,0,0

[Colours]
Combo1 : 184,145,116
Combo2 : 245,122,233
Combo3 : 255,133,134
SliderBorder : 255,255,255

[HitObjects]
100,108,2229,6,0,P|108:164|92:204,1,80,4|0,0:0|0:0,0:0:0:0:
24,152,2911,2,0,P|16:96|32:56,1,80
176,52,3593,1,2,0:0:0:0:
276,97,3934,1,0,0:0:0:0:
184,160,4275,1,0,0:0:0:0:
176,52,4615,6,0,B|256:24|256:24|340:24,1,160,2|0,0:0|0:0,0:0:0:0:
384,84,5638,1,2,0:0:0:0:
408,160,5979,2,0,B|428:224|372:268|372:268|344:316,1,160,2|0,0:0|0:0,0:0:0:0:
336,196,7002,2,0,P|288:188|252:200,1,80,2|0,0:0|0:0,0:0:0:0:
248,276,7684,6,0,P|196:248|190:151,1,160,4|0,0:0|0:0,0:0:0:0:
244,100,8706,1,0,0:0:0:0:
316,64,9047,2,0,P|352:47|391:41,1,80,2|0,0:0|0:0,0:0:0:0:
376,120,9729,1,0,0:0:0:0:
396,196,10070,6,0,P|356:262|279:269,1,160,2|0,0:0|0:0,0:0:0:0:
208,232,11093,1,2,0:0:0:0:
184,156,11434,1,2,0:0:0:0:
184,156,13138,5,4,0:0:0:0:
256,192,13309,12,4,15865,0:0:0:0:
192,96,16547,6,0,P|160:148|156:180,1,80,2|2,0:0|0:0,0:0:0:0:
136,244,17229,2,0,P|210:227|236:155,1,160,2|0,0:0|0:0,0:0:0:0:
268,80,18252,1,2,0:0:0:0:
340,48,18593,6,0,P|388:28|424:31,1,80
396,105,19275,1,2,0:0:0:0:
396,279,19956,1,2,0:0:0:0:
76,88,21320,6,0,P|61:124|57:164,1,80
52,244,22002,1,2,0:0:0:0:
75,320,22343,1,2,0:0:0:0:
144,360,22684,2,0,P|200:352|228:256,1,160,2|0,0:0|0:0,0:0:0:0:
173,216,23706,2,0,P|158:252|164:292,1,80,2|0,0:0|0:0,0:0:0:0:
271,69,24729,5,2,0:0:0:0:
350,226,25411,1,2,0:0:0:0:
173,216,26093,1,2,0:0:0:0:
222,143,26434,1,2,0:0:0:0:
261,221,26775,6,0,L|244:308,1,80
320,328,27456,1,2,0:0:0:0:
396,300,27797,1,2,0:0:0:0:
444,236,28138,2,0,P|444:180|364:104,1,160,2|2,0:0|0:0,0:0:0:0:
296,96,29161,1,2,0:0:0:0:
215,96,29502,6,0,P|167:104|137:122,1,80
124,197,30184,2,0,P|163:193|199:175,1,80,2|0,0:0|0:0,0:0:0:0:
140,119,30865,2,0,P|47:179|106:274,1,240
99,272,32229,5,4,0:0:0:0:
338,300,33252,1,0,0:0:0:0:
338,300,33593,5,4,0:0:0:0:
246,69,34615,1,0,0:0:0:0:
246,69,34956,5,4,0:0:0:0:
150,197,35638,1,4,0:0:0:0:
305,216,36320,1,4,0:0:0:0:
450,262,38025,5,0,0:0:0:0:
382,218,38365,2,0,P|370:255|378:294,1,80,2|2,0:0|0:0,0:0:0:0:
460,196,39047,2,0,P|411:142|323:167,1,160,2|0,0:0|0:0,0:0:0:0:
280,216,40070,5,2,0:0:0:0:
203,244,40411,2,0,P|164:248|128:231,1,80,0|2,0:0|0:0,0:0:0:0:
135,151,41093,2,0,P|64:184|55:264,2,160,2|2|0,0:0|0:0|0:0,0:0:0:0:
373,132,43479,5,2,0:0:0:0:
303,172,43820,2,0,P|290:136|299:97,1,80,2|2,0:0|0:0,0:0:0:0:
373,132,44502,2,0,P|376:204|287:252,1,160,2|0,0:0|0:0,0:0:0:0:
232,268,45525,1,2,0:0:0:0:
152,264,45865,6,0,P|108:240|100:200,1,80
100,132,46547,1,2,0:0:0:0:
242,29,47229,1,4,0:0:0:0:
260,205,47911,1,2,0:0:0:0:
180,168,48252,1,2,0:0:0:0:
250,115,48593,6,0,P|315:107|339:111,1,80
360,36,49275,2,0,P|391:66|405:100,1,80,2|2,0:0|0:0,0:0:0:0:
328,108,49956,2,0,P|363:195|427:227,1,160,2|2,0:0|0:0,0:0:0:0:
496,248,50979,1,2,0:0:0:0:
436,304,51320,6,0,P|388:332|356:336,1,80
300,288,52002,2,0,P|333:264|372:256,1,80,2|0,0:0|0:0,0:0:0:0:
244,344,52684,2,0,P|204:353|165:345,1,80
128,276,53365,2,0,P|126:235|141:198,1,80,2|0,0:0|0:0,0:0:0:0:
188,136,54047,5,4,0:0:0:0:
252,88,54388,1,0,0:0:0:0:
332,88,54729,1,0,0:0:0:0:
396,136,55070,1,0,0:0:0:0:
420,212,55411,2,0,P|408:280|328:309,1,160,2|2,0:0|0:0,0:0:0:0:
340,228,56434,1,2,0:0:0:0:
336,148,56775,6,0,P|317:89|302:70,1,80
255,137,57456,2,0,P|216:145|183:166,2,80
336,148,58479,1,2,0:0:0:0:
288,212,58820,1,2,0:0:0:0:
255,137,59161,1,2,0:0:0:0:
255,137,60184,5,4,0:0:0:0:
347,40,61206,5,0,0:0:0:0:
440,55,61547,1,2,0:0:0:0:
423,151,61888,1,0,0:0:0:0:
329,134,62229,2,0,P|280:148|248:180,1,80,4|0,0:0|0:0,0:0:0:0:
259,264,62911,2,0,P|308:250|340:218,1,80,2|2,0:0|0:0,0:0:0:0:
114,56,63934,5,0,0:0:0:0:
178,132,64274,1,2,0:0:0:0:
75,152,64615,1,2,0:0:0:0:
75,152,65638,5,4,0:0:0:0:
296,45,66660,5,0,0:0:0:0:
392,45,67001,1,2,0:0:0:0:
344,128,67342,1,0,0:0:0:0:
440,128,67684,2,0,P|479:160|495:202,1,80,4|0,0:0|0:0,0:0:0:0:
448,272,68365,2,0,P|408:239|392:197,1,80,2|2,0:0|0:0,0:0:0:0:
172,80,69388,2,0,P|189:44|219:18,2,80,0|2|2,0:0|0:0|0:0,0:0:0:0:
180,160,70411,5,4,0:0:0:0:
232,220,70751,1,0,0:0:0:0:
312,236,71092,1,2,0:0:0:0:
388,212,71433,1,2,0:0:0:0:
440,60,72115,2,0,P|484:68|516:96,2,80,0|2|2,0:0|0:0|0:0,0:0:0:0:
388,212,73479,6,0,P|380:256|352:288,2,80,0|2|2,0:0|0:0|0:0,0:0:0:0:
184,236,74842,1,0,0:0:0:0:
75,224,75183,1,2,0:0:0:0:
67,332,75524,1,2,0:0:0:0:
176,340,75865,6,0,P|260:320|280:252,2,160,4|0|2,0:0|0:0|0:0,0:0:0:0:
199,263,77570,2,0,P|176:230|170:191,2,80,0|2|2,0:0|0:0|0:0,0:0:0:0:
253,204,78592,6,0,P|397:148|389:124,1,240,0|2,0:0|0:0,0:0:0:0:
315,86,79956,2,0,P|310:126|320:165,1,80,2|2,0:0|0:0,0:0:0:0:
378,29,80638,2,0,P|342:12|303:9,1,80,2|2,0:0|0:0,0:0:0:0:
212,28,81320,5,4,0:0:0:0:
119,53,81661,1,0,0:0:0:0:
93,147,82001,1,2,0:0:0:0:
186,122,82342,1,0,0:0:0:0:
93,147,82684,2,0,P|65:191|61:247,1,88.000002685547,2|0,0:0|0:0,0:0:0:0:
173,203,83365,2,0,P|197:238|206:281,1,88.000002685547,2|2,0:0|0:0,0:0:0:0:
145,358,84047,5,0,0:0:0:0:
82,283,84388,1,2,0:0:0:0:
145,358,84729,1,2,0:0:0:0:
206,282,85070,1,2,0:0:0:0:
379,368,85751,1,2,0:0:0:0:
434,288,86092,1,2,0:0:0:0:
352,232,86434,1,2,0:0:0:0:
434,288,86775,6,0,P|478:249|406:161,1,176.000005371094,4|0,0:0|0:0,0:0:0:0:
236,160,88138,2,0,P|182:221|231:286,1,176.000005371094,2|0,0:0|0:0,0:0:0:0:
328,300,89161,1,2,0:0:0:0:
424,320,89501,5,0,0:0:0:0:
388,228,89843,2,0,P|364:180|332:144,2,88.000002685547,2|2|2,0:0|0:0|0:0,0:0:0:0:
424,320,90865,1,0,0:0:0:0:
328,300,91206,1,2,0:0:0:0:
272,368,91547,1,2,0:0:0:0:
172,356,91888,1,0,0:0:0:0:
168,332,92058,1,0,0:0:0:0:
164,308,92229,5,4,0:0:0:0:
150,210,92570,1,0,0:0:0:0:
246,198,92910,1,2,0:0:0:0:
259,293,93251,2,0,P|308:340|380:272,2,176.000005371094,2|2|0,0:0|0:0|0:0,0:0:0:0:
246,198,94956,5,4,0:0:0:0:
335,234,95297,1,0,0:0:0:0:
259,293,95638,1,2,0:0:0:0:
246,198,95979,2,0,P|256:132|272:108,1,88.000002685547,2|0,0:0|0:0,0:0:0:0:
336,180,96661,1,2,0:0:0:0:
336,180,97001,1,2,0:0:0:0:
256,356,97684,6,0,P|202:317|186:284,1,88.000002685547,4|0,0:0|0:0,0:0:0:0:
177,203,98365,1,2,0:0:0:0:
208,111,98707,1,0,0:0:0:0:
256,28,99048,2,0,P|310:67|326:100,1,88.000002685547,2|0,0:0|0:0,0:0:0:0:
335,181,99729,1,2,0:0:0:0:
304,273,100070,1,0,0:0:0:0:
256,356,100411,5,2,0:0:0:0:
208,273,100751,1,0,0:0:0:0:
304,273,101092,1,2,0:0:0:0:
256,356,101433,1,2,0:0:0:0:
208,273,101774,1,0,0:0:0:0:
304,273,102115,2,0,P|352:248|372:216,2,88.000002685547,2|2|2,0:0|0:0|0:0,0:0:0:0:
208,273,103138,6,0,P|169:256|142:221,1,88.000002685547,4|0,0:0|0:0,0:0:0:0:
162,128,103820,2,0,P|201:145|228:180,1,88.000002685547,2|0,0:0|0:0,0:0:0:0:
142,221,104502,2,0,P|67:146|78:78,1,176.000005371094,2|2,0:0|0:0,0:0:0:0:
162,128,105524,1,2,0:0:0:0:
142,221,105865,5,0,0:0:0:0:
233,197,106206,2,0,P|265:165|277:105,2,88.000002685547,2|2|2,0:0|0:0|0:0,0:0:0:0:
348,352,107570,1,0,0:0:0:0:
444,344,107911,1,2,0:0:0:0:
390,264,108251,1,2,0:0:0:0:
348,352,108593,6,0,P|288:376|236:292,1,176.000005371094,4|0,0:0|0:0,0:0:0:0:
312,120,109956,2,0,P|391:102|425:176,1,176.000005371094,2|0,0:0|0:0,0:0:0:0:
336,216,110979,1,2,0:0:0:0:
240,236,111320,5,0,0:0:0:0:
152,188,111661,2,0,P|136:228|152:280,2,88.000002685547,2|2|2,0:0|0:0|0:0,0:0:0:0:
256,28,113024,1,2,0:0:0:0:
256,28,113365,1,2,0:0:0:0:
348,60,113706,1,0,0:0:0:0:
360,84,113876,1,0,0:0:0:0:
372,108,114047,5,4,0:0:0:0:
336,196,114388,1,0,0:0:0:0:
268,128,114729,1,0,0:0:0:0:
216,212,115070,1,2,0:0:0:0:
204,236,115240,1,2,0:0:0:0:
192,260,115411,5,2,0:0:0:0:
256,332,115751,1,0,0:0:0:0:
312,252,116092,1,0,0:0:0:0:
360,336,116434,2,0,L|384:378,2,44.0000013427735,2|2|2,0:0|0:0|0:0,0:0:0:0:
312,252,117115,5,0,0:0:0:0:
256,332,117456,1,2,0:0:0:0:
192,260,117797,1,2,0:0:0:0:
100,292,118138,6,0,L|52:316,2,29.3333342285157
100,260,118479,2,0,L|56:260,2,29.3333342285157,2|0|0,0:0|0:0|0:0,0:0:0:0:
112,228,118820,2,0,L|72:208,2,29.3333342285157,2|0|0,0:0|0:0|0:0,0:0:0:0:
132,204,119161,2,0,L|116:176,2,29.3333342285157,2|0|0,0:0|0:0|0:0,0:0:0:0:
160,200,119502,6,0,B|212:196|220:128|220:128|248:152|292:160,1,160,4|0,0:0|0:0,0:0:0:0:
432,352,120865,2,0,P|468:280|408:212,1,160,2|0,0:0|0:0,0:0:0:0:
372,288,121888,1,2,0:0:0:0:
295,331,122229,6,0,P|256:339|217:331,1,80,2|0,0:0|0:0,0:0:0:0:
256,252,122911,2,0,L|256:148,1,80,2|0,0:0|0:0,0:0:0:0:
256,84,123592,1,2,0:0:0:0:
256,192,123763,12,4,124956,0:0:0:0:
