osu file format v14

[General]
AudioFilename: Pokemon - All Champion Battle Themes.mp3
AudioLeadIn: 0
PreviewTime: 233181
Countdown: 0
SampleSet: Normal
StackLeniency: 0.7
Mode: 1
LetterboxInBreaks: 0
WidescreenStoryboard: 0

[Editor]
Bookmarks: 125,80157,154130,226150,315150,398318
DistanceSpacing: 0.9
BeatDivisor: 4
GridSize: 4
TimelineZoom: 2.1

[Metadata]
Title:Battle! Champion Medley
TitleUnicode:Battle! Champion Medley
Artist:Junichi Masuda, Go Ichinose, Hitomi Sato
ArtistUnicode:Junichi Masuda, Go Ichinose, Hitomi Sato
Creator:Raiden
Version:Collab Champion Drums
Source:Pokemon Black & White 2
Tags:gary lance steven wallace cynthia alder iris S a n d _Gezo_ tasuke912 agu OzzyOzrock
BeatmapID:757946
BeatmapSetID:342949

[Difficulty]
HPDrainRate:4
CircleSize:2
OverallDifficulty:6
ApproachRate:10
SliderMultiplier:1.4
SliderTickRate:1

[Events]
//Background and Video events
0,0,"championshD.jpg",0,-100
//Break Periods
2,148183,153680
2,219990,225700
2,308850,314700
2,392591,397868
//Storyboard Layer 0 (Background)
//Storyboard Layer 1 (Fail)
//Storyboard Layer 2 (Pass)
//Storyboard Layer 3 (Foreground)
//Storyboard Sound Samples

[TimingPoints]
125,348.837209302326,4,1,0,100,1,0
73991,-100,4,1,0,50,0,0
74340,-100,4,1,0,40,0,0
75037,-100,4,1,0,30,0,0
75735,-100,4,1,0,20,0,0
80157,326.086956521739,4,1,0,100,1,0
154130,283.018867924528,4,1,0,100,1,0
194884,-100,4,1,0,100,0,1
210733,-100,4,1,0,100,0,0
226150,312.5,4,1,0,70,1,0
248650,-100,4,1,0,70,0,1
263650,-100,4,1,0,70,0,0
315150,344.827586206897,4,1,0,100,1,0
342736,-100,4,1,0,100,0,1
353770,-100,4,1,0,100,0,0
398318,312.5,4,1,0,100,1,0
398318,-133.333333333333,4,1,0,100,0,0
407901,-125,4,1,0,95,0,0
408005,-117.647058823529,4,1,0,90,0,0
408109,-111.111111111111,4,1,0,80,0,0
408213,-105.263157894737,4,1,0,70,0,0
408318,-100,4,1,0,60,0,0
418630,-100,4,1,0,80,0,0
428318,-100,4,1,0,100,0,1
448318,-100,4,1,0,60,0,0
458318,-100,4,1,0,100,0,0
470739,-100,4,1,0,20,0,0

[HitObjects]
496,248,125,5,8,0:0:0:0:
256,96,212,1,8,0:0:0:0:
256,160,299,1,0,0:0:0:0:
256,160,386,1,0,0:0:0:0:
256,160,473,1,8,0:0:0:0:
256,160,561,1,8,0:0:0:0:
256,160,648,1,0,0:0:0:0:
224,160,735,1,0,0:0:0:0:
224,160,822,1,8,0:0:0:0:
256,160,909,1,8,0:0:0:0:
256,160,997,1,0,0:0:0:0:
256,160,1084,1,0,0:0:0:0:
256,160,1171,1,8,0:0:0:0:
256,160,1258,1,8,0:0:0:0:
256,160,1345,1,0,0:0:0:0:
256,160,1433,1,0,0:0:0:0:
256,160,1520,1,8,0:0:0:0:
256,160,1607,1,0,0:0:0:0:
192,160,1694,1,0,0:0:0:0:
192,160,1781,1,0,0:0:0:0:
192,160,1869,1,8,0:0:0:0:
192,160,1956,1,0,0:0:0:0:
192,160,2043,1,0,0:0:0:0:
192,160,2130,1,0,0:0:0:0:
192,160,2218,1,8,0:0:0:0:
192,160,2305,1,8,0:0:0:0:
192,160,2392,1,0,0:0:0:0:
192,160,2479,1,0,0:0:0:0:
192,160,2566,1,8,0:0:0:0:
192,160,2654,1,8,0:0:0:0:
192,160,2741,1,8,0:0:0:0:
192,160,2828,1,8,0:0:0:0:
192,160,2915,1,4,0:0:0:0:
320,160,3613,1,8,0:0:0:0:
320,160,3729,1,4,0:0:0:0:
256,96,4311,1,8,0:0:0:0:
320,160,4427,1,4,0:0:0:0:
256,96,5008,1,8,0:0:0:0:
288,160,5125,1,4,0:0:0:0:
0,288,5706,1,0,0:0:0:0:
96,224,5793,1,0,0:0:0:0:
224,192,5880,1,0,0:0:0:0:
352,224,5968,1,0,0:0:0:0:
448,288,6055,1,8,0:0:0:0:
224,320,6229,1,0,0:0:0:0:
0,96,6404,1,0,0:0:0:0:
96,160,6491,1,0,0:0:0:0:
224,192,6578,1,0,0:0:0:0:
352,160,6666,1,0,0:0:0:0:
448,96,6753,1,8,0:0:0:0:
224,64,6927,1,0,0:0:0:0:
128,128,7101,1,8,0:0:0:0:
128,256,7188,1,8,0:0:0:0:
256,256,7276,1,0,0:0:0:0:
256,128,7363,1,0,0:0:0:0:
384,128,7450,1,8,0:0:0:0:
384,256,7537,1,0,0:0:0:0:
512,256,7625,1,8,0:0:0:0:
512,128,7712,1,8,0:0:0:0:
384,128,7799,1,0,0:0:0:0:
384,256,7886,1,8,0:0:0:0:
256,256,7973,1,0,0:0:0:0:
256,128,8061,1,0,0:0:0:0:
128,128,8148,1,8,0:0:0:0:
128,256,8235,1,0,0:0:0:0:
288,256,8322,1,8,0:0:0:0:
64,96,8497,1,0,0:0:0:0:
64,160,8584,1,0,0:0:0:0:
64,224,8671,1,0,0:0:0:0:
64,288,8758,1,0,0:0:0:0:
128,288,8845,1,8,0:0:0:0:
128,192,9020,1,0,0:0:0:0:
128,96,9194,1,0,0:0:0:0:
192,96,9281,1,0,0:0:0:0:
192,160,9369,1,0,0:0:0:0:
192,224,9456,1,0,0:0:0:0:
192,288,9543,1,8,0:0:0:0:
128,192,9718,1,0,0:0:0:0:
480,128,9892,1,0,0:0:0:0:
416,128,9979,1,8,0:0:0:0:
352,128,10066,1,0,0:0:0:0:
288,128,10153,1,0,0:0:0:0:
288,192,10240,1,8,0:0:0:0:
384,192,10415,1,0,0:0:0:0:
480,192,10589,1,0,0:0:0:0:
480,256,10676,1,8,0:0:0:0:
416,256,10764,1,8,0:0:0:0:
352,256,10851,1,0,0:0:0:0:
288,256,10938,1,8,0:0:0:0:
384,192,11113,1,0,0:0:0:0:
64,128,11287,1,8,0:0:0:0:
96,160,11375,1,8,0:0:0:0:
128,192,11462,1,0,0:0:0:0:
160,224,11549,1,0,0:0:0:0:
192,256,11636,1,8,0:0:0:0:
64,128,11811,1,8,0:0:0:0:
64,128,11985,1,8,0:0:0:0:
96,160,12073,1,0,0:0:0:0:
128,192,12160,1,0,0:0:0:0:
160,224,12247,1,8,0:0:0:0:
192,256,12334,1,8,0:0:0:0:
64,128,12509,1,8,0:0:0:0:
64,128,12683,1,8,0:0:0:0:
96,160,12771,1,0,0:0:0:0:
128,192,12858,1,0,0:0:0:0:
160,224,12945,1,0,0:0:0:0:
192,256,13032,1,8,0:0:0:0:
128,192,13119,1,0,0:0:0:0:
64,128,13207,1,8,0:0:0:0:
64,128,13380,1,8,0:0:0:0:
96,160,13468,1,8,0:0:0:0:
128,192,13555,1,0,0:0:0:0:
160,224,13642,1,0,0:0:0:0:
192,256,13729,1,8,0:0:0:0:
128,192,13816,1,0,0:0:0:0:
64,128,13904,1,8,0:0:0:0:
128,192,13991,1,8,0:0:0:0:
192,256,14078,1,4,0:0:0:0:
480,96,14427,1,8,0:0:0:0:
32,96,14776,1,4,0:0:0:0:
448,320,15125,1,8,0:0:0:0:
64,288,15473,1,4,0:0:0:0:
192,128,15648,1,0,0:0:0:0:
192,128,15735,1,0,0:0:0:0:
352,96,15822,1,8,0:0:0:0:
96,320,16171,1,4,0:0:0:0:
128,160,16520,1,8,0:0:0:0:
256,160,16607,1,8,0:0:0:0:
384,256,16694,1,8,0:0:0:0:
224,256,16781,1,8,0:0:0:0:
32,256,16869,1,4,0:0:0:0:
256,288,17218,1,0,0:0:0:0:
288,256,17566,1,12,0:0:0:0:
192,160,17741,1,0,0:0:0:0:
192,160,17828,1,0,0:0:0:0:
192,160,17915,1,8,0:0:0:0:
192,160,18002,1,8,0:0:0:0:
320,160,18177,1,8,0:0:0:0:
320,160,18264,1,0,0:0:0:0:
288,192,18438,1,8,0:0:0:0:
160,224,18526,1,0,0:0:0:0:
160,224,18700,1,0,0:0:0:0:
160,224,18787,1,8,0:0:0:0:
160,224,18875,1,0,0:0:0:0:
160,224,18962,1,0,0:0:0:0:
160,224,19049,1,8,0:0:0:0:
224,96,19223,1,8,0:0:0:0:
192,64,19311,1,0,0:0:0:0:
192,96,19398,1,0,0:0:0:0:
224,96,19485,1,0,0:0:0:0:
160,224,19572,1,0,0:0:0:0:
160,224,19659,1,8,0:0:0:0:
256,192,19834,1,0,0:0:0:0:
256,192,20008,1,0,0:0:0:0:
256,192,20095,1,0,0:0:0:0:
256,192,20183,1,0,0:0:0:0:
256,192,20270,1,0,0:0:0:0:
256,192,20357,1,8,0:0:0:0:
256,192,20531,1,0,0:0:0:0:
256,160,20706,1,8,0:0:0:0:
256,160,20793,1,0,0:0:0:0:
256,160,20880,1,0,0:0:0:0:
256,160,20968,1,0,0:0:0:0:
256,160,21055,1,8,0:0:0:0:
256,96,21229,1,0,0:0:0:0:
256,96,21404,1,8,0:0:0:0:
256,96,21491,1,0,0:0:0:0:
256,96,21578,1,8,0:0:0:0:
256,96,21665,1,8,0:0:0:0:
256,96,21752,1,0,0:0:0:0:
256,96,21927,1,8,0:0:0:0:
256,96,22101,1,0,0:0:0:0:
256,96,22188,1,0,0:0:0:0:
256,96,22276,1,8,0:0:0:0:
256,96,22363,1,8,0:0:0:0:
256,96,22450,1,0,0:0:0:0:
256,96,22537,1,0,0:0:0:0:
256,96,22625,1,0,0:0:0:0:
256,96,22712,1,0,0:0:0:0:
256,96,22799,1,8,0:0:0:0:
224,128,22973,1,0,0:0:0:0:
224,128,23061,1,0,0:0:0:0:
224,128,23148,1,0,0:0:0:0:
224,128,23235,1,0,0:0:0:0:
224,128,23322,1,8,0:0:0:0:
224,160,23497,1,0,0:0:0:0:
224,160,23584,1,0,0:0:0:0:
224,160,23671,1,8,0:0:0:0:
224,160,23845,1,0,0:0:0:0:
224,128,23933,1,8,0:0:0:0:
224,128,24020,1,0,0:0:0:0:
224,128,24107,1,0,0:0:0:0:
224,128,24194,1,8,0:0:0:0:
224,128,24369,1,0,0:0:0:0:
224,128,24543,1,8,0:0:0:0:
224,128,24630,1,8,0:0:0:0:
224,128,24718,1,0,0:0:0:0:
224,128,24805,1,0,0:0:0:0:
224,128,24892,1,8,0:0:0:0:
224,128,25066,1,8,0:0:0:0:
224,128,25241,1,4,0:0:0:0:
192,160,25415,1,8,0:0:0:0:
192,160,25590,1,0,0:0:0:0:
192,160,25764,1,0,0:0:0:0:
192,160,25851,1,8,0:0:0:0:
192,160,25938,1,0,0:0:0:0:
192,160,26026,1,8,0:0:0:0:
192,160,26200,1,8,0:0:0:0:
192,160,26287,1,0,0:0:0:0:
256,160,26375,1,8,0:0:0:0:
256,160,26462,1,8,0:0:0:0:
256,160,26549,1,8,0:0:0:0:
256,160,26636,1,0,0:0:0:0:
256,160,26811,1,0,0:0:0:0:
256,160,26898,1,8,0:0:0:0:
256,160,27072,1,8,0:0:0:0:
256,160,27159,1,0,0:0:0:0:
256,160,27247,1,8,0:0:0:0:
256,160,27334,1,8,0:0:0:0:
256,160,27421,1,0,0:0:0:0:
256,160,27508,1,0,0:0:0:0:
256,160,27683,1,0,0:0:0:0:
256,160,27770,1,8,0:0:0:0:
256,160,27857,1,0,0:0:0:0:
256,160,27944,1,0,0:0:0:0:
256,160,28031,1,8,0:0:0:0:
256,192,28119,1,8,0:0:0:0:
256,192,28206,1,0,0:0:0:0:
256,192,28380,1,12,0:0:0:0:
192,128,28729,1,0,0:0:0:0:
192,128,28816,1,8,0:0:0:0:
192,128,28904,1,0,0:0:0:0:
192,128,29078,1,12,0:0:0:0:
192,128,29427,1,0,0:0:0:0:
192,128,29514,1,8,0:0:0:0:
192,128,29601,1,0,0:0:0:0:
160,128,29776,1,12,0:0:0:0:
160,128,30125,1,8,0:0:0:0:
160,128,30212,1,8,0:0:0:0:
160,128,30299,1,0,0:0:0:0:
160,128,30473,1,12,0:0:0:0:
256,128,30822,1,0,0:0:0:0:
256,128,30909,1,8,0:0:0:0:
256,128,30997,1,0,0:0:0:0:
256,128,31084,1,0,0:0:0:0:
256,128,31171,1,8,0:0:0:0:
256,128,31258,1,8,0:0:0:0:
256,128,31345,1,0,0:0:0:0:
256,128,31433,1,0,0:0:0:0:
256,128,31520,1,8,0:0:0:0:
256,128,31607,1,0,0:0:0:0:
256,128,31694,1,0,0:0:0:0:
256,128,31781,1,0,0:0:0:0:
256,128,31869,1,8,0:0:0:0:
256,128,31956,1,8,0:0:0:0:
256,128,32043,1,0,0:0:0:0:
256,128,32130,1,0,0:0:0:0:
256,128,32218,1,8,0:0:0:0:
224,128,32305,1,0,0:0:0:0:
224,128,32392,1,0,0:0:0:0:
224,128,32479,1,8,0:0:0:0:
224,128,32566,1,0,0:0:0:0:
224,128,32654,1,0,0:0:0:0:
224,128,32741,1,8,0:0:0:0:
224,128,32915,1,8,0:0:0:0:
224,128,33090,1,4,0:0:0:0:
224,64,33438,1,8,0:0:0:0:
224,64,33613,1,4,0:0:0:0:
224,128,33787,1,8,0:0:0:0:
224,128,33875,1,8,0:0:0:0:
224,128,33962,1,0,0:0:0:0:
224,128,34049,1,0,0:0:0:0:
224,128,34136,1,8,0:0:0:0:
224,96,34223,1,8,0:0:0:0:
224,96,34311,1,0,0:0:0:0:
192,64,34398,1,8,0:0:0:0:
224,96,34485,1,8,0:0:0:0:
192,64,34572,1,8,0:0:0:0:
192,96,34659,1,0,0:0:0:0:
192,64,34747,1,0,0:0:0:0:
192,64,34834,1,8,0:0:0:0:
192,96,35008,1,0,0:0:0:0:
224,128,35095,1,0,0:0:0:0:
224,128,35183,1,8,0:0:0:0:
224,128,35357,1,8,0:0:0:0:
224,128,35531,1,0,0:0:0:0:
224,128,35619,1,0,0:0:0:0:
224,128,35706,1,8,0:0:0:0:
224,128,35880,1,8,0:0:0:0:
224,128,36055,1,0,0:0:0:0:
192,64,36142,1,8,0:0:0:0:
192,64,36229,1,8,0:0:0:0:
192,64,36316,1,8,0:0:0:0:
192,64,36404,1,0,0:0:0:0:
160,64,36578,1,8,0:0:0:0:
160,64,36665,1,8,0:0:0:0:
160,64,36752,1,0,0:0:0:0:
160,64,36840,1,0,0:0:0:0:
192,64,36927,1,8,0:0:0:0:
192,64,37014,1,8,0:0:0:0:
192,64,37101,1,0,0:0:0:0:
192,64,37188,1,8,0:0:0:0:
192,64,37276,1,8,0:0:0:0:
192,64,37363,1,8,0:0:0:0:
192,64,37450,1,0,0:0:0:0:
192,64,37537,1,0,0:0:0:0:
192,64,37625,1,8,0:0:0:0:
192,64,37712,1,8,0:0:0:0:
192,64,37799,1,0,0:0:0:0:
192,64,37973,1,8,0:0:0:0:
192,64,38061,1,0,0:0:0:0:
192,64,38148,1,8,0:0:0:0:
192,64,38322,1,0,0:0:0:0:
192,64,38497,1,8,0:0:0:0:
192,64,38584,1,0,0:0:0:0:
192,64,38671,1,8,0:0:0:0:
192,64,38845,1,0,0:0:0:0:
192,64,39020,1,8,0:0:0:0:
192,64,39107,1,8,0:0:0:0:
192,64,39194,1,0,0:0:0:0:
192,64,39369,1,8,0:0:0:0:
192,64,39456,1,8,0:0:0:0:
192,64,39543,1,0,0:0:0:0:
192,64,39630,1,0,0:0:0:0:
192,64,39718,1,8,0:0:0:0:
192,64,39805,1,0,0:0:0:0:
192,64,39892,1,8,0:0:0:0:
192,64,39979,1,8,0:0:0:0:
192,64,40066,1,0,0:0:0:0:
192,64,40154,1,8,0:0:0:0:
192,64,40241,1,0,0:0:0:0:
192,64,40328,1,0,0:0:0:0:
192,64,40415,1,8,0:0:0:0:
192,64,40502,1,8,0:0:0:0:
192,64,40590,1,0,0:0:0:0:
192,64,40764,1,8,0:0:0:0:
192,64,40851,1,0,0:0:0:0:
192,64,40938,1,8,0:0:0:0:
192,64,41026,1,8,0:0:0:0:
192,64,41113,1,0,0:0:0:0:
192,64,41287,1,8,0:0:0:0:
192,64,41375,1,0,0:0:0:0:
192,64,41462,1,8,0:0:0:0:
192,64,41549,1,8,0:0:0:0:
192,64,41636,1,0,0:0:0:0:
192,64,41811,1,8,0:0:0:0:
192,64,41985,1,0,0:0:0:0:
160,64,42072,1,8,0:0:0:0:
160,64,42159,1,0,0:0:0:0:
160,64,42247,1,0,0:0:0:0:
160,64,42334,1,8,0:0:0:0:
160,64,42508,1,0,0:0:0:0:
160,64,42683,1,8,0:0:0:0:
160,64,42770,1,0,0:0:0:0:
160,64,42857,1,8,0:0:0:0:
160,64,43031,1,0,0:0:0:0:
160,64,43206,1,8,0:0:0:0:
160,64,43293,1,8,0:0:0:0:
160,64,43380,1,0,0:0:0:0:
224,96,43642,1,0,0:0:0:0:
224,96,43904,1,0,0:0:0:0:
224,96,43991,1,0,0:0:0:0:
224,96,44078,1,8,0:0:0:0:
256,64,44252,1,0,0:0:0:0:
224,64,44427,1,0,0:0:0:0:
128,64,44514,1,8,0:0:0:0:
224,96,44601,1,8,0:0:0:0:
224,96,44688,1,0,0:0:0:0:
224,96,44776,1,8,0:0:0:0:
256,160,44950,1,8,0:0:0:0:
128,64,45299,1,0,0:0:0:0:
256,160,45386,1,0,0:0:0:0:
256,160,45473,1,8,0:0:0:0:
192,32,45648,1,0,0:0:0:0:
256,160,45735,1,0,0:0:0:0:
256,160,45822,1,8,0:0:0:0:
256,160,45909,1,8,0:0:0:0:
256,160,45997,1,8,0:0:0:0:
256,160,46084,1,0,0:0:0:0:
256,160,46171,1,0,0:0:0:0:
128,64,46345,1,0,0:0:0:0:
128,64,46433,1,0,0:0:0:0:
128,64,46520,1,8,0:0:0:0:
128,64,46694,1,0,0:0:0:0:
128,64,46869,1,8,0:0:0:0:
128,64,46956,1,8,0:0:0:0:
128,64,47043,1,0,0:0:0:0:
128,64,47130,1,0,0:0:0:0:
128,64,47218,1,8,0:0:0:0:
224,96,47305,1,0,0:0:0:0:
256,192,47392,1,8,0:0:0:0:
256,192,47566,1,0,0:0:0:0:
256,192,47741,1,0,0:0:0:0:
256,192,47828,1,8,0:0:0:0:
256,192,47915,1,0,0:0:0:0:
256,192,48090,1,8,0:0:0:0:
256,192,48264,1,8,0:0:0:0:
256,192,48351,1,8,0:0:0:0:
256,192,48438,1,8,0:0:0:0:
256,192,48526,1,0,0:0:0:0:
256,192,48613,1,8,0:0:0:0:
256,192,48700,1,8,0:0:0:0:
256,192,48787,1,0,0:0:0:0:
256,192,48875,1,8,0:0:0:0:
256,192,48962,1,0,0:0:0:0:
224,96,49136,1,0,0:0:0:0:
224,96,49223,1,0,0:0:0:0:
224,96,49311,1,0,0:0:0:0:
224,96,49485,1,8,0:0:0:0:
224,96,49659,1,8,0:0:0:0:
192,96,49747,1,8,0:0:0:0:
192,96,49834,1,0,0:0:0:0:
192,96,49921,1,0,0:0:0:0:
192,96,50008,1,8,0:0:0:0:
192,96,50095,1,0,0:0:0:0:
192,96,50183,1,0,0:0:0:0:
192,96,50270,1,0,0:0:0:0:
192,96,50357,1,8,0:0:0:0:
192,96,50531,1,0,0:0:0:0:
192,96,50619,1,8,0:0:0:0:
192,96,50706,1,0,0:0:0:0:
192,96,50793,1,0,0:0:0:0:
192,96,50880,1,8,0:0:0:0:
192,96,51055,1,0,0:0:0:0:
192,96,51142,1,8,0:0:0:0:
192,96,51229,1,8,0:0:0:0:
192,96,51316,1,0,0:0:0:0:
192,96,51404,1,8,0:0:0:0:
192,96,51491,1,8,0:0:0:0:
192,96,51578,1,0,0:0:0:0:
192,96,51665,1,8,0:0:0:0:
192,96,51752,1,0,0:0:0:0:
192,192,51927,1,0,0:0:0:0:
192,192,52014,1,0,0:0:0:0:
192,192,52101,1,0,0:0:0:0:
192,192,52276,1,8,0:0:0:0:
192,192,52450,1,8,0:0:0:0:
192,192,52537,1,0,0:0:0:0:
192,192,52625,1,8,0:0:0:0:
192,192,52712,1,8,0:0:0:0:
192,192,52799,1,0,0:0:0:0:
192,192,52886,1,8,0:0:0:0:
192,192,52973,1,8,0:0:0:0:
192,192,53061,1,8,0:0:0:0:
192,192,53148,1,0,0:0:0:0:
192,96,53322,1,0,0:0:0:0:
192,96,53409,1,0,0:0:0:0:
192,96,53497,1,8,0:0:0:0:
192,96,53671,1,8,0:0:0:0:
192,96,53845,1,8,0:0:0:0:
192,96,53933,1,8,0:0:0:0:
192,128,54020,1,0,0:0:0:0:
192,128,54107,1,0,0:0:0:0:
192,128,54194,1,0,0:0:0:0:
192,128,54369,1,8,0:0:0:0:
192,128,54543,1,0,0:0:0:0:
224,128,54718,1,0,0:0:0:0:
224,128,54805,1,8,0:0:0:0:
224,128,54892,1,0,0:0:0:0:
224,128,55066,1,8,0:0:0:0:
224,128,55241,1,8,0:0:0:0:
224,128,55328,1,0,0:0:0:0:
224,128,55415,1,8,0:0:0:0:
224,128,55502,1,8,0:0:0:0:
224,128,55590,1,0,0:0:0:0:
224,128,55677,1,8,0:0:0:0:
224,128,55764,1,8,0:0:0:0:
224,128,55851,1,8,0:0:0:0:
224,128,55938,1,0,0:0:0:0:
224,128,56113,1,0,0:0:0:0:
224,128,56200,1,0,0:0:0:0:
224,128,56287,1,0,0:0:0:0:
224,128,56462,1,8,0:0:0:0:
256,128,56636,1,0,0:0:0:0:
256,128,56723,1,8,0:0:0:0:
256,128,56811,1,0,0:0:0:0:
256,128,56898,1,0,0:0:0:0:
256,128,56985,1,8,0:0:0:0:
256,128,57072,1,8,0:0:0:0:
256,128,57159,1,8,0:0:0:0:
256,128,57247,1,8,0:0:0:0:
256,128,57334,1,4,0:0:0:0:
256,128,57508,1,0,0:0:0:0:
256,128,57683,1,12,0:0:0:0:
256,128,57857,1,8,0:0:0:0:
256,128,58031,1,4,0:0:0:0:
256,128,58206,1,0,0:0:0:0:
256,128,58380,1,12,0:0:0:0:
256,128,58555,1,8,0:0:0:0:
256,128,58729,1,4,0:0:0:0:
256,128,58904,1,8,0:0:0:0:
256,128,58991,1,8,0:0:0:0:
256,128,59078,1,0,0:0:0:0:
256,128,59252,1,8,0:0:0:0:
256,128,59427,1,4,0:0:0:0:
256,128,59601,1,0,0:0:0:0:
256,128,59688,1,0,0:0:0:0:
256,128,59776,1,8,0:0:0:0:
256,128,59950,1,8,0:0:0:0:
256,128,60125,1,4,0:0:0:0:
256,128,60299,1,0,0:0:0:0:
256,128,60473,1,0,0:0:0:0:
256,128,60648,1,0,0:0:0:0:
256,128,60822,1,8,0:0:0:0:
256,128,60909,1,8,0:0:0:0:
256,128,60997,1,0,0:0:0:0:
256,128,61171,1,0,0:0:0:0:
256,128,61345,1,0,0:0:0:0:
256,128,61433,1,8,0:0:0:0:
256,128,61520,1,0,0:0:0:0:
256,128,61694,1,0,0:0:0:0:
256,128,61869,1,0,0:0:0:0:
256,128,62043,1,0,0:0:0:0:
256,128,62218,1,8,0:0:0:0:
256,128,62305,1,8,0:0:0:0:
256,128,62392,1,0,0:0:0:0:
256,128,62566,1,8,0:0:0:0:
256,128,62654,1,0,0:0:0:0:
256,128,62741,1,0,0:0:0:0:
256,128,62828,1,8,0:0:0:0:
256,128,62915,1,0,0:0:0:0:
256,128,63264,1,0,0:0:0:0:
256,128,63438,1,0,0:0:0:0:
256,128,63613,1,8,0:0:0:0:
256,128,63962,1,0,0:0:0:0:
256,128,64049,1,0,0:0:0:0:
256,128,64136,1,0,0:0:0:0:
256,128,64223,1,8,0:0:0:0:
256,128,64311,1,8,0:0:0:0:
284,104,64659,1,0,0:0:0:0:
256,128,64834,1,0,0:0:0:0:
256,128,65008,1,8,0:0:0:0:
224,128,65183,1,0,0:0:0:0:
224,128,65270,1,0,0:0:0:0:
224,128,65357,1,8,0:0:0:0:
248,160,65619,1,8,0:0:0:0:
224,128,65706,1,0,0:0:0:0:
224,128,65968,1,0,0:0:0:0:
224,128,66055,1,8,0:0:0:0:
224,128,66229,1,8,0:0:0:0:
224,128,66316,1,8,0:0:0:0:
224,128,66404,1,0,0:0:0:0:
224,128,66491,1,8,0:0:0:0:
224,128,66578,1,0,0:0:0:0:
224,128,66752,1,8,0:0:0:0:
224,128,66927,1,8,0:0:0:0:
224,128,67014,1,8,0:0:0:0:
224,128,67101,1,0,0:0:0:0:
224,128,67188,1,0,0:0:0:0:
224,128,67363,1,0,0:0:0:0:
224,128,67450,1,8,0:0:0:0:
224,128,67537,1,8,0:0:0:0:
224,128,67625,1,0,0:0:0:0:
224,128,67712,1,8,0:0:0:0:
224,128,67799,1,0,0:0:0:0:
224,128,67973,1,0,0:0:0:0:
224,128,68061,1,0,0:0:0:0:
224,128,68148,1,8,0:0:0:0:
224,128,68235,1,8,0:0:0:0:
224,128,68322,1,8,0:0:0:0:
224,128,68409,1,8,0:0:0:0:
224,128,68497,1,0,0:0:0:0:
224,96,68671,1,0,0:0:0:0:
224,96,68758,1,0,0:0:0:0:
224,96,68845,1,8,0:0:0:0:
192,96,69020,1,8,0:0:0:0:
192,96,69107,1,8,0:0:0:0:
192,96,69194,1,0,0:0:0:0:
192,96,69281,1,8,0:0:0:0:
192,96,69369,1,0,0:0:0:0:
192,96,69456,1,0,0:0:0:0:
192,96,69543,1,8,0:0:0:0:
192,96,69718,1,8,0:0:0:0:
192,96,69805,1,8,0:0:0:0:
192,96,69892,1,0,0:0:0:0:
192,96,70066,1,0,0:0:0:0:
192,96,70154,1,0,0:0:0:0:
192,96,70241,1,8,0:0:0:0:
192,96,70415,1,8,0:0:0:0:
192,96,70502,1,8,0:0:0:0:
192,96,70590,1,0,0:0:0:0:
192,96,70677,1,8,0:0:0:0:
192,96,70764,1,0,0:0:0:0:
192,96,70851,1,0,0:0:0:0:
192,96,70938,1,8,0:0:0:0:
192,96,71026,1,0,0:0:0:0:
192,96,71113,1,8,0:0:0:0:
192,96,71200,1,8,0:0:0:0:
160,160,71287,1,0,0:0:0:0:
320,96,71404,1,4,0:0:0:0:
192,96,71985,1,0,0:0:0:0:
352,64,72101,1,12,0:0:0:0:
256,64,72683,1,0,0:0:0:0:
256,64,72799,1,12,0:0:0:0:
256,64,73380,5,0,0:0:0:0:
256,64,73497,1,12,0:0:0:0:
288,160,74078,1,12,0:0:0:0:
288,160,74427,1,0,0:0:0:0:
288,160,74514,1,0,0:0:0:0:
288,160,74601,1,0,0:0:0:0:
288,160,74688,1,0,0:0:0:0:
288,160,74776,1,12,0:0:0:0:
288,160,75125,1,0,0:0:0:0:
288,160,75212,1,0,0:0:0:0:
288,160,75299,1,0,0:0:0:0:
288,160,75386,1,0,0:0:0:0:
160,264,75473,1,8,0:0:0:0:
256,160,75822,1,0,0:0:0:0:
256,160,75909,1,0,0:0:0:0:
224,160,75997,1,0,0:0:0:0:
224,160,76084,1,0,0:0:0:0:
224,160,76171,1,12,0:0:0:0:
256,192,80157,5,4,0:0:0:0:
256,192,80809,1,0,0:0:0:0:
256,192,81461,1,0,0:0:0:0:
256,192,82113,1,0,0:0:0:0:
256,192,82439,1,0,0:0:0:0:
256,192,82765,1,4,0:0:0:0:
256,192,82928,1,0,0:0:0:0:
256,192,83417,1,0,0:0:0:0:
256,192,83580,1,0,0:0:0:0:
256,192,84070,1,0,0:0:0:0:
256,192,84233,1,0,0:0:0:0:
256,192,84722,1,0,0:0:0:0:
256,192,84885,1,0,0:0:0:0:
256,192,85048,1,8,0:0:0:0:
256,192,85374,1,4,0:0:0:0:
256,192,85537,1,0,0:0:0:0:
256,192,86026,1,0,0:0:0:0:
256,192,86189,1,0,0:0:0:0:
256,192,86678,1,0,0:0:0:0:
256,192,86841,1,0,0:0:0:0:
256,192,87330,1,0,0:0:0:0:
256,192,87493,1,0,0:0:0:0:
256,192,87657,1,8,0:0:0:0:
256,192,87983,1,4,0:0:0:0:
256,192,88146,1,0,0:0:0:0:
256,192,88635,1,0,0:0:0:0:
256,192,88798,1,0,0:0:0:0:
256,192,89287,1,0,0:0:0:0:
256,192,89450,1,0,0:0:0:0:
256,192,89939,1,0,0:0:0:0:
256,192,90102,1,0,0:0:0:0:
256,192,90265,1,8,0:0:0:0:
256,192,90591,1,0,0:0:0:0:
256,192,90754,1,0,0:0:0:0:
256,192,90917,1,12,0:0:0:0:
256,192,91243,1,0,0:0:0:0:
256,192,91407,1,8,0:0:0:0:
256,192,91570,1,12,0:0:0:0:
256,192,91896,1,0,0:0:0:0:
256,192,92059,1,0,0:0:0:0:
256,192,92222,1,12,0:0:0:0:
256,192,92548,1,0,0:0:0:0:
256,192,92711,1,8,0:0:0:0:
256,192,92874,1,4,0:0:0:0:
256,192,93200,1,8,0:0:0:0:
256,192,93363,1,0,0:0:0:0:
256,192,93526,1,12,0:0:0:0:
256,192,93852,1,8,0:0:0:0:
256,192,94015,1,8,0:0:0:0:
256,192,94178,1,4,0:0:0:0:
256,192,94504,1,8,0:0:0:0:
256,192,94667,1,0,0:0:0:0:
256,192,94830,1,12,0:0:0:0:
256,192,95157,1,8,0:0:0:0:
256,192,95320,1,0,0:0:0:0:
256,192,95483,1,4,0:0:0:0:
256,192,95809,1,4,0:0:0:0:
256,192,95972,1,0,0:0:0:0:
256,192,96135,1,12,0:0:0:0:
256,192,96461,1,8,0:0:0:0:
256,192,96624,1,8,0:0:0:0:
256,192,96787,1,12,0:0:0:0:
256,192,97113,1,0,0:0:0:0:
256,192,97276,1,8,0:0:0:0:
256,192,97439,1,4,0:0:0:0:
256,192,97765,1,0,0:0:0:0:
256,192,97928,1,0,0:0:0:0:
256,192,98091,1,4,0:0:0:0:
256,192,98417,1,4,0:0:0:0:
256,192,98580,1,8,0:0:0:0:
256,192,98743,1,12,0:0:0:0:
256,192,99070,1,0,0:0:0:0:
256,192,99233,1,0,0:0:0:0:
256,192,99396,1,12,0:0:0:0:
256,192,99722,1,8,0:0:0:0:
256,192,99885,1,8,0:0:0:0:
256,192,100048,1,12,0:0:0:0:
256,192,100374,1,0,0:0:0:0:
256,192,100537,1,0,0:0:0:0:
256,192,100700,1,4,0:0:0:0:
256,192,101026,1,12,0:0:0:0:
256,192,101678,1,4,0:0:0:0:
256,192,102330,1,12,0:0:0:0:
256,192,102983,1,8,0:0:0:0:
116,156,103309,1,8,0:0:0:0:
116,156,103390,1,8,0:0:0:0:
116,156,103472,1,8,0:0:0:0:
116,156,103553,1,8,0:0:0:0:
256,192,103635,1,0,0:0:0:0:
256,192,103798,1,0,0:0:0:0:
256,192,103879,1,0,0:0:0:0:
256,192,103961,1,8,0:0:0:0:
256,192,104124,1,0,0:0:0:0:
256,192,104450,1,0,0:0:0:0:
256,192,104613,1,8,0:0:0:0:
256,192,104695,1,0,0:0:0:0:
256,192,104776,1,8,0:0:0:0:
256,192,104858,1,8,0:0:0:0:
256,192,104939,1,0,0:0:0:0:
256,192,105102,1,0,0:0:0:0:
256,192,105265,1,8,0:0:0:0:
256,192,105347,1,8,0:0:0:0:
256,192,105428,1,0,0:0:0:0:
256,192,105591,1,8,0:0:0:0:
256,192,105754,1,0,0:0:0:0:
256,192,105917,1,0,0:0:0:0:
256,192,105999,1,0,0:0:0:0:
256,192,106080,1,0,0:0:0:0:
256,192,106243,1,8,0:0:0:0:
256,192,106406,1,0,0:0:0:0:
256,192,106488,1,0,0:0:0:0:
256,192,106570,1,0,0:0:0:0:
256,192,106733,1,0,0:0:0:0:
256,192,106896,1,8,0:0:0:0:
256,192,107059,1,8,0:0:0:0:
256,192,107140,1,8,0:0:0:0:
256,192,107222,1,0,0:0:0:0:
256,192,107385,1,0,0:0:0:0:
256,192,107548,1,8,0:0:0:0:
256,192,107629,1,0,0:0:0:0:
256,192,107711,1,0,0:0:0:0:
256,192,107792,1,0,0:0:0:0:
256,192,107874,1,8,0:0:0:0:
256,192,108037,1,0,0:0:0:0:
256,192,108200,1,8,0:0:0:0:
256,192,108281,1,8,0:0:0:0:
256,192,108363,1,8,0:0:0:0:
256,192,108445,1,8,0:0:0:0:
256,192,108526,1,0,0:0:0:0:
256,192,108689,1,0,0:0:0:0:
256,192,108852,1,0,0:0:0:0:
256,192,108934,1,8,0:0:0:0:
256,192,109097,1,8,0:0:0:0:
256,192,109178,1,0,0:0:0:0:
256,192,109341,1,8,0:0:0:0:
256,192,109667,1,0,0:0:0:0:
256,192,109830,1,8,0:0:0:0:
256,192,109912,1,0,0:0:0:0:
256,192,109993,1,0,0:0:0:0:
256,192,110156,1,8,0:0:0:0:
256,192,110320,1,8,0:0:0:0:
256,192,110483,1,0,0:0:0:0:
256,192,110646,1,0,0:0:0:0:
256,192,110727,1,0,0:0:0:0:
256,192,110809,1,8,0:0:0:0:
256,192,110972,1,0,0:0:0:0:
256,192,111135,1,8,0:0:0:0:
256,192,111216,1,8,0:0:0:0:
256,192,111298,1,0,0:0:0:0:
256,192,111461,1,0,0:0:0:0:
256,192,111624,1,0,0:0:0:0:
256,192,111787,1,12,0:0:0:0:
256,192,112113,1,0,0:0:0:0:
256,192,112276,1,0,0:0:0:0:
256,192,112439,1,12,0:0:0:0:
256,192,112765,1,8,0:0:0:0:
256,192,112928,1,0,0:0:0:0:
256,192,113091,1,12,0:0:0:0:
256,192,113417,1,0,0:0:0:0:
256,192,113580,1,0,0:0:0:0:
256,192,113743,1,12,0:0:0:0:
256,192,114070,1,0,0:0:0:0:
256,192,114233,1,0,0:0:0:0:
256,192,114396,1,8,0:0:0:0:
256,192,114477,1,8,0:0:0:0:
256,192,114559,1,0,0:0:0:0:
256,192,114640,1,8,0:0:0:0:
256,192,114722,1,0,0:0:0:0:
256,192,114885,1,0,0:0:0:0:
256,192,115048,1,0,0:0:0:0:
256,192,115129,1,8,0:0:0:0:
256,192,115211,1,0,0:0:0:0:
256,192,115374,1,8,0:0:0:0:
256,192,115537,1,0,0:0:0:0:
256,192,115700,1,0,0:0:0:0:
256,192,115781,1,8,0:0:0:0:
256,192,115863,1,8,0:0:0:0:
256,192,115945,1,8,0:0:0:0:
256,192,116026,1,0,0:0:0:0:
256,192,116189,1,8,0:0:0:0:
256,192,116271,1,8,0:0:0:0:
256,192,116352,1,0,0:0:0:0:
256,192,116434,1,8,0:0:0:0:
256,192,116515,1,0,0:0:0:0:
256,192,116678,1,0,0:0:0:0:
256,192,116841,1,0,0:0:0:0:
256,192,117004,1,8,0:0:0:0:
256,192,117085,1,8,0:0:0:0:
256,192,117167,1,8,0:0:0:0:
256,192,117248,1,8,0:0:0:0:
256,192,117330,1,0,0:0:0:0:
256,192,117493,1,8,0:0:0:0:
256,192,117656,1,0,0:0:0:0:
256,192,117737,1,8,0:0:0:0:
256,192,117819,1,0,0:0:0:0:
256,192,117982,1,0,0:0:0:0:
256,192,118145,1,8,0:0:0:0:
256,192,118308,1,0,0:0:0:0:
256,192,118389,1,8,0:0:0:0:
256,192,118471,1,8,0:0:0:0:
256,192,118553,1,8,0:0:0:0:
256,192,118634,1,0,0:0:0:0:
256,192,118797,1,8,0:0:0:0:
256,192,118879,1,8,0:0:0:0:
256,192,118960,1,0,0:0:0:0:
256,192,119042,1,8,0:0:0:0:
256,192,119123,1,0,0:0:0:0:
256,192,119287,1,0,0:0:0:0:
256,192,119776,1,0,0:0:0:0:
256,192,119858,1,0,0:0:0:0:
256,192,119939,1,0,0:0:0:0:
256,192,120591,1,0,0:0:0:0:
256,192,121162,1,0,0:0:0:0:
256,192,121243,1,0,0:0:0:0:
256,192,121896,1,0,0:0:0:0:
256,192,122059,1,0,0:0:0:0:
256,192,122140,1,0,0:0:0:0:
256,192,122222,1,0,0:0:0:0:
256,192,122385,1,0,0:0:0:0:
256,192,122548,1,0,0:0:0:0:
256,192,122711,1,0,0:0:0:0:
256,192,122792,1,0,0:0:0:0:
256,192,122874,1,0,0:0:0:0:
256,192,123037,1,0,0:0:0:0:
256,192,123200,1,0,0:0:0:0:
256,192,123281,1,0,0:0:0:0:
256,192,123363,1,0,0:0:0:0:
256,192,123526,1,0,0:0:0:0:
256,192,123689,1,0,0:0:0:0:
256,192,123771,1,0,0:0:0:0:
256,192,123852,1,0,0:0:0:0:
256,192,123934,1,0,0:0:0:0:
256,192,124015,1,0,0:0:0:0:
256,192,124178,1,0,0:0:0:0:
256,192,124504,1,8,0:0:0:0:
256,192,124667,1,8,0:0:0:0:
256,192,124749,1,8,0:0:0:0:
256,192,124830,1,8,0:0:0:0:
256,192,124993,1,0,0:0:0:0:
256,192,125156,1,8,0:0:0:0:
256,192,125238,1,8,0:0:0:0:
256,192,125320,1,8,0:0:0:0:
256,192,125483,1,8,0:0:0:0:
256,192,125646,1,0,0:0:0:0:
256,192,125809,1,8,0:0:0:0:
256,192,125972,1,8,0:0:0:0:
256,192,126053,1,8,0:0:0:0:
256,192,126135,1,8,0:0:0:0:
256,192,126298,1,8,0:0:0:0:
256,192,126461,1,0,0:0:0:0:
256,192,126542,1,0,0:0:0:0:
256,192,126624,1,8,0:0:0:0:
256,192,126705,1,8,0:0:0:0:
256,192,126787,1,8,0:0:0:0:
256,192,126950,1,8,0:0:0:0:
256,192,127113,1,12,0:0:0:0:
256,192,127439,1,4,0:0:0:0:
256,192,127765,1,12,0:0:0:0:
256,192,128091,1,4,0:0:0:0:
256,192,128417,1,8,0:0:0:0:
256,192,128580,1,0,0:0:0:0:
256,192,128662,1,8,0:0:0:0:
256,192,128743,1,0,0:0:0:0:
256,192,128906,1,8,0:0:0:0:
256,192,129070,1,0,0:0:0:0:
256,192,129396,1,0,0:0:0:0:
256,192,129722,1,12,0:0:0:0:
256,192,130048,1,4,0:0:0:0:
256,192,130374,1,12,0:0:0:0:
256,192,130700,1,4,0:0:0:0:
256,192,131026,1,0,0:0:0:0:
256,192,131108,1,8,0:0:0:0:
256,192,131189,1,0,0:0:0:0:
256,192,131271,1,0,0:0:0:0:
256,192,131352,1,8,0:0:0:0:
256,192,131516,1,8,0:0:0:0:
256,192,131679,1,0,0:0:0:0:
256,192,132004,1,0,0:0:0:0:
256,192,132330,1,0,0:0:0:0:
256,192,132493,1,0,0:0:0:0:
256,192,132656,1,8,0:0:0:0:
256,192,132738,1,0,0:0:0:0:
256,192,132820,1,0,0:0:0:0:
256,192,132983,1,0,0:0:0:0:
256,192,133146,1,0,0:0:0:0:
256,192,133309,1,8,0:0:0:0:
256,192,133390,1,0,0:0:0:0:
256,192,133472,1,8,0:0:0:0:
256,192,133553,1,8,0:0:0:0:
256,192,133635,1,0,0:0:0:0:
256,192,133798,1,0,0:0:0:0:
256,192,133961,1,8,0:0:0:0:
256,192,134042,1,8,0:0:0:0:
256,192,134124,1,0,0:0:0:0:
256,192,134287,1,0,0:0:0:0:
256,192,134613,1,0,0:0:0:0:
256,192,134939,1,0,0:0:0:0:
256,192,135021,1,8,0:0:0:0:
256,192,135184,1,8,0:0:0:0:
256,192,135265,1,0,0:0:0:0:
256,192,135428,1,8,0:0:0:0:
256,192,135591,1,0,0:0:0:0:
256,192,135673,1,8,0:0:0:0:
256,192,135754,1,8,0:0:0:0:
256,192,135836,1,8,0:0:0:0:
256,192,135917,1,0,0:0:0:0:
256,192,136080,1,8,0:0:0:0:
256,192,136243,1,0,0:0:0:0:
256,192,136325,1,8,0:0:0:0:
256,192,136406,1,8,0:0:0:0:
256,192,136570,1,0,0:0:0:0:
256,192,136733,1,8,0:0:0:0:
256,192,136896,1,0,0:0:0:0:
256,192,136977,1,8,0:0:0:0:
256,192,137059,1,8,0:0:0:0:
256,192,137140,1,8,0:0:0:0:
256,192,137222,1,0,0:0:0:0:
144,152,137303,1,0,0:0:0:0:
144,152,137385,1,0,0:0:0:0:
256,192,137548,1,0,0:0:0:0:
256,192,137711,1,0,0:0:0:0:
256,192,137874,1,8,0:0:0:0:
256,192,138037,1,0,0:0:0:0:
256,192,138118,1,8,0:0:0:0:
256,192,138200,1,0,0:0:0:0:
256,192,138363,1,0,0:0:0:0:
256,192,138526,1,12,0:0:0:0:
256,192,138852,1,8,0:0:0:0:
256,192,139015,1,0,0:0:0:0:
256,192,139178,1,8,0:0:0:0:
256,192,139341,1,8,0:0:0:0:
256,192,139423,1,8,0:0:0:0:
256,192,139504,1,0,0:0:0:0:
256,192,139667,1,8,0:0:0:0:
256,192,139830,1,0,0:0:0:0:
256,192,139993,1,0,0:0:0:0:
256,192,140075,1,0,0:0:0:0:
256,192,140156,1,0,0:0:0:0:
256,192,140320,1,8,0:0:0:0:
256,192,140401,1,0,0:0:0:0:
256,192,140483,1,0,0:0:0:0:
256,192,140564,1,8,0:0:0:0:
256,192,140646,1,0,0:0:0:0:
256,192,140727,1,8,0:0:0:0:
256,192,140809,1,0,0:0:0:0:
256,192,140972,1,0,0:0:0:0:
256,192,141135,1,12,0:0:0:0:
256,192,141461,1,0,0:0:0:0:
256,192,141624,1,0,0:0:0:0:
256,192,141705,1,0,0:0:0:0:
256,192,141787,1,8,0:0:0:0:
256,192,141950,1,8,0:0:0:0:
256,192,142113,1,0,0:0:0:0:
256,192,142195,1,8,0:0:0:0:
256,192,142276,1,0,0:0:0:0:
256,192,142358,1,8,0:0:0:0:
256,192,142439,1,0,0:0:0:0:
256,192,142602,1,8,0:0:0:0:
256,192,142765,1,0,0:0:0:0:
256,192,143091,1,8,0:0:0:0:
256,192,143254,1,0,0:0:0:0:
256,192,143336,1,0,0:0:0:0:
256,192,143417,1,8,0:0:0:0:
256,192,143580,1,0,0:0:0:0:
256,192,143662,1,8,0:0:0:0:
256,192,143743,1,0,0:0:0:0:
256,192,143906,1,0,0:0:0:0:
256,192,144070,1,8,0:0:0:0:
256,192,144233,1,8,0:0:0:0:
256,192,144314,1,8,0:0:0:0:
256,192,144396,1,0,0:0:0:0:
256,192,144477,1,8,0:0:0:0:
256,192,144559,1,0,0:0:0:0:
256,192,144722,1,8,0:0:0:0:
256,192,144885,1,0,0:0:0:0:
256,192,144966,1,0,0:0:0:0:
256,192,145048,1,0,0:0:0:0:
256,192,145129,1,0,0:0:0:0:
256,192,145211,1,0,0:0:0:0:
256,192,145374,1,8,0:0:0:0:
256,192,145537,1,8,0:0:0:0:
256,192,145700,1,0,0:0:0:0:
256,192,145781,1,0,0:0:0:0:
256,192,145863,1,0,0:0:0:0:
256,192,146026,1,8,0:0:0:0:
256,192,146189,1,8,0:0:0:0:
256,192,146352,1,0,0:0:0:0:
256,192,146434,1,0,0:0:0:0:
256,192,146515,1,0,0:0:0:0:
256,192,146678,1,8,0:0:0:0:
256,192,146760,1,8,0:0:0:0:
256,192,146841,1,0,0:0:0:0:
256,192,146923,1,0,0:0:0:0:
256,192,147004,1,8,0:0:0:0:
256,192,147086,1,8,0:0:0:0:
256,192,147167,1,0,0:0:0:0:
256,192,147249,1,0,0:0:0:0:
256,192,147330,1,8,0:0:0:0:
256,192,147412,1,8,0:0:0:0:
256,192,147493,1,8,0:0:0:0:
256,192,147575,1,8,0:0:0:0:
256,192,147656,1,0,0:0:0:0:
256,192,147738,1,0,0:0:0:0:
256,192,147820,1,8,0:0:0:0:
256,192,147901,1,0,0:0:0:0:
256,192,147983,1,0,0:0:0:0:
256,192,154130,5,0,0:0:0:0:
256,192,154200,1,0,0:0:0:0:
256,192,154271,1,0,0:0:0:0:
256,192,154342,1,2,0:0:0:0:
256,192,154413,1,0,0:0:0:0:
256,192,154483,1,0,0:0:0:0:
256,192,154554,1,2,0:0:0:0:
256,192,154625,1,2,0:0:0:0:
256,192,154696,1,0,0:0:0:0:
256,192,154766,1,0,0:0:0:0:
256,192,154837,1,0,0:0:0:0:
256,192,154908,1,2,0:0:0:0:
256,192,154979,1,0,0:0:0:0:
256,192,155049,1,0,0:0:0:0:
256,192,155120,1,2,0:0:0:0:
256,192,155191,1,2,0:0:0:0:
256,192,155262,1,0,0:0:0:0:
256,192,155332,1,0,0:0:0:0:
256,192,155403,1,0,0:0:0:0:
256,192,155474,1,0,0:0:0:0:
256,192,155545,1,2,0:0:0:0:
256,192,155615,1,2,0:0:0:0:
256,192,155686,1,2,0:0:0:0:
256,192,155757,1,2,0:0:0:0:
256,192,155828,1,0,0:0:0:0:
256,192,155898,1,0,0:0:0:0:
256,192,155969,1,2,0:0:0:0:
256,192,156040,1,2,0:0:0:0:
256,192,156111,1,0,0:0:0:0:
256,192,156181,1,2,0:0:0:0:
256,192,156252,1,2,0:0:0:0:
256,192,156323,1,2,0:0:0:0:
256,192,156394,5,0,0:0:0:0:
256,192,156677,1,2,0:0:0:0:
256,192,156818,1,0,0:0:0:0:
256,192,157101,1,0,0:0:0:0:
256,192,157243,1,2,0:0:0:0:
256,192,157526,1,0,0:0:0:0:
256,192,157667,1,0,0:0:0:0:
256,192,157809,1,2,0:0:0:0:
256,192,157950,1,0,0:0:0:0:
256,192,158233,1,0,0:0:0:0:
256,192,158375,1,2,0:0:0:0:
256,192,158516,1,2,0:0:0:0:
256,192,158587,1,2,0:0:0:0:
256,192,158658,1,0,0:0:0:0:
256,192,158941,1,2,0:0:0:0:
256,192,159082,1,0,0:0:0:0:
256,192,159365,1,0,0:0:0:0:
256,192,159507,1,2,0:0:0:0:
256,192,159790,1,2,0:0:0:0:
256,192,159931,1,0,0:0:0:0:
256,192,160073,1,0,0:0:0:0:
256,192,160214,1,2,0:0:0:0:
256,192,160356,1,0,0:0:0:0:
256,192,160497,1,2,0:0:0:0:
256,192,160639,1,2,0:0:0:0:
256,192,160710,1,2,0:0:0:0:
256,192,160780,1,2,0:0:0:0:
256,192,160851,1,2,0:0:0:0:
256,192,160922,5,0,0:0:0:0:
256,192,161205,1,2,0:0:0:0:
256,192,161346,1,0,0:0:0:0:
256,192,161630,1,0,0:0:0:0:
256,192,161771,1,2,0:0:0:0:
256,192,161913,1,2,0:0:0:0:
256,192,161983,1,2,0:0:0:0:
256,192,162054,1,0,0:0:0:0:
256,192,162196,1,0,0:0:0:0:
256,192,162337,1,2,0:0:0:0:
256,192,162479,1,0,0:0:0:0:
256,192,162762,1,0,0:0:0:0:
256,192,162903,1,2,0:0:0:0:
256,192,163045,1,2,0:0:0:0:
256,192,163186,1,0,0:0:0:0:
256,192,163469,1,2,0:0:0:0:
256,192,163611,1,0,0:0:0:0:
256,192,163894,1,0,0:0:0:0:
256,192,164035,1,2,0:0:0:0:
256,192,164177,1,0,0:0:0:0:
256,192,164247,1,0,0:0:0:0:
256,192,164318,1,2,0:0:0:0:
256,192,164460,1,0,0:0:0:0:
256,192,164601,1,0,0:0:0:0:
256,192,164743,1,2,0:0:0:0:
256,192,164884,1,0,0:0:0:0:
256,192,165026,1,2,0:0:0:0:
256,192,165167,1,0,0:0:0:0:
256,192,165238,1,2,0:0:0:0:
256,192,165309,1,2,0:0:0:0:
256,192,165380,1,2,0:0:0:0:
256,192,165450,5,0,0:0:0:0:
256,192,165733,1,2,0:0:0:0:
256,192,166016,1,0,0:0:0:0:
256,192,166158,1,0,0:0:0:0:
256,192,166299,1,2,0:0:0:0:
256,192,166441,1,0,0:0:0:0:
256,192,166512,1,0,0:0:0:0:
256,192,166582,1,0,0:0:0:0:
256,192,166724,1,0,0:0:0:0:
256,192,166865,1,2,0:0:0:0:
256,192,167007,1,0,0:0:0:0:
256,192,167148,1,2,0:0:0:0:
256,192,167219,1,2,0:0:0:0:
256,192,167290,1,0,0:0:0:0:
256,192,167431,1,0,0:0:0:0:
256,192,167573,1,2,0:0:0:0:
256,192,167714,1,0,0:0:0:0:
256,192,167997,1,2,0:0:0:0:
256,192,168280,1,0,0:0:0:0:
256,192,168422,1,0,0:0:0:0:
256,192,168563,1,2,0:0:0:0:
256,192,168705,1,0,0:0:0:0:
256,192,168776,1,0,0:0:0:0:
256,192,168846,1,2,0:0:0:0:
256,192,168988,1,0,0:0:0:0:
256,192,169129,1,2,0:0:0:0:
256,192,169271,1,2,0:0:0:0:
256,192,169342,1,2,0:0:0:0:
256,192,169413,1,0,0:0:0:0:
256,192,169554,1,2,0:0:0:0:
256,192,169696,1,2,0:0:0:0:
256,192,169766,1,2,0:0:0:0:
256,192,169837,1,2,0:0:0:0:
256,192,169979,5,0,0:0:0:0:
256,192,170262,1,2,0:0:0:0:
256,192,170545,1,0,0:0:0:0:
256,192,170686,1,0,0:0:0:0:
256,192,170828,1,2,0:0:0:0:
256,192,170969,1,0,0:0:0:0:
256,192,171040,1,0,0:0:0:0:
256,192,171111,1,0,0:0:0:0:
256,192,171252,1,0,0:0:0:0:
256,192,171394,1,2,0:0:0:0:
256,192,171535,1,0,0:0:0:0:
256,192,171677,1,2,0:0:0:0:
256,192,171747,1,2,0:0:0:0:
256,192,171818,1,0,0:0:0:0:
256,192,171960,1,0,0:0:0:0:
256,192,172101,1,2,0:0:0:0:
256,192,172243,1,0,0:0:0:0:
256,192,172526,1,2,0:0:0:0:
256,192,172809,1,0,0:0:0:0:
256,192,172950,1,0,0:0:0:0:
256,192,173092,1,2,0:0:0:0:
256,192,173233,1,0,0:0:0:0:
256,192,173304,1,0,0:0:0:0:
256,192,173375,1,2,0:0:0:0:
256,192,173516,1,0,0:0:0:0:
256,192,173658,1,2,0:0:0:0:
256,192,173799,1,2,0:0:0:0:
256,192,173870,1,2,0:0:0:0:
256,192,173941,1,0,0:0:0:0:
256,192,174082,1,2,0:0:0:0:
256,192,174224,1,2,0:0:0:0:
256,192,174295,1,2,0:0:0:0:
256,192,174365,1,2,0:0:0:0:
256,192,174436,1,2,0:0:0:0:
256,192,174507,5,0,0:0:0:0:
256,192,174648,1,0,0:0:0:0:
256,192,174790,1,2,0:0:0:0:
256,192,174931,1,0,0:0:0:0:
256,192,175214,1,0,0:0:0:0:
256,192,175356,1,2,0:0:0:0:
256,192,175497,1,2,0:0:0:0:
256,192,175568,1,2,0:0:0:0:
256,192,175639,1,0,0:0:0:0:
256,192,175780,1,2,0:0:0:0:
256,192,175922,1,2,0:0:0:0:
256,192,176063,1,0,0:0:0:0:
256,192,176346,1,0,0:0:0:0:
256,192,176488,1,2,0:0:0:0:
256,192,176629,1,0,0:0:0:0:
256,192,176700,1,0,0:0:0:0:
256,192,176771,1,0,0:0:0:0:
256,192,176913,1,0,0:0:0:0:
256,192,177054,1,2,0:0:0:0:
256,192,177196,1,0,0:0:0:0:
256,192,177479,1,0,0:0:0:0:
256,192,177620,1,2,0:0:0:0:
256,192,177762,1,2,0:0:0:0:
256,192,177832,1,2,0:0:0:0:
256,192,177903,1,0,0:0:0:0:
256,192,178045,1,2,0:0:0:0:
256,192,178186,1,2,0:0:0:0:
256,192,178328,1,0,0:0:0:0:
256,192,178469,1,2,0:0:0:0:
256,192,178611,1,2,0:0:0:0:
256,192,178752,1,2,0:0:0:0:
256,192,178823,1,2,0:0:0:0:
256,192,178894,1,2,0:0:0:0:
256,192,178964,1,2,0:0:0:0:
256,192,179035,5,0,0:0:0:0:
256,192,179318,1,2,0:0:0:0:
256,192,179601,1,0,0:0:0:0:
256,192,179743,1,0,0:0:0:0:
256,192,179884,1,2,0:0:0:0:
256,192,180167,1,0,0:0:0:0:
256,192,180309,1,0,0:0:0:0:
256,192,180379,1,0,0:0:0:0:
256,192,180450,1,2,0:0:0:0:
256,192,180592,1,0,0:0:0:0:
256,192,180875,1,0,0:0:0:0:
256,192,181016,1,2,0:0:0:0:
256,192,181158,1,2,0:0:0:0:
256,192,181299,1,4,0:0:0:0:
256,192,181865,1,2,0:0:0:0:
256,192,182007,1,2,0:0:0:0:
256,192,182148,1,2,0:0:0:0:
256,192,182431,1,2,0:0:0:0:
256,192,182714,1,2,0:0:0:0:
256,192,182856,1,2,0:0:0:0:
256,192,182997,1,2,0:0:0:0:
256,192,183139,1,2,0:0:0:0:
256,192,183280,1,2,0:0:0:0:
256,192,183563,1,2,0:0:0:0:
256,192,184129,1,2,0:0:0:0:
256,192,184413,1,2,0:0:0:0:
64,96,184696,2,0,B|192:64|256:128|256:128|192:192|224:192,1,280
256,192,185545,1,2,0:0:0:0:
256,192,185686,1,2,0:0:0:0:
256,192,185828,5,0,0:0:0:0:
256,192,185969,1,0,0:0:0:0:
256,192,186111,1,2,0:0:0:0:
256,192,186252,1,0,0:0:0:0:
256,192,186323,1,0,0:0:0:0:
256,192,186394,1,0,0:0:0:0:
256,192,186535,1,2,0:0:0:0:
256,192,186677,1,0,0:0:0:0:
256,192,186818,1,2,0:0:0:0:
256,192,186960,1,0,0:0:0:0:
256,192,187101,1,0,0:0:0:0:
256,192,187243,1,2,0:0:0:0:
256,192,187384,1,0,0:0:0:0:
256,192,187455,1,0,0:0:0:0:
256,192,187526,1,2,0:0:0:0:
256,192,187667,1,0,0:0:0:0:
256,192,187809,1,2,0:0:0:0:
256,192,187950,1,2,0:0:0:0:
256,192,188021,1,2,0:0:0:0:
256,192,188092,1,0,0:0:0:0:
256,192,188233,1,0,0:0:0:0:
256,192,188375,1,2,0:0:0:0:
256,192,188516,1,0,0:0:0:0:
256,192,188587,1,0,0:0:0:0:
256,192,188658,1,0,0:0:0:0:
256,192,188799,1,0,0:0:0:0:
256,192,188941,1,2,0:0:0:0:
256,192,189082,1,2,0:0:0:0:
256,192,189153,1,2,0:0:0:0:
256,192,189224,1,0,0:0:0:0:
256,192,189365,1,0,0:0:0:0:
256,192,189507,1,2,0:0:0:0:
256,192,189648,1,0,0:0:0:0:
256,192,189719,1,2,0:0:0:0:
256,192,189790,1,0,0:0:0:0:
256,192,189931,1,2,0:0:0:0:
256,192,190073,1,0,0:0:0:0:
256,192,190144,1,0,0:0:0:0:
256,192,190214,1,2,0:0:0:0:
256,192,190285,1,2,0:0:0:0:
256,192,190356,5,0,0:0:0:0:
256,192,190497,1,0,0:0:0:0:
256,192,190639,1,2,0:0:0:0:
256,192,190780,1,0,0:0:0:0:
256,192,190851,1,0,0:0:0:0:
256,192,190922,1,0,0:0:0:0:
256,192,191063,1,2,0:0:0:0:
256,192,191205,1,0,0:0:0:0:
256,192,191346,1,2,0:0:0:0:
256,192,191417,1,2,0:0:0:0:
256,192,191488,1,0,0:0:0:0:
256,192,191629,1,0,0:0:0:0:
256,192,191771,1,2,0:0:0:0:
256,192,191913,1,0,0:0:0:0:
256,192,191983,1,0,0:0:0:0:
256,192,192054,1,2,0:0:0:0:
256,192,192196,1,0,0:0:0:0:
256,192,192337,1,2,0:0:0:0:
256,192,192479,1,2,0:0:0:0:
256,192,192620,1,0,0:0:0:0:
256,192,192762,1,0,0:0:0:0:
256,192,192903,1,2,0:0:0:0:
256,192,193045,1,0,0:0:0:0:
256,192,193115,1,0,0:0:0:0:
256,192,193186,1,0,0:0:0:0:
256,192,193328,1,2,0:0:0:0:
256,192,193469,1,0,0:0:0:0:
256,192,193540,1,0,0:0:0:0:
256,192,193611,1,2,0:0:0:0:
256,192,193681,1,2,0:0:0:0:
256,192,193752,1,0,0:0:0:0:
256,192,193894,1,0,0:0:0:0:
256,192,194035,1,2,0:0:0:0:
256,192,194177,1,0,0:0:0:0:
256,192,194247,1,2,0:0:0:0:
256,192,194318,1,0,0:0:0:0:
256,192,194460,1,2,0:0:0:0:
256,192,194601,1,2,0:0:0:0:
256,192,194672,1,2,0:0:0:0:
256,192,194743,1,2,0:0:0:0:
256,192,194813,1,2,0:0:0:0:
256,192,194884,5,0,0:0:0:0:
256,192,195167,1,2,0:0:0:0:
256,192,195309,1,0,0:0:0:0:
256,192,195450,1,2,0:0:0:0:
256,192,195521,1,2,0:0:0:0:
256,192,195592,1,0,0:0:0:0:
256,192,195733,1,2,0:0:0:0:
256,192,195875,1,0,0:0:0:0:
256,192,195946,1,2,0:0:0:0:
256,192,196016,1,0,0:0:0:0:
256,192,196158,1,0,0:0:0:0:
256,192,196299,1,2,0:0:0:0:
256,192,196441,1,0,0:0:0:0:
256,192,196512,1,0,0:0:0:0:
256,192,196582,1,2,0:0:0:0:
256,192,196653,1,2,0:0:0:0:
256,192,196724,1,0,0:0:0:0:
256,192,196865,1,2,0:0:0:0:
256,192,197007,1,0,0:0:0:0:
256,192,197078,1,0,0:0:0:0:
256,192,197148,1,0,0:0:0:0:
256,192,197431,1,2,0:0:0:0:
256,192,197573,1,0,0:0:0:0:
256,192,197714,1,2,0:0:0:0:
256,192,197785,1,2,0:0:0:0:
256,192,197856,1,0,0:0:0:0:
256,192,197997,1,2,0:0:0:0:
256,192,198139,1,0,0:0:0:0:
256,192,198210,1,0,0:0:0:0:
256,192,198280,1,2,0:0:0:0:
256,192,198422,1,0,0:0:0:0:
256,192,198563,1,2,0:0:0:0:
256,192,198705,1,2,0:0:0:0:
256,192,198776,1,0,0:0:0:0:
256,192,198846,1,2,0:0:0:0:
256,192,198917,1,2,0:0:0:0:
256,192,198988,1,0,0:0:0:0:
256,192,199059,1,0,0:0:0:0:
256,192,199129,1,2,0:0:0:0:
256,192,199271,1,2,0:0:0:0:
256,192,199342,1,2,0:0:0:0:
256,192,199413,5,0,0:0:0:0:
256,192,199696,1,2,0:0:0:0:
256,192,199837,1,0,0:0:0:0:
256,192,199979,1,2,0:0:0:0:
256,192,200049,1,2,0:0:0:0:
256,192,200120,1,0,0:0:0:0:
256,192,200262,1,2,0:0:0:0:
256,192,200403,1,0,0:0:0:0:
256,192,200474,1,2,0:0:0:0:
256,192,200545,1,0,0:0:0:0:
256,192,200686,1,0,0:0:0:0:
256,192,200828,1,2,0:0:0:0:
256,192,200969,1,0,0:0:0:0:
256,192,201040,1,0,0:0:0:0:
256,192,201111,1,2,0:0:0:0:
256,192,201181,1,2,0:0:0:0:
256,192,201252,1,0,0:0:0:0:
256,192,201394,1,2,0:0:0:0:
256,192,201535,1,0,0:0:0:0:
256,192,201606,1,0,0:0:0:0:
256,192,201677,1,0,0:0:0:0:
256,192,201818,1,0,0:0:0:0:
256,192,201960,1,2,0:0:0:0:
256,192,202101,1,0,0:0:0:0:
256,192,202243,1,2,0:0:0:0:
256,192,202313,1,2,0:0:0:0:
256,192,202384,1,0,0:0:0:0:
256,192,202526,1,2,0:0:0:0:
256,192,202667,1,0,0:0:0:0:
256,192,202738,1,0,0:0:0:0:
256,192,202809,1,2,0:0:0:0:
256,192,202950,1,0,0:0:0:0:
256,192,203092,1,2,0:0:0:0:
256,192,203233,1,2,0:0:0:0:
256,192,203304,1,0,0:0:0:0:
256,192,203375,1,2,0:0:0:0:
256,192,203446,1,2,0:0:0:0:
256,192,203516,1,0,0:0:0:0:
256,192,203587,1,0,0:0:0:0:
256,192,203658,1,2,0:0:0:0:
256,192,203729,1,2,0:0:0:0:
256,192,203799,1,2,0:0:0:0:
256,192,203941,5,4,0:0:0:0:
256,192,204224,1,2,0:0:0:0:
256,192,204507,1,0,0:0:0:0:
256,192,204790,1,6,0:0:0:0:
256,192,205073,1,2,0:0:0:0:
256,192,205356,1,0,0:0:0:0:
256,192,205639,1,4,0:0:0:0:
256,192,205922,1,2,0:0:0:0:
256,192,206205,1,2,0:0:0:0:
256,192,206488,1,6,0:0:0:0:
256,192,206771,1,2,0:0:0:0:
256,192,207054,1,2,0:0:0:0:
256,192,207196,1,2,0:0:0:0:
256,192,207337,1,4,0:0:0:0:
256,192,207620,1,2,0:0:0:0:
256,192,207903,1,0,0:0:0:0:
256,192,208045,1,0,0:0:0:0:
256,192,208186,1,6,0:0:0:0:
256,192,208469,1,0,0:0:0:0:
256,192,208752,1,2,0:0:0:0:
256,192,209035,1,4,0:0:0:0:
256,192,209318,1,2,0:0:0:0:
256,192,209460,1,2,0:0:0:0:
256,192,209601,1,0,0:0:0:0:
256,192,209884,1,6,0:0:0:0:
256,192,210167,1,0,0:0:0:0:
256,192,210450,1,2,0:0:0:0:
256,192,210592,1,2,0:0:0:0:
256,192,210733,5,6,0:0:0:0:
256,192,211016,1,2,0:0:0:0:
256,192,211299,1,0,0:0:0:0:
256,192,211441,1,0,0:0:0:0:
256,192,211582,1,2,0:0:0:0:
256,192,211865,1,0,0:0:0:0:
256,192,212148,1,2,0:0:0:0:
256,192,212290,1,0,0:0:0:0:
256,192,212573,1,0,0:0:0:0:
256,192,212714,1,2,0:0:0:0:
256,192,212856,1,0,0:0:0:0:
256,192,212997,1,0,0:0:0:0:
256,192,213280,1,2,0:0:0:0:
256,192,213563,1,0,0:0:0:0:
256,192,213705,1,0,0:0:0:0:
256,192,213846,1,2,0:0:0:0:
256,192,214129,1,0,0:0:0:0:
256,192,214413,1,2,0:0:0:0:
256,192,214554,1,0,0:0:0:0:
256,192,214837,1,0,0:0:0:0:
256,192,214979,1,2,0:0:0:0:
256,192,215120,1,2,0:0:0:0:
256,192,215191,1,2,0:0:0:0:
256,192,215262,1,0,0:0:0:0:
256,192,215545,1,2,0:0:0:0:
256,192,215828,1,0,0:0:0:0:
256,192,215969,1,0,0:0:0:0:
256,192,216111,1,2,0:0:0:0:
256,192,216394,1,0,0:0:0:0:
256,192,216677,1,2,0:0:0:0:
256,192,216818,1,0,0:0:0:0:
256,192,217101,5,0,0:0:0:0:
256,192,217243,1,2,0:0:0:0:
256,192,217384,1,0,0:0:0:0:
256,192,217455,1,0,0:0:0:0:
256,192,217526,1,0,0:0:0:0:
256,192,217809,1,2,0:0:0:0:
256,192,218092,1,0,0:0:0:0:
256,192,218233,1,0,0:0:0:0:
256,192,218375,1,2,0:0:0:0:
256,192,218658,1,2,0:0:0:0:
256,192,218799,1,0,0:0:0:0:
256,192,218941,1,2,0:0:0:0:
256,192,219082,1,0,0:0:0:0:
256,192,219224,1,2,0:0:0:0:
256,192,219295,1,2,0:0:0:0:
256,192,219365,1,2,0:0:0:0:
256,192,219436,1,2,0:0:0:0:
256,192,219507,1,0,0:0:0:0:
256,192,219648,1,2,0:0:0:0:
212,280,219790,5,4,0:0:0:0:
260,260,226150,5,0,0:0:0:0:
268,268,226775,1,0,0:0:0:0:
264,264,227400,1,0,0:0:0:0:
268,268,228025,1,0,0:0:0:0:
280,284,228129,1,0,0:0:0:0:
260,292,228233,1,8,0:0:0:0:
260,292,228337,1,0,0:0:0:0:
280,284,228441,1,0,0:0:0:0:
260,292,228545,1,8,0:0:0:0:
260,292,228650,1,0,0:0:0:0:
276,276,228806,1,8,0:0:0:0:
276,276,228884,1,8,0:0:0:0:
276,276,228962,1,0,0:0:0:0:
276,276,229118,1,8,0:0:0:0:
276,288,229275,1,0,0:0:0:0:
276,288,229431,1,8,0:0:0:0:
276,288,229509,1,8,0:0:0:0:
276,288,229587,1,0,0:0:0:0:
276,288,229743,1,8,0:0:0:0:
280,284,229900,1,0,0:0:0:0:
284,296,230056,1,8,0:0:0:0:
284,296,230134,1,8,0:0:0:0:
284,296,230212,1,0,0:0:0:0:
284,296,230368,1,8,0:0:0:0:
284,296,230525,1,0,0:0:0:0:
284,296,230681,1,8,0:0:0:0:
284,296,230759,1,8,0:0:0:0:
284,296,230837,1,0,0:0:0:0:
284,296,230993,1,8,0:0:0:0:
284,296,231150,1,0,0:0:0:0:
284,296,231306,1,8,0:0:0:0:
284,296,231384,1,8,0:0:0:0:
284,296,231462,1,0,0:0:0:0:
284,296,231618,1,8,0:0:0:0:
284,296,231775,1,0,0:0:0:0:
284,296,231931,1,8,0:0:0:0:
284,296,232009,1,8,0:0:0:0:
284,296,232087,1,0,0:0:0:0:
284,296,232243,1,8,0:0:0:0:
284,296,232400,1,0,0:0:0:0:
284,296,232556,1,8,0:0:0:0:
284,296,232634,1,8,0:0:0:0:
284,296,232712,1,0,0:0:0:0:
284,296,232868,1,8,0:0:0:0:
284,296,233025,1,0,0:0:0:0:
284,296,233181,1,8,0:0:0:0:
304,320,233337,1,8,0:0:0:0:
304,316,233415,1,8,0:0:0:0:
304,316,233493,1,8,0:0:0:0:
304,316,233571,1,8,0:0:0:0:
304,316,233650,1,0,0:0:0:0:
320,320,233806,1,0,0:0:0:0:
320,320,233884,1,0,0:0:0:0:
320,320,233962,1,8,0:0:0:0:
316,304,234118,1,0,0:0:0:0:
296,308,234275,1,8,0:0:0:0:
296,308,234353,1,8,0:0:0:0:
284,296,234431,1,0,0:0:0:0:
296,308,234509,1,0,0:0:0:0:
284,296,234587,1,8,0:0:0:0:
336,316,234665,1,0,0:0:0:0:
336,316,234743,1,8,0:0:0:0:
336,316,234821,1,8,0:0:0:0:
336,316,234900,1,0,0:0:0:0:
316,320,235056,1,8,0:0:0:0:
316,320,235134,1,8,0:0:0:0:
304,316,235212,1,0,0:0:0:0:
316,320,235368,1,8,0:0:0:0:
320,320,235525,1,8,0:0:0:0:
320,320,235603,1,8,0:0:0:0:
320,320,235681,1,0,0:0:0:0:
320,320,235759,1,0,0:0:0:0:
336,316,235837,1,8,0:0:0:0:
312,320,235915,1,0,0:0:0:0:
316,320,235993,1,8,0:0:0:0:
316,320,236071,1,8,0:0:0:0:
316,320,236150,1,0,0:0:0:0:
312,320,236306,1,8,0:0:0:0:
316,320,236384,1,8,0:0:0:0:
316,320,236462,1,0,0:0:0:0:
316,320,236618,1,8,0:0:0:0:
316,320,236775,1,0,0:0:0:0:
316,320,236853,1,0,0:0:0:0:
316,320,236931,1,8,0:0:0:0:
316,320,237087,1,8,0:0:0:0:
316,320,237165,1,8,0:0:0:0:
320,320,237243,1,0,0:0:0:0:
320,320,237321,1,0,0:0:0:0:
336,316,237400,1,0,0:0:0:0:
312,320,237478,1,8,0:0:0:0:
320,320,237556,1,8,0:0:0:0:
312,320,237634,1,8,0:0:0:0:
312,320,237712,1,0,0:0:0:0:
348,332,237868,1,8,0:0:0:0:
348,332,238025,1,0,0:0:0:0:
348,332,238103,1,0,0:0:0:0:
348,332,238181,1,8,0:0:0:0:
348,332,238259,1,8,0:0:0:0:
348,332,238337,1,0,0:0:0:0:
316,320,238415,1,8,0:0:0:0:
348,332,238493,1,8,0:0:0:0:
348,332,238571,1,8,0:0:0:0:
348,332,238650,1,0,0:0:0:0:
348,332,238728,1,0,0:0:0:0:
348,332,238806,1,8,0:0:0:0:
348,332,238884,1,8,0:0:0:0:
312,320,238962,1,0,0:0:0:0:
328,348,239118,1,8,0:0:0:0:
328,348,239196,1,8,0:0:0:0:
328,348,239275,1,0,0:0:0:0:
328,348,239353,1,0,0:0:0:0:
328,348,239431,1,8,0:0:0:0:
316,320,239587,1,8,0:0:0:0:
328,320,239665,1,0,0:0:0:0:
328,320,239743,1,8,0:0:0:0:
328,320,239821,1,8,0:0:0:0:
328,320,239900,1,0,0:0:0:0:
328,320,240056,1,8,0:0:0:0:
328,320,240134,1,8,0:0:0:0:
328,320,240212,1,0,0:0:0:0:
316,304,240368,1,8,0:0:0:0:
352,340,240525,1,0,0:0:0:0:
352,340,240603,1,0,0:0:0:0:
320,344,240681,1,8,0:0:0:0:
320,344,240759,1,8,0:0:0:0:
320,344,240837,1,0,0:0:0:0:
316,320,240915,1,8,0:0:0:0:
320,344,240993,1,8,0:0:0:0:
320,344,241071,1,8,0:0:0:0:
320,344,241150,1,0,0:0:0:0:
320,320,241306,1,8,0:0:0:0:
320,320,241384,1,8,0:0:0:0:
320,320,241462,1,0,0:0:0:0:
320,320,241618,1,8,0:0:0:0:
328,320,241775,1,0,0:0:0:0:
316,304,241853,1,0,0:0:0:0:
336,336,241931,1,8,0:0:0:0:
336,336,242009,1,8,0:0:0:0:
336,336,242087,1,0,0:0:0:0:
320,344,242165,1,0,0:0:0:0:
336,336,242243,1,8,0:0:0:0:
336,336,242321,1,8,0:0:0:0:
316,320,242400,1,8,0:0:0:0:
336,336,242478,1,0,0:0:0:0:
320,320,242556,1,8,0:0:0:0:
320,320,242634,1,8,0:0:0:0:
320,320,242712,1,0,0:0:0:0:
348,312,242868,1,8,0:0:0:0:
320,332,243025,1,0,0:0:0:0:
320,332,243181,1,8,0:0:0:0:
320,332,243259,1,8,0:0:0:0:
320,332,243337,1,0,0:0:0:0:
316,304,243415,1,8,0:0:0:0:
320,332,243493,1,8,0:0:0:0:
320,332,243571,1,8,0:0:0:0:
320,332,243650,1,0,0:0:0:0:
320,332,243806,1,8,0:0:0:0:
320,332,243884,1,8,0:0:0:0:
316,320,243962,1,0,0:0:0:0:
320,320,244040,1,8,0:0:0:0:
292,304,244118,1,0,0:0:0:0:
292,304,244196,1,0,0:0:0:0:
320,320,244275,1,8,0:0:0:0:
316,304,244353,1,8,0:0:0:0:
316,304,244431,1,0,0:0:0:0:
344,340,244587,1,8,0:0:0:0:
344,340,244665,1,8,0:0:0:0:
344,340,244743,1,8,0:0:0:0:
344,340,244821,1,8,0:0:0:0:
344,340,244900,1,0,0:0:0:0:
328,328,245056,1,8,0:0:0:0:
328,328,245134,1,8,0:0:0:0:
328,328,245212,1,0,0:0:0:0:
328,328,245368,1,8,0:0:0:0:
328,328,245525,1,0,0:0:0:0:
320,320,245603,1,8,0:0:0:0:
328,328,245681,1,8,0:0:0:0:
328,328,245759,1,8,0:0:0:0:
328,328,245837,1,0,0:0:0:0:
328,328,245915,1,0,0:0:0:0:
328,328,245993,1,8,0:0:0:0:
328,328,246071,1,8,0:0:0:0:
328,328,246150,1,0,0:0:0:0:
328,328,246306,1,8,0:0:0:0:
328,328,246384,1,8,0:0:0:0:
328,328,246462,1,0,0:0:0:0:
328,328,246618,1,8,0:0:0:0:
328,328,246775,1,0,0:0:0:0:
328,328,246853,1,8,0:0:0:0:
328,328,246931,1,0,0:0:0:0:
328,328,247009,1,0,0:0:0:0:
328,328,247087,1,8,0:0:0:0:
320,320,247165,1,8,0:0:0:0:
328,328,247243,1,8,0:0:0:0:
328,328,247321,1,8,0:0:0:0:
328,328,247400,1,0,0:0:0:0:
328,328,247556,1,8,0:0:0:0:
328,328,247634,1,8,0:0:0:0:
328,328,247712,1,0,0:0:0:0:
328,328,247868,1,8,0:0:0:0:
328,328,248025,1,8,0:0:0:0:
332,316,248181,1,0,0:0:0:0:
332,316,248337,1,8,0:0:0:0:
332,320,248415,1,8,0:0:0:0:
332,320,248493,1,0,0:0:0:0:
332,320,248571,1,0,0:0:0:0:
332,320,248650,1,8,0:0:0:0:
332,320,248806,1,8,0:0:0:0:
332,320,248884,1,8,0:0:0:0:
332,320,248962,1,0,0:0:0:0:
328,328,249040,1,8,0:0:0:0:
332,320,249118,1,8,0:0:0:0:
328,328,249275,1,8,0:0:0:0:
328,328,249353,1,8,0:0:0:0:
332,320,249431,1,8,0:0:0:0:
332,320,249509,1,8,0:0:0:0:
332,320,249587,1,0,0:0:0:0:
332,320,249743,1,8,0:0:0:0:
332,320,249821,1,8,0:0:0:0:
332,316,249900,1,0,0:0:0:0:
332,316,250056,1,8,0:0:0:0:
332,316,250134,1,8,0:0:0:0:
332,320,250212,1,0,0:0:0:0:
300,316,250368,1,8,0:0:0:0:
300,316,250525,1,0,0:0:0:0:
328,328,250603,1,0,0:0:0:0:
304,316,250681,1,8,0:0:0:0:
304,316,250759,1,8,0:0:0:0:
304,316,250837,1,0,0:0:0:0:
328,328,250915,1,8,0:0:0:0:
304,316,250993,1,8,0:0:0:0:
304,316,251071,1,8,0:0:0:0:
300,316,251150,1,0,0:0:0:0:
300,316,251306,1,8,0:0:0:0:
300,316,251384,1,8,0:0:0:0:
300,316,251462,1,0,0:0:0:0:
344,336,251618,1,8,0:0:0:0:
300,316,251775,1,8,0:0:0:0:
340,336,251853,1,0,0:0:0:0:
340,336,251931,1,8,0:0:0:0:
328,328,252009,1,0,0:0:0:0:
328,328,252087,1,8,0:0:0:0:
328,328,252165,1,8,0:0:0:0:
304,316,252243,1,0,0:0:0:0:
344,336,252400,1,0,0:0:0:0:
344,336,252478,1,0,0:0:0:0:
344,336,252556,1,8,0:0:0:0:
344,336,252634,1,8,0:0:0:0:
344,336,252712,1,0,0:0:0:0:
344,336,252868,1,8,0:0:0:0:
344,336,252946,1,8,0:0:0:0:
344,336,253025,1,0,0:0:0:0:
344,336,253181,1,8,0:0:0:0:
344,336,253337,1,0,0:0:0:0:
328,328,253415,1,8,0:0:0:0:
328,328,253493,1,8,0:0:0:0:
340,336,253571,1,8,0:0:0:0:
340,336,253650,1,0,0:0:0:0:
340,336,253806,1,8,0:0:0:0:
344,336,253884,1,8,0:0:0:0:
344,336,253962,1,0,0:0:0:0:
344,336,254118,1,8,0:0:0:0:
328,328,254275,1,8,0:0:0:0:
344,336,254353,1,0,0:0:0:0:
344,336,254431,1,8,0:0:0:0:
344,336,254509,1,8,0:0:0:0:
328,328,254587,1,0,0:0:0:0:
344,356,254743,1,8,0:0:0:0:
344,356,254821,1,8,0:0:0:0:
344,356,254900,1,0,0:0:0:0:
328,328,254978,1,8,0:0:0:0:
344,356,255056,1,8,0:0:0:0:
328,328,255134,1,8,0:0:0:0:
344,356,255212,1,0,0:0:0:0:
340,336,255368,1,8,0:0:0:0:
328,328,255446,1,8,0:0:0:0:
340,336,255525,1,0,0:0:0:0:
336,336,255681,1,8,0:0:0:0:
328,328,255759,1,0,0:0:0:0:
328,328,255837,1,8,0:0:0:0:
328,328,255915,1,8,0:0:0:0:
336,336,255993,1,8,0:0:0:0:
336,336,256071,1,8,0:0:0:0:
336,336,256150,1,0,0:0:0:0:
336,336,256306,1,8,0:0:0:0:
336,336,256384,1,8,0:0:0:0:
336,336,256462,1,0,0:0:0:0:
328,328,256540,1,0,0:0:0:0:
336,336,256618,1,8,0:0:0:0:
336,336,256775,1,0,0:0:0:0:
328,328,256853,1,0,0:0:0:0:
336,336,256931,1,8,0:0:0:0:
336,336,257009,1,8,0:0:0:0:
340,336,257087,1,0,0:0:0:0:
328,328,257165,1,8,0:0:0:0:
340,336,257243,1,8,0:0:0:0:
340,336,257321,1,8,0:0:0:0:
336,336,257400,1,0,0:0:0:0:
328,328,257478,1,8,0:0:0:0:
336,336,257556,1,8,0:0:0:0:
336,336,257634,1,8,0:0:0:0:
336,336,257712,1,0,0:0:0:0:
336,336,257868,1,8,0:0:0:0:
336,336,258025,1,0,0:0:0:0:
336,336,258103,1,0,0:0:0:0:
336,336,258181,1,8,0:0:0:0:
336,336,258259,1,8,0:0:0:0:
336,336,258337,1,8,0:0:0:0:
328,328,258415,1,0,0:0:0:0:
336,336,258493,1,8,0:0:0:0:
336,336,258571,1,8,0:0:0:0:
336,336,258650,1,0,0:0:0:0:
336,336,258806,1,8,0:0:0:0:
340,336,258884,1,8,0:0:0:0:
340,336,258962,1,0,0:0:0:0:
340,336,259118,1,8,0:0:0:0:
336,336,259196,1,8,0:0:0:0:
336,336,259275,1,0,0:0:0:0:
336,336,259431,1,8,0:0:0:0:
336,336,259587,1,0,0:0:0:0:
336,336,259665,1,8,0:0:0:0:
336,336,259743,1,8,0:0:0:0:
336,336,259821,1,8,0:0:0:0:
336,336,259900,1,0,0:0:0:0:
336,336,259978,1,0,0:0:0:0:
336,336,260056,1,8,0:0:0:0:
336,336,260134,1,8,0:0:0:0:
320,312,260212,1,0,0:0:0:0:
328,328,260290,1,0,0:0:0:0:
336,336,260368,1,8,0:0:0:0:
336,336,260446,1,8,0:0:0:0:
336,336,260525,1,0,0:0:0:0:
340,336,260681,1,8,0:0:0:0:
340,336,260759,1,8,0:0:0:0:
340,336,260837,1,0,0:0:0:0:
340,336,260915,1,0,0:0:0:0:
336,336,260993,1,8,0:0:0:0:
336,336,261071,1,8,0:0:0:0:
336,336,261150,1,0,0:0:0:0:
336,336,261306,1,8,0:0:0:0:
336,336,261384,1,8,0:0:0:0:
336,336,261462,1,0,0:0:0:0:
336,336,261618,1,8,0:0:0:0:
336,336,261696,1,8,0:0:0:0:
336,336,261775,1,0,0:0:0:0:
336,336,261931,1,8,0:0:0:0:
336,336,262009,1,8,0:0:0:0:
336,336,262087,1,0,0:0:0:0:
304,336,262165,1,8,0:0:0:0:
336,336,262243,1,8,0:0:0:0:
336,336,262321,1,8,0:0:0:0:
336,336,262400,1,0,0:0:0:0:
340,336,262478,1,0,0:0:0:0:
340,336,262556,1,8,0:0:0:0:
340,336,262634,1,8,0:0:0:0:
340,336,262712,1,0,0:0:0:0:
336,336,262868,1,8,0:0:0:0:
336,336,262946,1,8,0:0:0:0:
336,336,263025,1,0,0:0:0:0:
336,336,263181,1,8,0:0:0:0:
336,336,263259,1,8,0:0:0:0:
336,336,263337,1,0,0:0:0:0:
336,336,263493,1,8,0:0:0:0:
336,336,263571,1,8,0:0:0:0:
336,336,263650,1,0,0:0:0:0:
348,316,263806,1,8,0:0:0:0:
348,316,263962,1,0,0:0:0:0:
348,316,264118,1,8,0:0:0:0:
348,316,264275,1,0,0:0:0:0:
348,316,264353,1,0,0:0:0:0:
348,316,264431,1,8,0:0:0:0:
348,316,264587,1,0,0:0:0:0:
348,316,264743,1,8,0:0:0:0:
348,316,264821,1,0,0:0:0:0:
348,316,264900,1,0,0:0:0:0:
348,316,264978,1,0,0:0:0:0:
348,316,265056,1,8,0:0:0:0:
348,316,265212,1,0,0:0:0:0:
348,316,265290,1,0,0:0:0:0:
348,316,265368,1,8,0:0:0:0:
344,328,265525,1,0,0:0:0:0:
344,328,265681,1,8,0:0:0:0:
344,328,265837,1,0,0:0:0:0:
344,328,265915,1,0,0:0:0:0:
344,328,265993,1,8,0:0:0:0:
320,312,266150,1,0,0:0:0:0:
320,316,266306,1,8,0:0:0:0:
320,316,266462,1,8,0:0:0:0:
320,316,266618,1,8,0:0:0:0:
320,316,266696,1,8,0:0:0:0:
324,316,266775,1,8,0:0:0:0:
324,316,266931,1,8,0:0:0:0:
324,316,267087,1,0,0:0:0:0:
344,328,267243,1,0,0:0:0:0:
344,328,267321,1,0,0:0:0:0:
324,316,267400,1,0,0:0:0:0:
324,316,267556,1,0,0:0:0:0:
324,316,267712,1,0,0:0:0:0:
320,312,267868,1,0,0:0:0:0:
320,316,267946,1,0,0:0:0:0:
320,316,268025,1,0,0:0:0:0:
320,316,268181,1,0,0:0:0:0:
320,316,268337,1,0,0:0:0:0:
324,316,268493,1,0,0:0:0:0:
324,316,268650,1,0,0:0:0:0:
324,316,268806,1,8,0:0:0:0:
324,316,268962,1,0,0:0:0:0:
324,316,269118,1,8,0:0:0:0:
324,316,269275,1,0,0:0:0:0:
324,316,269353,1,0,0:0:0:0:
324,316,269431,1,8,0:0:0:0:
320,312,269587,1,0,0:0:0:0:
320,316,269743,1,8,0:0:0:0:
320,316,269821,1,0,0:0:0:0:
320,316,269900,1,0,0:0:0:0:
320,316,270056,1,8,0:0:0:0:
324,316,270212,1,0,0:0:0:0:
324,316,270290,1,0,0:0:0:0:
324,316,270368,1,8,0:0:0:0:
324,316,270525,1,0,0:0:0:0:
324,316,270681,1,8,0:0:0:0:
324,316,270837,1,0,0:0:0:0:
324,316,270993,1,8,0:0:0:0:
324,316,271150,1,0,0:0:0:0:
320,312,271306,1,8,0:0:0:0:
320,316,271462,1,0,0:0:0:0:
320,316,271618,1,8,0:0:0:0:
320,316,271775,1,0,0:0:0:0:
324,316,271931,1,8,0:0:0:0:
324,316,272087,1,0,0:0:0:0:
324,316,272243,1,8,0:0:0:0:
324,316,272400,1,0,0:0:0:0:
324,316,272478,1,0,0:0:0:0:
324,316,272556,1,8,0:0:0:0:
312,304,272712,1,0,0:0:0:0:
312,324,272868,1,8,0:0:0:0:
312,324,273025,1,0,0:0:0:0:
312,324,273181,1,8,0:0:0:0:
312,324,273337,1,0,0:0:0:0:
308,304,273441,1,0,0:0:0:0:
308,304,273545,1,0,0:0:0:0:
308,304,273650,1,0,0:0:0:0:
308,312,273806,1,8,0:0:0:0:
308,312,273962,1,0,0:0:0:0:
308,312,274040,1,0,0:0:0:0:
308,312,274118,1,8,0:0:0:0:
308,312,274275,1,0,0:0:0:0:
308,312,274431,1,8,0:0:0:0:
308,312,274587,1,0,0:0:0:0:
312,324,274665,1,8,0:0:0:0:
308,312,274743,1,8,0:0:0:0:
312,324,274821,1,8,0:0:0:0:
308,312,274900,1,0,0:0:0:0:
308,312,275056,1,8,0:0:0:0:
308,304,275134,1,8,0:0:0:0:
308,312,275212,1,0,0:0:0:0:
308,312,275290,1,0,0:0:0:0:
308,312,275368,1,8,0:0:0:0:
308,312,275525,1,0,0:0:0:0:
308,312,275603,1,0,0:0:0:0:
308,312,275681,1,8,0:0:0:0:
308,312,275759,1,8,0:0:0:0:
296,288,275837,1,0,0:0:0:0:
296,288,275993,1,8,0:0:0:0:
308,312,276071,1,8,0:0:0:0:
296,288,276150,1,0,0:0:0:0:
296,288,276228,1,0,0:0:0:0:
296,288,276306,1,8,0:0:0:0:
296,288,276384,1,0,0:0:0:0:
296,288,276462,1,0,0:0:0:0:
296,288,276618,1,8,0:0:0:0:
296,288,276775,1,0,0:0:0:0:
296,288,276853,1,0,0:0:0:0:
296,288,276931,1,8,0:0:0:0:
308,312,277009,1,0,0:0:0:0:
308,312,277087,1,8,0:0:0:0:
308,312,277165,1,8,0:0:0:0:
300,304,277243,1,8,0:0:0:0:
308,312,277321,1,8,0:0:0:0:
300,304,277400,1,0,0:0:0:0:
300,304,277556,1,8,0:0:0:0:
308,312,277712,1,8,0:0:0:0:
300,304,277790,1,0,0:0:0:0:
300,304,277868,1,8,0:0:0:0:
308,312,277946,1,8,0:0:0:0:
300,304,278025,1,0,0:0:0:0:
308,312,278103,1,0,0:0:0:0:
300,304,278181,1,8,0:0:0:0:
308,312,278337,1,8,0:0:0:0:
304,288,278415,1,0,0:0:0:0:
304,288,278493,1,8,0:0:0:0:
308,312,278571,1,0,0:0:0:0:
308,312,278650,1,8,0:0:0:0:
304,288,278806,1,8,0:0:0:0:
304,288,278962,1,0,0:0:0:0:
304,288,279040,1,0,0:0:0:0:
304,288,279118,1,8,0:0:0:0:
308,312,279196,1,8,0:0:0:0:
308,312,279275,1,0,0:0:0:0:
308,312,279431,1,8,0:0:0:0:
308,312,279587,1,0,0:0:0:0:
308,312,279665,1,8,0:0:0:0:
308,312,279743,1,8,0:0:0:0:
308,312,279821,1,8,0:0:0:0:
308,312,279900,1,0,0:0:0:0:
308,312,280056,1,8,0:0:0:0:
308,312,280134,1,8,0:0:0:0:
308,312,280212,1,0,0:0:0:0:
308,312,280290,1,0,0:0:0:0:
308,312,280368,1,8,0:0:0:0:
308,312,280525,1,0,0:0:0:0:
308,312,280681,1,8,0:0:0:0:
308,312,280837,1,0,0:0:0:0:
308,312,280915,1,0,0:0:0:0:
308,312,280993,1,8,0:0:0:0:
308,312,281071,1,0,0:0:0:0:
308,312,281150,1,8,0:0:0:0:
308,312,281306,1,8,0:0:0:0:
308,312,281462,1,0,0:0:0:0:
308,312,281540,1,0,0:0:0:0:
308,312,281618,1,8,0:0:0:0:
308,312,281775,1,0,0:0:0:0:
308,312,281931,1,8,0:0:0:0:
296,312,282087,1,0,0:0:0:0:
308,312,282165,1,8,0:0:0:0:
296,312,282243,1,8,0:0:0:0:
308,312,282321,1,8,0:0:0:0:
296,312,282400,1,0,0:0:0:0:
296,312,282556,1,8,0:0:0:0:
296,312,282712,1,0,0:0:0:0:
296,312,282868,1,8,0:0:0:0:
296,312,282946,1,8,0:0:0:0:
296,312,283025,1,0,0:0:0:0:
296,312,283181,1,8,0:0:0:0:
296,312,283337,1,0,0:0:0:0:
296,312,283415,1,0,0:0:0:0:
296,312,283493,1,8,0:0:0:0:
296,312,283571,1,0,0:0:0:0:
296,312,283650,1,8,0:0:0:0:
308,312,283728,1,8,0:0:0:0:
296,312,283806,1,8,0:0:0:0:
296,312,283884,1,8,0:0:0:0:
296,312,283962,1,0,0:0:0:0:
296,312,284118,1,8,0:0:0:0:
296,312,284196,1,8,0:0:0:0:
296,312,284275,1,0,0:0:0:0:
296,312,284353,1,0,0:0:0:0:
296,312,284431,1,8,0:0:0:0:
296,312,284587,1,8,0:0:0:0:
296,312,284665,1,8,0:0:0:0:
296,312,284743,1,8,0:0:0:0:
296,312,284821,1,8,0:0:0:0:
296,312,284900,1,0,0:0:0:0:
296,312,285056,1,8,0:0:0:0:
296,312,285212,1,0,0:0:0:0:
308,312,285290,1,0,0:0:0:0:
288,296,285368,1,8,0:0:0:0:
288,296,285446,1,8,0:0:0:0:
288,296,285525,1,0,0:0:0:0:
288,296,285681,1,8,0:0:0:0:
288,296,285759,1,8,0:0:0:0:
288,296,285837,1,0,0:0:0:0:
288,296,285993,1,8,0:0:0:0:
288,296,286071,1,8,0:0:0:0:
288,296,286150,1,0,0:0:0:0:
288,296,286228,1,0,0:0:0:0:
288,296,286306,1,8,0:0:0:0:
288,296,286384,1,8,0:0:0:0:
264,288,286462,1,0,0:0:0:0:
296,312,286618,1,8,0:0:0:0:
296,312,286696,1,0,0:0:0:0:
288,296,286775,1,0,0:0:0:0:
288,296,286853,1,0,0:0:0:0:
288,296,286931,1,8,0:0:0:0:
288,296,287087,1,0,0:0:0:0:
288,296,287165,1,8,0:0:0:0:
288,296,287243,1,8,0:0:0:0:
288,296,287321,1,8,0:0:0:0:
288,296,287400,1,0,0:0:0:0:
288,296,287478,1,0,0:0:0:0:
288,288,287556,1,8,0:0:0:0:
288,296,287634,1,8,0:0:0:0:
288,288,287712,1,0,0:0:0:0:
288,288,287868,1,8,0:0:0:0:
288,288,287946,1,8,0:0:0:0:
288,288,288025,1,0,0:0:0:0:
288,288,288103,1,8,0:0:0:0:
288,288,288181,1,8,0:0:0:0:
288,288,288259,1,8,0:0:0:0:
288,288,288337,1,0,0:0:0:0:
288,288,288415,1,0,0:0:0:0:
288,288,288493,1,8,0:0:0:0:
288,296,288571,1,8,0:0:0:0:
284,288,288650,1,0,0:0:0:0:
284,288,288806,1,8,0:0:0:0:
284,288,288962,1,0,0:0:0:0:
284,288,289118,1,8,0:0:0:0:
300,296,289196,1,8,0:0:0:0:
300,296,289275,1,0,0:0:0:0:
288,288,289353,1,0,0:0:0:0:
288,288,289431,1,8,0:0:0:0:
288,288,289587,1,8,0:0:0:0:
300,296,289665,1,0,0:0:0:0:
300,296,289743,1,8,0:0:0:0:
296,312,289821,1,8,0:0:0:0:
288,288,289900,1,0,0:0:0:0:
300,296,290056,1,8,0:0:0:0:
288,296,290134,1,0,0:0:0:0:
284,288,290212,1,8,0:0:0:0:
284,288,290290,1,0,0:0:0:0:
300,296,290368,1,8,0:0:0:0:
300,296,290446,1,8,0:0:0:0:
300,296,290525,1,0,0:0:0:0:
304,288,290681,1,8,0:0:0:0:
300,296,290759,1,8,0:0:0:0:
304,288,290837,1,0,0:0:0:0:
304,288,290915,1,0,0:0:0:0:
304,288,290993,1,8,0:0:0:0:
304,288,291071,1,0,0:0:0:0:
304,288,291150,1,0,0:0:0:0:
304,288,291306,1,8,0:0:0:0:
304,288,291462,1,0,0:0:0:0:
304,288,291618,1,8,0:0:0:0:
304,288,291696,1,8,0:0:0:0:
304,288,291775,1,0,0:0:0:0:
300,296,291853,1,8,0:0:0:0:
304,288,291931,1,8,0:0:0:0:
304,288,292087,1,0,0:0:0:0:
304,288,292165,1,0,0:0:0:0:
304,288,292243,1,8,0:0:0:0:
304,288,292321,1,0,0:0:0:0:
304,288,292400,1,0,0:0:0:0:
304,288,292556,1,8,0:0:0:0:
304,288,292712,1,0,0:0:0:0:
304,288,292790,1,0,0:0:0:0:
304,288,292868,1,8,0:0:0:0:
280,276,293025,1,0,0:0:0:0:
304,288,293181,1,8,0:0:0:0:
304,288,293337,1,0,0:0:0:0:
304,288,293415,1,0,0:0:0:0:
280,276,293493,1,8,0:0:0:0:
280,276,293571,1,0,0:0:0:0:
280,276,293650,1,0,0:0:0:0:
284,292,293728,1,8,0:0:0:0:
284,292,293806,1,8,0:0:0:0:
284,292,293884,1,8,0:0:0:0:
284,292,293962,1,0,0:0:0:0:
284,292,294118,1,8,0:0:0:0:
284,292,294275,1,0,0:0:0:0:
284,292,294353,1,0,0:0:0:0:
284,292,294431,1,8,0:0:0:0:
284,292,294509,1,0,0:0:0:0:
284,292,294587,1,8,0:0:0:0:
284,292,294665,1,0,0:0:0:0:
284,292,294743,1,8,0:0:0:0:
284,292,294821,1,8,0:0:0:0:
284,292,294900,1,0,0:0:0:0:
284,292,295056,1,8,0:0:0:0:
284,292,295134,1,8,0:0:0:0:
284,292,295212,1,0,0:0:0:0:
284,292,295290,1,8,0:0:0:0:
284,292,295368,1,8,0:0:0:0:
284,292,295446,1,8,0:0:0:0:
284,292,295525,1,0,0:0:0:0:
284,292,295681,1,8,0:0:0:0:
284,292,295759,1,8,0:0:0:0:
284,292,295837,1,0,0:0:0:0:
284,292,295915,1,8,0:0:0:0:
284,292,295993,1,8,0:0:0:0:
284,292,296071,1,8,0:0:0:0:
272,264,296150,1,0,0:0:0:0:
284,292,296228,1,0,0:0:0:0:
284,292,296306,1,8,0:0:0:0:
284,292,296384,1,8,0:0:0:0:
284,292,296462,1,0,0:0:0:0:
284,292,296618,1,8,0:0:0:0:
284,292,296696,1,8,0:0:0:0:
284,292,296775,1,0,0:0:0:0:
284,292,296931,1,8,0:0:0:0:
284,292,297087,1,0,0:0:0:0:
284,292,297165,1,0,0:0:0:0:
284,292,297243,1,8,0:0:0:0:
284,292,297321,1,8,0:0:0:0:
284,292,297400,1,0,0:0:0:0:
284,292,297556,1,8,0:0:0:0:
284,292,297634,1,8,0:0:0:0:
284,292,297712,1,0,0:0:0:0:
284,292,297790,1,0,0:0:0:0:
284,292,297868,1,8,0:0:0:0:
288,320,298025,1,4,0:0:0:0:
288,320,298337,1,6,0:0:0:0:
292,320,298650,1,4,0:0:0:0:
292,320,298962,1,0,0:0:0:0:
288,332,299118,1,8,0:0:0:0:
288,332,299196,1,8,0:0:0:0:
288,332,299275,1,0,0:0:0:0:
288,332,299431,1,8,0:0:0:0:
288,332,299587,1,0,0:0:0:0:
300,324,299743,1,8,0:0:0:0:
300,324,299900,1,0,0:0:0:0:
300,324,300056,1,8,0:0:0:0:
300,324,300212,1,0,0:0:0:0:
304,320,300368,1,8,0:0:0:0:
304,320,300525,1,0,0:0:0:0:
304,320,300681,1,8,0:0:0:0:
304,320,300837,1,0,0:0:0:0:
304,320,300993,1,8,0:0:0:0:
304,320,301150,1,0,0:0:0:0:
304,320,301306,1,8,0:0:0:0:
272,312,301384,1,8,0:0:0:0:
272,312,301462,1,0,0:0:0:0:
304,320,301618,1,8,0:0:0:0:
304,320,301696,1,8,0:0:0:0:
304,320,301775,1,0,0:0:0:0:
304,320,301931,1,8,0:0:0:0:
304,320,302087,1,0,0:0:0:0:
304,320,302165,1,0,0:0:0:0:
304,320,302243,1,8,0:0:0:0:
272,312,302321,1,8,0:0:0:0:
304,320,302400,1,0,0:0:0:0:
300,328,302556,1,8,0:0:0:0:
300,328,302634,1,8,0:0:0:0:
300,328,302712,1,0,0:0:0:0:
300,328,302868,1,8,0:0:0:0:
300,328,302946,1,8,0:0:0:0:
300,328,303025,1,0,0:0:0:0:
300,328,303103,1,0,0:0:0:0:
300,328,303181,1,8,0:0:0:0:
300,328,303259,1,8,0:0:0:0:
300,328,303337,1,0,0:0:0:0:
300,328,303493,1,8,0:0:0:0:
300,328,303571,1,8,0:0:0:0:
300,328,303650,1,0,0:0:0:0:
296,320,303806,1,8,0:0:0:0:
300,328,303962,1,0,0:0:0:0:
296,320,304118,1,8,0:0:0:0:
300,328,304196,1,8,0:0:0:0:
300,328,304275,1,0,0:0:0:0:
296,320,304431,1,8,0:0:0:0:
300,328,304587,1,0,0:0:0:0:
300,328,304665,1,0,0:0:0:0:
296,320,304743,1,8,0:0:0:0:
300,328,304900,1,0,0:0:0:0:
296,320,305056,1,8,0:0:0:0:
308,328,305134,1,8,0:0:0:0:
308,328,305212,1,0,0:0:0:0:
296,320,305368,1,8,0:0:0:0:
308,328,305446,1,8,0:0:0:0:
292,320,305525,1,0,0:0:0:0:
296,320,305681,1,8,0:0:0:0:
308,328,305837,1,0,0:0:0:0:
308,328,305915,1,0,0:0:0:0:
296,320,305993,1,8,0:0:0:0:
292,320,306150,1,0,0:0:0:0:
308,328,306228,1,0,0:0:0:0:
296,320,306306,1,8,0:0:0:0:
292,320,306462,1,0,0:0:0:0:
296,320,306618,1,8,0:0:0:0:
308,328,306696,1,8,0:0:0:0:
292,320,306775,1,0,0:0:0:0:
272,308,306931,1,8,0:0:0:0:
292,320,307087,1,0,0:0:0:0:
308,328,307165,1,0,0:0:0:0:
272,308,307243,1,8,0:0:0:0:
292,320,307400,1,0,0:0:0:0:
308,328,307478,1,0,0:0:0:0:
272,308,307556,1,8,0:0:0:0:
308,328,307634,1,8,0:0:0:0:
292,320,307712,1,0,0:0:0:0:
272,308,307868,1,8,0:0:0:0:
292,320,308025,1,0,0:0:0:0:
296,320,308103,1,0,0:0:0:0:
272,308,308181,1,8,0:0:0:0:
292,320,308337,5,0,0:0:0:0:
292,320,308415,1,0,0:0:0:0:
292,320,308493,1,0,0:0:0:0:
204,160,308650,5,12,0:0:0:0:
136,88,315150,5,4,0:0:0:0:
396,268,315494,1,8,0:0:0:0:
128,312,315724,1,0,0:0:0:0:
128,312,315839,1,0,0:0:0:0:
128,312,316069,1,0,0:0:0:0:
320,288,316184,1,8,0:0:0:0:
320,288,316529,1,8,0:0:0:0:
144,288,316644,1,0,0:0:0:0:
320,288,316759,1,8,0:0:0:0:
120,288,317218,1,0,0:0:0:0:
128,296,317448,1,0,0:0:0:0:
352,288,317563,1,8,0:0:0:0:
124,144,317908,1,4,0:0:0:0:
328,284,318253,1,8,0:0:0:0:
116,308,318483,1,0,0:0:0:0:
116,308,318598,1,0,0:0:0:0:
112,308,318828,1,0,0:0:0:0:
324,296,318943,1,8,0:0:0:0:
324,296,319287,1,8,0:0:0:0:
320,304,319402,1,8,0:0:0:0:
384,308,319517,1,8,0:0:0:0:
432,328,319977,1,8,0:0:0:0:
384,316,320092,1,8,0:0:0:0:
344,284,320207,1,8,0:0:0:0:
116,296,320322,1,0,0:0:0:0:
128,296,320667,1,0,0:0:0:0:
128,296,320782,1,0,0:0:0:0:
128,296,320897,1,0,0:0:0:0:
508,332,321012,1,8,0:0:0:0:
376,292,321241,1,8,0:0:0:0:
144,304,321356,1,0,0:0:0:0:
144,300,321471,1,0,0:0:0:0:
144,300,321586,1,0,0:0:0:0:
376,300,321701,1,8,0:0:0:0:
192,300,321816,1,0,0:0:0:0:
424,304,321931,1,8,0:0:0:0:
216,292,322046,1,0,0:0:0:0:
216,292,322161,1,0,0:0:0:0:
216,292,322276,1,0,0:0:0:0:
376,300,322391,1,8,0:0:0:0:
404,264,322621,1,8,0:0:0:0:
172,276,322736,1,0,0:0:0:0:
172,276,322851,1,0,0:0:0:0:
100,272,322966,1,0,0:0:0:0:
408,288,323081,1,8,0:0:0:0:
176,268,323425,1,0,0:0:0:0:
176,268,323540,1,0,0:0:0:0:
176,268,323655,1,0,0:0:0:0:
368,268,323770,1,8,0:0:0:0:
372,280,324000,1,8,0:0:0:0:
168,260,324115,1,0,0:0:0:0:
168,260,324230,1,0,0:0:0:0:
168,260,324345,1,0,0:0:0:0:
368,260,324460,1,8,0:0:0:0:
172,248,324575,1,0,0:0:0:0:
340,248,324690,1,8,0:0:0:0:
208,248,324805,1,0,0:0:0:0:
204,248,324920,1,0,0:0:0:0:
204,248,325035,1,0,0:0:0:0:
376,248,325150,1,8,0:0:0:0:
372,284,325379,1,8,0:0:0:0:
168,264,325494,1,0,0:0:0:0:
168,260,325609,1,0,0:0:0:0:
176,268,325724,1,0,0:0:0:0:
368,248,325839,1,8,0:0:0:0:
368,248,325897,1,8,0:0:0:0:
368,248,325954,1,8,0:0:0:0:
176,268,326012,1,0,0:0:0:0:
392,272,326184,1,8,0:0:0:0:
184,268,326299,1,0,0:0:0:0:
184,268,326414,1,0,0:0:0:0:
392,272,326529,1,8,0:0:0:0:
368,248,326644,1,8,0:0:0:0:
156,288,326759,1,0,0:0:0:0:
384,268,326874,1,8,0:0:0:0:
132,252,326989,1,0,0:0:0:0:
132,256,327104,1,0,0:0:0:0:
392,272,327218,1,8,0:0:0:0:
420,288,327333,1,8,0:0:0:0:
132,252,327448,1,0,0:0:0:0:
420,288,327563,1,8,0:0:0:0:
160,280,327678,1,0,0:0:0:0:
148,264,327793,1,0,0:0:0:0:
392,272,327908,1,8,0:0:0:0:
156,288,328023,1,0,0:0:0:0:
148,264,328138,1,0,0:0:0:0:
384,268,328253,1,8,0:0:0:0:
148,264,328368,1,0,0:0:0:0:
424,280,328483,1,8,0:0:0:0:
384,264,328598,1,8,0:0:0:0:
140,256,328713,1,0,0:0:0:0:
96,260,328828,1,0,0:0:0:0:
392,272,328943,1,8,0:0:0:0:
184,268,329058,1,0,0:0:0:0:
184,268,329173,1,0,0:0:0:0:
392,272,329288,1,8,0:0:0:0:
416,252,329403,1,8,0:0:0:0:
156,288,329518,1,0,0:0:0:0:
384,268,329633,1,8,0:0:0:0:
132,252,329748,1,0,0:0:0:0:
132,256,329863,1,0,0:0:0:0:
392,272,329977,1,8,0:0:0:0:
420,288,330092,1,8,0:0:0:0:
132,252,330207,1,0,0:0:0:0:
420,288,330322,1,8,0:0:0:0:
160,280,330437,1,0,0:0:0:0:
148,264,330552,1,0,0:0:0:0:
392,272,330667,1,8,0:0:0:0:
156,288,330782,1,0,0:0:0:0:
148,264,330897,1,0,0:0:0:0:
384,268,331012,1,8,0:0:0:0:
148,264,331127,1,0,0:0:0:0:
364,260,331242,1,8,0:0:0:0:
128,284,331356,1,0,0:0:0:0:
128,284,331414,1,0,0:0:0:0:
128,284,331471,1,0,0:0:0:0:
128,284,331529,1,0,0:0:0:0:
364,248,331701,1,0,0:0:0:0:
208,288,331816,1,0,0:0:0:0:
208,288,331931,1,0,0:0:0:0:
364,280,332046,1,8,0:0:0:0:
368,280,332276,1,8,0:0:0:0:
136,296,332391,1,0,0:0:0:0:
136,296,332506,1,0,0:0:0:0:
136,296,332621,1,0,0:0:0:0:
316,272,332736,1,8,0:0:0:0:
104,280,332851,1,0,0:0:0:0:
316,272,332966,1,8,0:0:0:0:
144,284,333081,1,0,0:0:0:0:
144,284,333195,1,0,0:0:0:0:
144,284,333310,1,0,0:0:0:0:
392,280,333425,1,8,0:0:0:0:
396,272,333655,1,8,0:0:0:0:
136,280,333770,1,0,0:0:0:0:
136,280,333885,1,0,0:0:0:0:
136,280,334000,1,0,0:0:0:0:
444,292,334115,1,8,0:0:0:0:
144,284,334460,1,0,0:0:0:0:
144,284,334575,1,0,0:0:0:0:
144,284,334690,1,0,0:0:0:0:
324,280,334805,1,8,0:0:0:0:
416,292,335035,1,8,0:0:0:0:
200,280,335150,1,0,0:0:0:0:
200,280,335264,1,0,0:0:0:0:
200,280,335379,1,0,0:0:0:0:
384,292,335494,1,8,0:0:0:0:
168,300,335609,1,0,0:0:0:0:
372,288,335724,1,8,0:0:0:0:
136,304,335839,1,0,0:0:0:0:
136,304,335954,1,0,0:0:0:0:
136,304,336069,1,0,0:0:0:0:
372,288,336184,1,8,0:0:0:0:
372,288,336414,1,8,0:0:0:0:
172,288,336529,1,0,0:0:0:0:
172,288,336644,1,0,0:0:0:0:
172,288,336759,1,0,0:0:0:0:
376,288,336874,1,8,0:0:0:0:
360,296,336931,1,8,0:0:0:0:
360,296,336989,1,8,0:0:0:0:
180,312,337046,1,0,0:0:0:0:
392,272,337218,1,8,0:0:0:0:
184,268,337333,1,0,0:0:0:0:
184,268,337448,1,0,0:0:0:0:
392,272,337563,1,8,0:0:0:0:
348,284,337678,1,8,0:0:0:0:
156,288,337793,1,0,0:0:0:0:
376,288,337908,1,8,0:0:0:0:
400,296,338023,1,8,0:0:0:0:
132,256,338138,1,0,0:0:0:0:
188,288,338252,1,0,0:0:0:0:
396,312,338367,1,8,0:0:0:0:
132,252,338482,1,0,0:0:0:0:
420,288,338597,1,8,0:0:0:0:
160,280,338712,1,0,0:0:0:0:
148,264,338827,1,0,0:0:0:0:
392,272,338942,1,8,0:0:0:0:
128,268,339057,1,0,0:0:0:0:
148,264,339172,1,0,0:0:0:0:
384,268,339287,1,8,0:0:0:0:
148,264,339402,1,0,0:0:0:0:
140,256,339517,1,0,0:0:0:0:
384,264,339632,1,8,0:0:0:0:
416,276,339747,1,8,0:0:0:0:
96,260,339862,1,0,0:0:0:0:
392,272,339977,1,8,0:0:0:0:
184,268,340092,1,0,0:0:0:0:
184,268,340207,1,0,0:0:0:0:
392,272,340322,1,8,0:0:0:0:
464,280,340437,1,8,0:0:0:0:
156,288,340552,1,0,0:0:0:0:
384,268,340667,1,8,0:0:0:0:
132,252,340782,1,0,0:0:0:0:
132,256,340897,1,0,0:0:0:0:
392,272,341011,1,8,0:0:0:0:
440,272,341126,1,8,0:0:0:0:
128,284,341241,1,0,0:0:0:0:
380,272,341356,1,8,0:0:0:0:
172,264,341471,1,0,0:0:0:0:
172,264,341586,1,0,0:0:0:0:
408,228,341701,1,8,0:0:0:0:
232,256,341816,1,0,0:0:0:0:
216,256,341931,1,0,0:0:0:0:
216,256,342046,1,0,0:0:0:0:
216,256,342161,1,0,0:0:0:0:
216,256,342276,1,0,0:0:0:0:
440,256,342391,1,8,0:0:0:0:
356,264,342448,1,8,0:0:0:0:
356,264,342506,1,8,0:0:0:0:
356,264,342563,1,8,0:0:0:0:
172,272,342736,1,0,0:0:0:0:
172,272,342966,1,0,0:0:0:0:
360,248,343081,1,8,0:0:0:0:
212,264,343310,1,0,0:0:0:0:
212,264,343425,1,0,0:0:0:0:
212,264,343540,1,0,0:0:0:0:
212,264,343655,1,0,0:0:0:0:
344,252,343770,1,8,0:0:0:0:
208,268,344000,1,0,0:0:0:0:
208,268,344115,1,0,0:0:0:0:
208,268,344345,1,0,0:0:0:0:
340,264,344460,1,8,0:0:0:0:
196,292,344690,1,0,0:0:0:0:
240,288,344805,1,0,0:0:0:0:
240,288,344920,1,0,0:0:0:0:
240,288,345035,1,0,0:0:0:0:
348,264,345150,1,8,0:0:0:0:
160,296,345379,1,0,0:0:0:0:
160,296,345494,1,0,0:0:0:0:
160,296,345724,1,0,0:0:0:0:
452,288,345839,1,8,0:0:0:0:
136,312,346069,1,0,0:0:0:0:
136,312,346184,1,0,0:0:0:0:
136,312,346299,1,0,0:0:0:0:
136,312,346414,1,0,0:0:0:0:
372,296,346529,1,8,0:0:0:0:
160,296,346759,1,0,0:0:0:0:
160,296,346874,1,0,0:0:0:0:
160,296,347104,1,0,0:0:0:0:
384,284,347218,1,8,0:0:0:0:
172,304,347333,1,0,0:0:0:0:
172,304,347448,1,0,0:0:0:0:
352,288,347563,1,8,0:0:0:0:
172,304,347678,1,0,0:0:0:0:
168,304,347793,1,0,0:0:0:0:
384,276,347908,1,8,0:0:0:0:
136,296,348138,1,0,0:0:0:0:
136,300,348253,1,0,0:0:0:0:
136,300,348483,1,0,0:0:0:0:
448,276,348598,1,8,0:0:0:0:
104,296,348828,1,0,0:0:0:0:
112,300,348943,1,0,0:0:0:0:
112,300,349058,1,0,0:0:0:0:
112,300,349172,1,0,0:0:0:0:
448,276,349287,1,8,0:0:0:0:
172,308,349517,1,0,0:0:0:0:
172,308,349632,1,0,0:0:0:0:
172,308,349747,1,0,0:0:0:0:
172,308,349862,1,0,0:0:0:0:
376,280,349977,1,8,0:0:0:0:
160,300,350207,1,0,0:0:0:0:
160,300,350322,1,0,0:0:0:0:
160,300,350437,1,0,0:0:0:0:
160,300,350552,1,0,0:0:0:0:
316,284,350667,1,8,0:0:0:0:
172,308,350897,1,0,0:0:0:0:
172,308,351012,1,0,0:0:0:0:
172,308,351241,1,0,0:0:0:0:
404,268,351356,1,8,0:0:0:0:
200,304,351586,1,0,0:0:0:0:
200,304,351701,1,0,0:0:0:0:
200,304,351816,1,0,0:0:0:0:
200,304,351931,1,0,0:0:0:0:
420,264,352046,1,8,0:0:0:0:
192,312,352276,1,0,0:0:0:0:
192,312,352391,1,0,0:0:0:0:
192,312,352506,1,0,0:0:0:0:
192,312,352621,1,0,0:0:0:0:
416,256,352736,1,8,0:0:0:0:
224,304,352966,1,0,0:0:0:0:
220,304,353081,1,0,0:0:0:0:
444,264,353195,1,8,0:0:0:0:
184,296,353310,1,0,0:0:0:0:
412,272,353425,1,8,0:0:0:0:
412,272,353540,1,8,0:0:0:0:
412,272,353655,1,8,0:0:0:0:
120,288,353770,1,0,0:0:0:0:
420,284,354115,1,8,0:0:0:0:
180,308,354345,1,0,0:0:0:0:
156,288,354690,1,0,0:0:0:0:
344,280,354805,1,8,0:0:0:0:
120,288,355150,1,0,0:0:0:0:
420,284,355495,1,8,0:0:0:0:
180,308,355725,1,0,0:0:0:0:
104,280,355839,1,0,0:0:0:0:
156,288,356070,1,0,0:0:0:0:
344,280,356185,1,8,0:0:0:0:
120,288,356529,1,0,0:0:0:0:
420,284,356874,1,8,0:0:0:0:
180,308,357104,1,0,0:0:0:0:
156,288,357449,1,0,0:0:0:0:
344,280,357564,1,8,0:0:0:0:
120,288,357908,1,0,0:0:0:0:
420,284,358253,1,8,0:0:0:0:
180,308,358483,1,0,0:0:0:0:
336,264,358598,1,8,0:0:0:0:
372,260,358713,1,8,0:0:0:0:
156,288,358828,1,0,0:0:0:0:
344,280,358943,1,8,0:0:0:0:
372,260,359058,1,8,0:0:0:0:
372,260,359172,1,8,0:0:0:0:
120,288,359287,1,0,0:0:0:0:
420,284,359632,1,8,0:0:0:0:
180,308,359862,1,0,0:0:0:0:
156,288,360207,1,0,0:0:0:0:
344,280,360322,1,8,0:0:0:0:
120,288,360667,1,0,0:0:0:0:
420,284,361012,1,8,0:0:0:0:
180,308,361242,1,0,0:0:0:0:
396,276,361356,1,8,0:0:0:0:
156,288,361587,1,0,0:0:0:0:
344,280,361702,1,8,0:0:0:0:
404,284,361816,1,8,0:0:0:0:
404,284,361931,1,8,0:0:0:0:
128,296,362046,1,0,0:0:0:0:
128,296,362161,1,0,0:0:0:0:
128,296,362276,1,0,0:0:0:0:
508,332,362391,1,8,0:0:0:0:
376,292,362620,1,8,0:0:0:0:
144,304,362735,1,0,0:0:0:0:
144,300,362850,1,0,0:0:0:0:
144,300,362965,1,0,0:0:0:0:
376,300,363080,1,8,0:0:0:0:
192,300,363195,1,0,0:0:0:0:
424,304,363310,1,8,0:0:0:0:
216,292,363425,1,0,0:0:0:0:
216,292,363540,1,0,0:0:0:0:
216,292,363655,1,0,0:0:0:0:
376,300,363770,1,8,0:0:0:0:
404,264,364000,1,8,0:0:0:0:
172,276,364115,1,0,0:0:0:0:
172,276,364230,1,0,0:0:0:0:
100,272,364345,1,0,0:0:0:0:
408,288,364460,1,8,0:0:0:0:
176,268,364804,1,0,0:0:0:0:
176,268,364919,1,0,0:0:0:0:
176,268,365034,1,0,0:0:0:0:
368,268,365149,1,8,0:0:0:0:
372,280,365379,1,8,0:0:0:0:
168,260,365494,1,0,0:0:0:0:
168,260,365609,1,0,0:0:0:0:
168,260,365724,1,0,0:0:0:0:
368,260,365839,1,8,0:0:0:0:
172,248,365954,1,0,0:0:0:0:
340,248,366069,1,8,0:0:0:0:
208,248,366184,1,0,0:0:0:0:
204,248,366299,1,0,0:0:0:0:
204,248,366414,1,0,0:0:0:0:
376,248,366529,1,8,0:0:0:0:
372,284,366758,1,8,0:0:0:0:
168,264,366873,1,0,0:0:0:0:
168,260,366988,1,0,0:0:0:0:
176,268,367103,1,0,0:0:0:0:
368,248,367218,1,8,0:0:0:0:
168,264,367276,1,0,0:0:0:0:
168,264,367333,1,0,0:0:0:0:
368,248,367391,1,8,0:0:0:0:
392,272,367563,1,8,0:0:0:0:
184,268,367678,1,0,0:0:0:0:
392,272,367793,1,8,0:0:0:0:
184,268,367908,1,0,0:0:0:0:
400,256,368023,1,8,0:0:0:0:
384,268,368138,1,8,0:0:0:0:
156,288,368253,1,0,0:0:0:0:
132,252,368368,1,0,0:0:0:0:
132,256,368483,1,0,0:0:0:0:
392,272,368597,1,8,0:0:0:0:
420,288,368712,1,8,0:0:0:0:
132,252,368827,1,0,0:0:0:0:
420,288,368942,1,8,0:0:0:0:
160,280,369057,1,0,0:0:0:0:
148,264,369172,1,0,0:0:0:0:
392,272,369287,1,8,0:0:0:0:
156,288,369402,1,0,0:0:0:0:
148,264,369517,1,0,0:0:0:0:
384,268,369632,1,8,0:0:0:0:
148,264,369747,1,0,0:0:0:0:
424,280,369862,1,8,0:0:0:0:
384,264,369977,1,8,0:0:0:0:
140,256,370092,1,0,0:0:0:0:
96,260,370207,1,0,0:0:0:0:
392,272,370322,1,8,0:0:0:0:
184,268,370437,1,0,0:0:0:0:
184,268,370552,1,0,0:0:0:0:
392,272,370667,1,8,0:0:0:0:
404,256,370782,1,8,0:0:0:0:
384,268,370897,1,8,0:0:0:0:
156,288,371012,1,0,0:0:0:0:
132,252,371127,1,0,0:0:0:0:
132,256,371242,1,0,0:0:0:0:
392,272,371356,1,8,0:0:0:0:
420,288,371471,1,8,0:0:0:0:
132,252,371586,1,0,0:0:0:0:
420,288,371701,1,8,0:0:0:0:
160,280,371816,1,0,0:0:0:0:
148,264,371931,1,0,0:0:0:0:
392,272,372046,1,8,0:0:0:0:
156,288,372161,1,0,0:0:0:0:
148,264,372276,1,0,0:0:0:0:
384,268,372391,1,8,0:0:0:0:
384,268,372506,1,8,0:0:0:0:
364,260,372621,1,8,0:0:0:0:
376,268,372735,1,8,0:0:0:0:
104,268,373080,1,0,0:0:0:0:
208,288,373195,1,0,0:0:0:0:
376,264,373310,1,8,0:0:0:0:
364,280,373425,1,8,0:0:0:0:
368,280,373655,1,8,0:0:0:0:
136,296,373770,1,0,0:0:0:0:
136,296,373885,1,0,0:0:0:0:
136,296,374000,1,0,0:0:0:0:
316,272,374115,1,8,0:0:0:0:
368,280,374230,1,8,0:0:0:0:
316,272,374345,1,8,0:0:0:0:
144,284,374460,1,0,0:0:0:0:
144,284,374574,1,0,0:0:0:0:
144,284,374689,1,0,0:0:0:0:
392,280,374804,1,8,0:0:0:0:
396,272,375034,1,8,0:0:0:0:
136,280,375149,1,0,0:0:0:0:
136,280,375264,1,0,0:0:0:0:
136,280,375379,1,0,0:0:0:0:
444,292,375494,1,8,0:0:0:0:
144,284,375839,1,0,0:0:0:0:
144,284,375954,1,0,0:0:0:0:
428,276,376069,1,8,0:0:0:0:
324,280,376184,1,8,0:0:0:0:
416,292,376414,1,8,0:0:0:0:
200,280,376529,1,0,0:0:0:0:
200,280,376643,1,0,0:0:0:0:
200,280,376758,1,0,0:0:0:0:
384,292,376873,1,8,0:0:0:0:
400,260,376988,1,8,0:0:0:0:
372,288,377103,1,8,0:0:0:0:
136,304,377218,1,0,0:0:0:0:
136,304,377333,1,0,0:0:0:0:
136,304,377448,1,0,0:0:0:0:
372,288,377563,1,8,0:0:0:0:
372,288,377793,1,8,0:0:0:0:
172,288,377908,1,0,0:0:0:0:
172,288,378023,1,0,0:0:0:0:
172,288,378138,1,0,0:0:0:0:
376,288,378253,1,8,0:0:0:0:
360,296,378310,1,8,0:0:0:0:
360,296,378368,1,8,0:0:0:0:
180,312,378425,1,0,0:0:0:0:
392,272,378597,1,8,0:0:0:0:
184,268,378712,1,0,0:0:0:0:
184,268,378827,1,0,0:0:0:0:
392,272,378942,1,8,0:0:0:0:
348,284,379057,1,8,0:0:0:0:
156,288,379172,1,0,0:0:0:0:
376,288,379287,1,8,0:0:0:0:
188,288,379402,1,0,0:0:0:0:
132,256,379517,1,0,0:0:0:0:
400,296,379631,1,8,0:0:0:0:
396,312,379746,1,8,0:0:0:0:
132,252,379861,1,0,0:0:0:0:
420,288,379976,1,8,0:0:0:0:
160,280,380091,1,0,0:0:0:0:
148,264,380206,1,0,0:0:0:0:
392,272,380321,1,8,0:0:0:0:
168,276,380436,1,0,0:0:0:0:
148,264,380551,1,0,0:0:0:0:
384,268,380666,1,8,0:0:0:0:
148,264,380781,1,0,0:0:0:0:
140,256,380896,1,0,0:0:0:0:
384,264,381011,1,8,0:0:0:0:
416,276,381126,1,8,0:0:0:0:
96,260,381241,1,0,0:0:0:0:
392,272,381356,1,8,0:0:0:0:
184,268,381471,1,0,0:0:0:0:
184,268,381586,1,0,0:0:0:0:
392,272,381701,1,8,0:0:0:0:
464,280,381816,1,8,0:0:0:0:
384,268,381931,1,8,0:0:0:0:
156,288,382046,1,0,0:0:0:0:
132,252,382161,1,0,0:0:0:0:
132,256,382276,1,0,0:0:0:0:
392,272,382390,1,8,0:0:0:0:
440,272,382505,1,8,0:0:0:0:
128,284,382620,1,0,0:0:0:0:
380,272,382735,1,8,0:0:0:0:
172,264,382850,1,0,0:0:0:0:
172,264,382965,1,0,0:0:0:0:
408,228,383080,1,8,0:0:0:0:
424,264,383195,1,8,0:0:0:0:
452,256,383310,1,8,0:0:0:0:
216,256,383425,1,0,0:0:0:0:
216,256,383540,1,0,0:0:0:0:
216,256,383655,1,0,0:0:0:0:
440,256,383770,1,8,0:0:0:0:
488,252,383885,1,8,0:0:0:0:
416,232,384000,1,8,0:0:0:0:
236,272,384115,1,0,0:0:0:0:
236,272,384345,1,0,0:0:0:0:
392,260,384460,1,8,0:0:0:0:
88,312,384575,1,0,0:0:0:0:
88,312,384690,1,0,0:0:0:0:
88,312,384805,1,0,0:0:0:0:
88,312,385035,1,0,0:0:0:0:
416,240,385150,1,8,0:0:0:0:
80,300,385264,1,0,0:0:0:0:
80,300,385379,1,0,0:0:0:0:
80,300,385494,1,0,0:0:0:0:
80,300,385724,1,0,0:0:0:0:
400,248,385839,1,8,0:0:0:0:
144,292,385954,1,0,0:0:0:0:
144,292,386069,1,0,0:0:0:0:
144,292,386184,1,0,0:0:0:0:
352,240,386299,1,8,0:0:0:0:
112,288,386414,1,0,0:0:0:0:
372,248,386529,1,8,0:0:0:0:
372,248,386644,1,8,0:0:0:0:
372,248,386759,1,8,0:0:0:0:
52,300,386874,1,0,0:0:0:0:
120,320,387104,1,0,0:0:0:0:
352,252,387218,1,8,0:0:0:0:
156,272,387333,1,0,0:0:0:0:
416,276,387448,1,8,0:0:0:0:
12,272,387563,1,0,0:0:0:0:
108,304,387793,1,0,0:0:0:0:
388,268,387908,1,8,0:0:0:0:
152,292,388023,1,0,0:0:0:0:
404,280,388138,1,8,0:0:0:0:
212,304,388253,1,0,0:0:0:0:
212,304,388483,1,0,0:0:0:0:
408,260,388598,1,8,0:0:0:0:
440,264,388713,1,8,0:0:0:0:
188,296,388828,1,0,0:0:0:0:
472,264,388943,1,8,0:0:0:0:
404,280,389058,1,8,0:0:0:0:
192,308,389172,1,0,0:0:0:0:
436,272,389287,1,8,0:0:0:0:
220,276,389402,1,0,0:0:0:0:
220,276,389517,1,0,0:0:0:0:
416,280,389632,1,8,0:0:0:0:
168,284,389747,1,0,0:0:0:0:
168,284,389862,1,0,0:0:0:0:
452,296,389977,1,8,0:0:0:0:
236,296,390092,1,0,0:0:0:0:
236,296,390207,1,0,0:0:0:0:
408,288,390322,1,8,0:0:0:0:
408,288,390379,1,8,0:0:0:0:
408,288,390437,1,8,0:0:0:0:
408,288,390494,1,8,0:0:0:0:
184,296,390667,1,0,0:0:0:0:
388,276,390897,1,8,0:0:0:0:
188,320,391012,1,0,0:0:0:0:
224,288,391241,1,0,0:0:0:0:
424,280,391356,1,8,0:0:0:0:
428,280,391471,1,8,0:0:0:0:
248,296,391586,1,0,0:0:0:0:
428,280,391701,1,8,0:0:0:0:
240,296,391816,1,0,0:0:0:0:
240,296,391931,1,0,0:0:0:0:
424,292,392046,1,8,0:0:0:0:
76,92,392391,1,4,0:0:0:0:
236,236,398318,5,12,0:0:0:0:
200,192,398630,1,8,0:0:0:0:
200,192,398786,1,0,0:0:0:0:
200,192,398943,1,8,0:0:0:0:
200,192,399255,1,0,0:0:0:0:
200,192,399411,1,0,0:0:0:0:
200,192,399568,1,0,0:0:0:0:
200,192,399724,1,8,0:0:0:0:
200,192,399880,1,0,0:0:0:0:
200,192,400193,1,8,0:0:0:0:
332,280,400349,1,8,0:0:0:0:
332,280,400505,1,0,0:0:0:0:
332,280,400661,1,0,0:0:0:0:
332,280,400818,1,4,0:0:0:0:
116,176,401130,1,8,0:0:0:0:
116,176,401286,1,0,0:0:0:0:
332,280,401443,1,8,0:0:0:0:
116,176,401755,1,8,0:0:0:0:
116,176,401911,1,0,0:0:0:0:
116,176,402068,1,8,0:0:0:0:
116,176,402224,1,8,0:0:0:0:
128,212,402380,1,0,0:0:0:0:
128,212,402693,1,8,0:0:0:0:
128,212,402849,1,0,0:0:0:0:
128,212,403161,1,0,0:0:0:0:
200,176,403318,1,12,0:0:0:0:
84,148,403630,1,0,0:0:0:0:
140,208,403943,1,8,0:0:0:0:
224,180,404255,1,0,0:0:0:0:
224,180,404411,1,0,0:0:0:0:
276,220,404724,1,8,0:0:0:0:
276,220,404880,1,0,0:0:0:0:
276,220,405036,1,0,0:0:0:0:
40,152,405193,1,8,0:0:0:0:
232,228,405349,1,8,0:0:0:0:
232,228,405505,1,8,0:0:0:0:
232,228,405661,1,0,0:0:0:0:
232,228,405818,1,4,0:0:0:0:
200,212,406286,1,8,0:0:0:0:
260,244,406443,1,8,0:0:0:0:
176,156,406755,1,0,0:0:0:0:
176,156,406911,1,0,0:0:0:0:
176,156,407068,1,0,0:0:0:0:
192,116,407224,1,0,0:0:0:0:
192,116,407380,1,8,0:0:0:0:
144,156,407536,1,0,0:0:0:0:
144,156,407693,1,8,0:0:0:0:
144,156,407901,1,8,0:0:0:0:
96,124,408109,1,0,0:0:0:0:
176,160,408318,1,8,0:0:0:0:
108,240,408474,1,8,0:0:0:0:
108,240,408786,1,8,0:0:0:0:
108,240,409099,1,8,0:0:0:0:
108,240,409255,1,8,0:0:0:0:
176,160,409568,1,0,0:0:0:0:
336,288,409724,1,8,0:0:0:0:
280,184,410036,1,8,0:0:0:0:
216,240,410193,1,8,0:0:0:0:
216,240,410349,1,0,0:0:0:0:
116,188,410661,1,8,0:0:0:0:
176,160,410818,1,0,0:0:0:0:
116,188,410974,1,8,0:0:0:0:
272,176,411286,1,8,0:0:0:0:
272,176,411599,1,8,0:0:0:0:
272,176,411755,1,0,0:0:0:0:
368,228,412224,1,0,0:0:0:0:
272,176,412536,1,8,0:0:0:0:
280,184,412693,1,0,0:0:0:0:
280,184,412849,1,0,0:0:0:0:
148,192,413161,1,8,0:0:0:0:
148,192,413239,1,8,0:0:0:0:
148,192,413318,1,0,0:0:0:0:
100,224,413474,1,0,0:0:0:0:
188,216,413630,1,0,0:0:0:0:
124,276,413786,1,0,0:0:0:0:
168,272,413864,1,0,0:0:0:0:
168,272,413943,1,8,0:0:0:0:
124,276,414099,1,0,0:0:0:0:
196,220,414255,1,0,0:0:0:0:
168,272,414411,1,0,0:0:0:0:
156,288,414489,1,0,0:0:0:0:
196,220,414568,1,8,0:0:0:0:
108,172,414646,1,0,0:0:0:0:
124,276,414724,1,0,0:0:0:0:
196,220,414880,1,0,0:0:0:0:
124,276,415036,1,8,0:0:0:0:
196,220,415193,1,8,0:0:0:0:
112,152,415271,1,8,0:0:0:0:
112,152,415349,1,0,0:0:0:0:
112,152,415427,1,0,0:0:0:0:
196,220,415505,1,8,0:0:0:0:
136,216,415583,1,8,0:0:0:0:
136,216,415661,1,0,0:0:0:0:
136,216,415739,1,0,0:0:0:0:
196,220,415818,1,8,0:0:0:0:
124,276,415974,1,0,0:0:0:0:
116,208,416130,1,0,0:0:0:0:
124,276,416286,1,8,0:0:0:0:
124,276,416364,1,0,0:0:0:0:
208,216,416443,1,8,0:0:0:0:
124,276,416599,1,8,0:0:0:0:
208,216,416755,1,0,0:0:0:0:
124,276,416911,1,0,0:0:0:0:
152,304,416989,1,8,0:0:0:0:
208,216,417068,1,8,0:0:0:0:
124,276,417224,1,0,0:0:0:0:
208,216,417380,1,0,0:0:0:0:
124,276,417536,1,0,0:0:0:0:
208,216,417693,1,0,0:0:0:0:
304,244,417771,1,8,0:0:0:0:
304,244,417849,1,8,0:0:0:0:
152,316,417927,1,8,0:0:0:0:
208,216,418005,1,0,0:0:0:0:
152,316,418083,1,0,0:0:0:0:
124,276,418161,1,8,0:0:0:0:
152,312,418239,1,8,0:0:0:0:
208,216,418318,1,0,0:0:0:0:
104,220,418630,1,8,0:0:0:0:
212,224,418786,1,0,0:0:0:0:
104,220,419099,1,0,0:0:0:0:
184,220,419255,1,8,0:0:0:0:
104,220,419568,1,0,0:0:0:0:
104,220,419646,1,0,0:0:0:0:
184,220,419724,1,0,0:0:0:0:
104,220,419880,1,8,0:0:0:0:
104,220,420036,1,0,0:0:0:0:
184,220,420193,1,8,0:0:0:0:
132,152,420297,1,0,0:0:0:0:
132,152,420401,1,0,0:0:0:0:
132,152,420505,1,8,0:0:0:0:
132,152,420609,1,0,0:0:0:0:
132,152,420713,1,8,0:0:0:0:
184,220,420818,1,0,0:0:0:0:
104,220,421130,1,8,0:0:0:0:
184,220,421286,1,0,0:0:0:0:
104,220,421599,1,0,0:0:0:0:
184,220,421755,1,8,0:0:0:0:
104,220,422068,1,8,0:0:0:0:
124,208,422224,1,0,0:0:0:0:
104,220,422380,1,0,0:0:0:0:
104,220,422536,1,0,0:0:0:0:
204,216,422693,1,8,0:0:0:0:
204,216,422771,1,0,0:0:0:0:
204,216,422849,1,0,0:0:0:0:
204,216,422927,1,0,0:0:0:0:
124,208,423005,1,8,0:0:0:0:
204,216,423083,1,8,0:0:0:0:
204,216,423161,1,0,0:0:0:0:
104,220,423318,1,0,0:0:0:0:
124,208,423474,1,0,0:0:0:0:
196,232,423786,1,8,0:0:0:0:
140,268,423943,1,0,0:0:0:0:
196,232,424255,1,0,0:0:0:0:
140,268,424411,1,8,0:0:0:0:
196,232,424724,1,8,0:0:0:0:
140,268,424880,1,0,0:0:0:0:
112,156,425036,1,0,0:0:0:0:
140,268,425193,1,0,0:0:0:0:
200,196,425271,1,0,0:0:0:0:
140,268,425349,1,8,0:0:0:0:
200,196,425505,1,8,0:0:0:0:
200,196,425661,1,8,0:0:0:0:
212,136,425818,1,0,0:0:0:0:
52,184,425974,1,0,0:0:0:0:
152,200,426130,1,8,0:0:0:0:
52,184,426286,1,0,0:0:0:0:
100,144,426364,1,0,0:0:0:0:
196,232,426443,1,8,0:0:0:0:
196,232,426599,1,0,0:0:0:0:
52,184,426911,1,8,0:0:0:0:
88,168,427224,1,0,0:0:0:0:
52,184,427380,1,8,0:0:0:0:
196,232,427536,1,8,0:0:0:0:
180,232,427614,1,0,0:0:0:0:
196,232,427693,1,8,0:0:0:0:
196,232,427849,1,0,0:0:0:0:
196,232,428005,1,0,0:0:0:0:
196,232,428161,1,8,0:0:0:0:
72,152,428318,5,0,0:0:0:0:
204,184,428474,1,0,0:0:0:0:
204,184,428630,1,8,0:0:0:0:
88,160,428786,1,0,0:0:0:0:
304,272,428943,1,0,0:0:0:0:
104,192,429021,1,0,0:0:0:0:
304,272,429099,1,8,0:0:0:0:
304,272,429255,1,0,0:0:0:0:
304,272,429411,1,8,0:0:0:0:
124,168,429568,1,8,0:0:0:0:
104,216,429646,1,8,0:0:0:0:
124,168,429724,1,0,0:0:0:0:
124,168,429880,1,8,0:0:0:0:
124,168,430036,1,8,0:0:0:0:
208,236,430349,1,8,0:0:0:0:
208,236,430505,1,0,0:0:0:0:
208,236,430661,1,0,0:0:0:0:
104,216,430818,1,0,0:0:0:0:
104,216,430896,1,0,0:0:0:0:
104,216,430974,1,8,0:0:0:0:
276,220,431130,1,8,0:0:0:0:
188,260,431208,1,0,0:0:0:0:
276,220,431286,1,8,0:0:0:0:
188,260,431364,1,8,0:0:0:0:
276,220,431443,1,0,0:0:0:0:
276,220,431599,1,8,0:0:0:0:
276,220,431755,1,0,0:0:0:0:
276,220,431911,1,8,0:0:0:0:
228,208,432068,1,8,0:0:0:0:
228,208,432224,1,8,0:0:0:0:
104,216,432302,1,8,0:0:0:0:
228,208,432380,1,0,0:0:0:0:
228,208,432536,1,8,0:0:0:0:
104,152,432849,1,0,0:0:0:0:
104,152,433005,1,8,0:0:0:0:
104,152,433161,1,0,0:0:0:0:
204,184,433318,1,0,0:0:0:0:
184,224,433474,1,0,0:0:0:0:
192,236,433552,1,0,0:0:0:0:
184,224,433630,1,8,0:0:0:0:
184,224,433786,1,8,0:0:0:0:
184,224,433943,1,0,0:0:0:0:
184,224,434099,1,0,0:0:0:0:
192,236,434177,1,0,0:0:0:0:
184,224,434255,1,0,0:0:0:0:
184,224,434411,1,8,0:0:0:0:
204,184,434568,1,0,0:0:0:0:
204,184,434724,1,0,0:0:0:0:
192,236,434802,1,0,0:0:0:0:
204,184,434880,1,0,0:0:0:0:
204,184,435036,1,8,0:0:0:0:
224,236,435349,1,8,0:0:0:0:
224,236,435505,1,0,0:0:0:0:
224,236,435661,1,0,0:0:0:0:
224,236,435818,1,0,0:0:0:0:
84,136,435896,1,0,0:0:0:0:
192,236,435974,1,8,0:0:0:0:
192,236,436052,1,0,0:0:0:0:
68,208,436130,1,8,0:0:0:0:
104,220,436286,1,8,0:0:0:0:
104,220,436443,1,0,0:0:0:0:
180,172,436521,1,8,0:0:0:0:
104,220,436599,1,0,0:0:0:0:
192,236,436677,1,0,0:0:0:0:
104,220,436755,1,8,0:0:0:0:
104,220,436911,1,8,0:0:0:0:
108,232,437068,1,0,0:0:0:0:
248,160,437146,1,8,0:0:0:0:
108,232,437224,1,8,0:0:0:0:
192,236,437302,1,0,0:0:0:0:
108,232,437380,1,8,0:0:0:0:
108,232,437536,1,8,0:0:0:0:
108,232,437693,1,0,0:0:0:0:
192,236,437771,1,0,0:0:0:0:
108,232,437849,1,8,0:0:0:0:
192,236,437927,1,0,0:0:0:0:
108,232,438005,1,8,0:0:0:0:
192,236,438083,1,8,0:0:0:0:
108,232,438161,1,0,0:0:0:0:
280,236,438318,1,8,0:0:0:0:
280,236,438474,1,8,0:0:0:0:
280,236,438786,1,8,0:0:0:0:
280,236,439099,1,8,0:0:0:0:
280,236,439255,1,8,0:0:0:0:
280,236,439411,1,0,0:0:0:0:
192,224,439724,1,8,0:0:0:0:
152,248,439880,1,8,0:0:0:0:
152,248,440036,1,0,0:0:0:0:
152,248,440193,1,0,0:0:0:0:
100,220,440271,1,0,0:0:0:0:
100,220,440349,1,8,0:0:0:0:
152,248,440505,1,0,0:0:0:0:
152,248,440661,1,8,0:0:0:0:
104,184,440818,1,0,0:0:0:0:
104,184,440974,1,0,0:0:0:0:
96,136,441286,1,8,0:0:0:0:
96,200,441599,1,8,0:0:0:0:
96,200,441755,1,0,0:0:0:0:
96,200,441911,1,0,0:0:0:0:
248,176,442224,1,8,0:0:0:0:
248,176,442380,1,8,0:0:0:0:
248,176,442536,1,0,0:0:0:0:
100,220,442614,1,8,0:0:0:0:
248,176,442693,1,8,0:0:0:0:
248,176,442849,1,0,0:0:0:0:
184,168,443005,1,0,0:0:0:0:
108,176,443161,1,8,0:0:0:0:
108,176,443318,1,0,0:0:0:0:
112,176,443474,1,8,0:0:0:0:
108,176,443786,1,8,0:0:0:0:
96,192,444099,1,8,0:0:0:0:
96,192,444255,1,8,0:0:0:0:
100,220,444333,1,8,0:0:0:0:
96,192,444411,1,0,0:0:0:0:
196,208,444489,1,0,0:0:0:0:
196,208,444568,1,8,0:0:0:0:
196,208,444724,1,8,0:0:0:0:
196,208,444880,1,0,0:0:0:0:
196,208,445036,1,0,0:0:0:0:
116,208,445349,1,8,0:0:0:0:
116,208,445505,1,0,0:0:0:0:
116,208,445661,1,0,0:0:0:0:
24,212,445818,1,0,0:0:0:0:
144,172,446286,1,8,0:0:0:0:
144,172,446755,1,8,0:0:0:0:
136,124,446911,1,8,0:0:0:0:
136,124,446989,1,0,0:0:0:0:
280,96,447068,1,0,0:0:0:0:
80,176,447224,1,0,0:0:0:0:
80,176,447536,1,0,0:0:0:0:
208,212,447693,1,8,0:0:0:0:
80,176,448005,1,8,0:0:0:0:
248,180,448318,5,0,0:0:0:0:
124,228,448474,1,0,0:0:0:0:
124,228,448552,1,0,0:0:0:0:
176,248,448630,1,8,0:0:0:0:
149,240,448786,1,0,0:0:0:0:
264,160,448943,1,0,0:0:0:0:
136,236,449099,1,0,0:0:0:0:
270,270,449177,1,8,0:0:0:0:
176,248,449255,1,8,0:0:0:0:
136,236,449411,1,0,0:0:0:0:
264,156,449568,1,0,0:0:0:0:
217,239,449724,1,0,0:0:0:0:
217,239,449880,1,8,0:0:0:0:
159,228,450036,1,8,0:0:0:0:
98,213,450114,1,8,0:0:0:0:
176,248,450193,1,0,0:0:0:0:
161,247,450349,1,0,0:0:0:0:
161,246,450505,1,8,0:0:0:0:
161,246,450661,1,8,0:0:0:0:
111,279,450739,1,8,0:0:0:0:
111,279,450818,1,0,0:0:0:0:
157,253,451130,1,8,0:0:0:0:
157,253,451208,1,8,0:0:0:0:
157,253,451286,1,8,0:0:0:0:
157,253,451443,1,0,0:0:0:0:
155,254,451599,1,0,0:0:0:0:
132,234,451755,1,8,0:0:0:0:
270,270,451911,1,8,0:0:0:0:
111,279,451989,1,0,0:0:0:0:
160,196,452068,1,0,0:0:0:0:
270,270,452380,1,8,0:0:0:0:
270,270,452536,1,0,0:0:0:0:
270,270,452693,1,0,0:0:0:0:
270,270,452849,1,0,0:0:0:0:
111,279,452927,1,0,0:0:0:0:
270,270,453005,1,8,0:0:0:0:
270,270,453161,1,8,0:0:0:0:
168,184,453318,1,0,0:0:0:0:
270,270,453630,1,8,0:0:0:0:
270,270,453786,1,0,0:0:0:0:
148,240,453943,1,8,0:0:0:0:
270,270,454255,1,8,0:0:0:0:
270,270,454411,1,0,0:0:0:0:
48,148,454568,1,0,0:0:0:0:
248,147,454880,1,8,0:0:0:0:
270,270,455036,1,8,0:0:0:0:
64,152,455193,1,0,0:0:0:0:
111,278,455271,1,0,0:0:0:0:
148,210,455349,1,0,0:0:0:0:
148,210,455505,1,8,0:0:0:0:
120,156,455661,1,8,0:0:0:0:
120,156,455739,1,8,0:0:0:0:
120,156,455818,1,0,0:0:0:0:
36,204,456130,1,8,0:0:0:0:
182,219,456286,1,0,0:0:0:0:
36,204,456443,1,0,0:0:0:0:
32,192,456755,1,8,0:0:0:0:
182,219,456911,1,8,0:0:0:0:
32,224,457068,1,0,0:0:0:0:
32,224,457380,1,8,0:0:0:0:
145,207,457458,1,8,0:0:0:0:
182,219,457536,1,8,0:0:0:0:
32,224,457693,1,0,0:0:0:0:
145,207,457771,1,0,0:0:0:0:
182,219,457849,1,0,0:0:0:0:
32,224,458005,1,8,0:0:0:0:
135,214,458083,1,8,0:0:0:0:
132,172,458161,1,8,0:0:0:0:
184,160,458318,1,4,0:0:0:0:
184,184,458474,1,4,0:0:0:0:
184,184,458630,1,4,0:0:0:0:
184,184,458786,1,12,0:0:0:0:
184,184,459099,1,12,0:0:0:0:
184,184,459255,1,4,0:0:0:0:
184,184,459568,1,12,0:0:0:0:
184,160,459724,1,0,0:0:0:0:
184,160,459802,1,0,0:0:0:0:
184,160,459880,1,8,0:0:0:0:
184,152,459958,1,8,0:0:0:0:
184,152,460036,1,0,0:0:0:0:
140,212,460193,1,4,0:0:0:0:
140,212,460349,1,4,0:0:0:0:
140,212,460505,1,4,0:0:0:0:
140,212,460661,1,12,0:0:0:0:
144,264,460974,1,12,0:0:0:0:
144,264,461130,1,4,0:0:0:0:
144,264,461443,1,4,0:0:0:0:
184,152,461599,1,0,0:0:0:0:
44,128,461677,1,0,0:0:0:0:
72,184,461755,1,8,0:0:0:0:
240,272,461833,1,0,0:0:0:0:
240,272,461911,1,8,0:0:0:0:
144,264,462068,1,4,0:0:0:0:
144,264,462224,1,4,0:0:0:0:
144,264,462380,1,4,0:0:0:0:
144,264,462536,1,4,0:0:0:0:
144,264,462849,1,12,0:0:0:0:
144,264,463005,1,4,0:0:0:0:
116,232,463318,1,4,0:0:0:0:
136,164,463474,1,0,0:0:0:0:
80,216,463552,1,0,0:0:0:0:
80,216,463630,1,8,0:0:0:0:
135,214,463708,1,8,0:0:0:0:
152,168,463786,1,8,0:0:0:0:
112,112,463864,1,8,0:0:0:0:
144,264,463943,1,0,0:0:0:0:
80,216,464099,1,0,0:0:0:0:
80,216,464255,1,8,0:0:0:0:
80,216,464411,1,0,0:0:0:0:
80,216,464568,1,0,0:0:0:0:
132,252,464646,1,0,0:0:0:0:
80,216,464724,1,0,0:0:0:0:
80,216,464880,1,8,0:0:0:0:
116,136,464958,1,8,0:0:0:0:
80,216,465036,1,0,0:0:0:0:
80,216,465193,1,0,0:0:0:0:
80,216,465349,1,0,0:0:0:0:
80,216,465427,1,0,0:0:0:0:
80,216,465505,1,8,0:0:0:0:
132,252,465661,1,0,0:0:0:0:
88,144,465739,1,0,0:0:0:0:
116,144,465818,1,8,0:0:0:0:
80,216,466130,1,0,0:0:0:0:
80,216,466286,1,0,0:0:0:0:
80,216,466443,1,8,0:0:0:0:
80,216,466599,1,8,0:0:0:0:
80,216,466755,1,0,0:0:0:0:
80,216,466911,1,0,0:0:0:0:
80,216,467068,1,8,0:0:0:0:
148,192,467224,5,0,0:0:0:0:
144,212,467380,1,0,0:0:0:0:
144,224,467536,1,8,0:0:0:0:
144,224,467693,1,8,0:0:0:0:
144,224,467849,1,8,0:0:0:0:
144,220,468005,1,8,0:0:0:0:
144,220,468161,1,0,0:0:0:0:
72,152,468318,5,0,0:0:0:0:
72,152,468474,1,8,0:0:0:0:
120,156,468943,1,8,0:0:0:0:
128,156,469099,2,0,L|184:136,4,35
104,144,469568,5,8,0:0:0:0:
112,148,469724,1,0,0:0:0:0:
112,148,469880,1,0,0:0:0:0:
108,152,470036,1,8,0:0:0:0:
176,204,470349,1,0,0:0:0:0:
168,200,470505,1,8,0:0:0:0:
256,192,470818,12,0,473943,0:0:0:0:
