osu file format v9

[General]
AudioFilename: YouTube - Pokemon Black and White Wild Battle Music [Best Quality].mp3
AudioLeadIn: 2504
PreviewTime: 12826
Countdown: 0
SampleSet: Normal
StackLeniency: 0.7
Mode: 1
LetterboxInBreaks: 1

[Editor]
Bookmarks: 101050,101190,101300
DistanceSpacing: 0.9
BeatDivisor: 4
GridSize: 8

[Metadata]
Title:Wild Battle Theme
Artist:Junichi Masuda
Creator:Xemnas768
Version:vs. Taiko
Source:Pokemon Black & White
Tags:nintendo

[Difficulty]
HPDrainRate:5
CircleSize:5
OverallDifficulty:5
ApproachRate:5
SliderMultiplier:1.4
SliderTickRate:0.5

[Events]
//Background and Video events
0,0,"bg.jpg"
//Break Periods
//Storyboard Layer 0 (Background)
//Storyboard Layer 1 (Fail)
//Storyboard Layer 2 (Pass)
//Storyboard Layer 3 (Foreground)
//Storyboard Sound Samples
//Background Colour Transformations
3,100,163,162,255

[TimingPoints]
191,315.87947368421,4,1,1,60,1,0
2718,-100,4,2,1,100,0,0
5245,-100,4,1,1,61,0,0
7614,-100,4,2,1,61,0,0
7772,-100,4,2,1,100,0,0
10299,-100,4,1,1,59,0,0
12036,-100,4,1,1,79,0,0
30515,-100,4,1,1,59,0,0
50731,-100,4,1,1,79,0,1
63366,-100,4,1,1,60,0,0
76002,-100,4,1,1,81,0,0
101272,-100,4,1,1,81,0,1
113907,-100,4,1,1,81,0,0

[Colours]
Combo1 : 172,172,172
Combo2 : 74,74,74

[HitObjects]
256,192,191,1,8
256,192,269,1,0
256,192,348,1,0
256,192,427,1,0
256,192,506,1,8
256,192,584,1,0
256,192,663,1,0
256,192,742,1,0
256,192,822,1,8
256,192,900,1,0
256,192,979,1,0
256,192,1058,1,0
256,192,1138,1,8
256,192,1216,1,0
256,192,1295,1,0
256,192,1374,1,0
256,192,1454,1,8
256,192,1559,1,0
256,192,1665,1,0
256,192,1770,1,8
256,192,1875,1,0
256,192,1981,1,0
256,192,2086,1,8
256,192,2191,1,0
256,192,2297,1,0
256,192,2402,1,8
256,192,2507,1,0
256,192,2613,1,0
256,192,2718,1,8
256,192,3981,1,2
256,192,4297,5,2
256,192,4613,1,2
256,192,4929,1,2
256,192,5245,1,0
256,192,5324,1,0
256,192,5403,1,0
256,192,5560,1,0
256,192,5718,1,8
256,192,5876,1,0
256,192,6034,1,8
256,192,6192,1,8
256,192,6350,1,8
256,192,6508,1,0
256,192,6587,1,0
256,192,6666,1,0
256,192,6824,1,8
256,192,6982,1,0
256,192,7140,1,0
256,192,7298,1,8
256,192,7456,1,8
256,192,9035,1,2
256,192,9509,1,2
256,192,9825,1,2
256,192,10299,1,0
256,192,10378,1,0
256,192,10457,1,0
256,192,10615,1,8
256,192,10772,1,0
256,192,10930,1,0
256,192,11088,1,0
256,192,11246,1,8
256,192,11404,1,0
256,192,11562,1,0
256,192,11641,1,0
256,192,11720,1,0
256,192,11878,1,8
256,192,12036,1,0
256,192,12194,1,0
256,192,12352,1,8
256,192,12510,1,8
256,192,12668,1,8
256,192,12826,1,0
256,192,13142,1,8
256,192,13299,1,0
256,192,13457,1,0
256,192,13536,1,0
256,192,13615,1,0
256,192,13773,1,8
256,192,13931,1,0
256,192,14089,1,0
256,192,14247,1,0
256,192,14326,1,0
256,192,14405,1,8
256,192,14563,1,0
256,192,14642,1,0
256,192,14721,1,0
256,192,14879,1,0
256,192,14958,1,0
256,192,15037,1,8
256,192,15195,1,0
256,192,15353,1,0
256,192,15511,1,0
256,192,15669,1,8
256,192,15827,1,0
256,192,15906,1,0
256,192,15984,1,0
256,192,16142,1,0
256,192,16300,1,8
256,192,16458,1,0
256,192,16616,1,0
256,192,16774,1,0
256,192,16853,1,0
256,192,16932,1,8
256,192,17090,1,0
256,192,17248,1,0
256,192,17406,1,0
256,192,17564,1,8
256,192,17643,1,8
256,192,17722,1,8
256,192,17801,1,8
256,192,17880,1,0
256,192,18196,1,0
256,192,18354,1,0
256,192,18669,1,0
256,192,18827,1,0
256,192,19143,1,0
256,192,19459,1,0
256,192,19617,1,0
256,192,19933,1,0
256,192,20012,1,0
256,192,20091,1,0
256,192,20407,1,0
256,192,20565,1,0
256,192,20723,1,8
256,192,20881,1,0
256,192,21039,1,0
256,192,21196,1,0
256,192,21354,1,8
256,192,21512,1,0
256,192,21670,1,0
256,192,21828,1,0
256,192,21907,1,0
256,192,21986,1,8
256,192,22144,1,0
256,192,22223,1,0
256,192,22302,1,0
256,192,22460,1,0
256,192,22539,1,0
256,192,22618,1,8
256,192,22776,1,0
256,192,22934,5,0
256,192,23013,1,0
256,192,23092,1,8
256,192,23171,1,8
256,192,23250,5,0
256,192,23329,1,0
256,192,23408,1,8
256,192,23487,1,8
256,192,23566,5,0
256,192,23645,1,0
256,192,23724,1,8
256,192,23803,1,8
256,192,23881,5,0
256,192,23960,1,0
256,192,24039,1,8
256,192,24118,1,8
256,192,24197,1,8
256,192,24276,1,8
256,192,24355,5,0
256,192,24434,1,0
256,192,24513,1,8
256,192,24592,1,8
256,192,24671,5,0
256,192,24750,1,0
256,192,24829,1,8
256,192,24908,1,8
256,192,24987,5,0
256,192,25066,1,0
256,192,25145,1,8
256,192,25224,1,8
256,192,25303,1,0
256,192,25382,1,0
256,192,25461,1,0
256,192,25619,1,0
256,192,25777,1,8
256,192,26093,1,0
256,192,26172,1,0
256,192,26251,1,0
256,192,26408,1,8
256,192,26724,1,0
256,192,26882,1,0
256,192,27040,1,8
256,192,27198,1,0
256,192,27356,1,0
256,192,27435,1,0
256,192,27514,1,8
256,192,27672,1,0
256,192,27751,1,0
256,192,27830,1,8
256,192,27988,1,0
256,192,28304,1,8
256,192,28620,1,0
256,192,28778,1,0
256,192,28936,1,8
256,192,29251,1,0
256,192,29409,1,8
256,192,29567,1,8
256,192,29725,1,0
256,192,29804,1,0
256,192,29883,1,0
256,192,30041,1,0
256,192,30199,1,8
256,192,30515,5,0
256,192,30594,1,0
256,192,30673,1,0
256,192,30989,1,8
256,192,31305,1,0
256,192,31384,1,0
256,192,31463,1,8
256,192,31778,1,0
256,192,31936,1,0
256,192,32094,1,8
256,192,32252,1,0
256,192,32410,1,0
256,192,32489,1,0
256,192,32568,1,0
256,192,32647,1,0
256,192,32726,1,8
256,192,32884,1,0
256,192,33042,1,0
256,192,33121,1,0
256,192,33200,1,0
256,192,33516,1,8
256,192,33832,1,0
256,192,33990,1,8
256,192,34305,1,0
256,192,34384,1,0
256,192,34463,1,0
256,192,34621,1,8
256,192,34700,1,0
256,192,34779,1,0
256,192,34937,1,0
256,192,35016,1,0
256,192,35095,1,0
256,192,35253,1,8
256,192,35332,1,0
256,192,35411,1,0
256,192,35569,1,0
256,192,35648,1,0
256,192,35727,1,0
256,192,36043,1,8
256,192,36359,1,0
256,192,36438,1,0
256,192,36517,1,8
256,192,36833,1,8
256,192,36911,1,8
256,192,36990,1,0
256,192,37069,1,0
256,192,37148,1,8
256,192,37306,1,0
256,192,37464,1,8
256,192,37542,1,8
256,192,37621,1,0
256,192,37700,1,0
256,192,37779,1,8
256,192,37938,1,8
256,192,38096,1,0
256,192,38412,1,8
256,192,38570,1,0
256,192,38886,1,0
256,192,39044,1,8
256,192,39202,1,0
256,192,39360,1,0
256,192,39675,1,8
256,192,39833,1,0
256,192,40149,1,0
256,192,40228,1,0
256,192,40307,1,8
256,192,40623,1,4
256,192,40781,1,4
256,192,41097,1,4
256,192,41413,1,0
256,192,41571,1,8
256,192,41887,1,0
256,192,41966,1,0
256,192,42045,1,0
256,192,42124,1,8
256,192,42202,1,8
256,192,42360,1,0
256,192,42518,1,0
256,192,42676,1,8
256,192,42834,1,8
256,192,42913,1,8
256,192,42992,1,0
256,192,43150,1,4
256,192,43308,1,4
256,192,43624,1,4
256,192,43940,1,8
256,192,44098,1,8
256,192,44414,1,0
256,192,44572,1,0
256,192,44730,1,8
256,192,44887,1,0
256,192,45045,1,8
256,192,45124,1,0
256,192,45203,1,8
256,192,45361,1,8
256,192,45440,1,0
256,192,45519,1,0
256,192,45677,1,4
256,192,45835,1,4
256,192,46151,1,4
256,192,46467,1,0
256,192,46546,1,0
256,192,46625,1,0
256,192,46941,1,0
256,192,47020,1,0
256,192,47099,1,8
256,192,47178,1,8
256,192,47257,1,0
256,192,47414,1,0
256,192,47572,1,8
256,192,47651,1,0
256,192,47730,1,0
256,192,47888,1,8
256,192,48046,1,0
256,192,48204,1,8
256,192,48362,1,0
256,192,48441,1,0
256,192,48520,1,0
256,192,48678,1,8
256,192,48836,1,0
256,192,48915,1,0
256,192,48994,1,0
256,192,49152,1,8
256,192,49310,1,0
256,192,49468,1,8
256,192,49626,1,8
256,192,49705,1,8
256,192,49784,1,8
256,192,49942,1,8
256,192,50099,1,8
256,192,50178,1,8
256,192,50257,1,8
256,192,50415,1,8
256,192,50494,1,8
256,192,50573,1,8
256,192,50652,1,8
256,192,50731,1,0
256,192,50942,1,8
256,192,51152,1,0
256,192,51363,1,8
256,192,51574,1,0
256,192,51785,1,8
256,192,51995,1,0
256,192,52206,1,8
256,192,52416,1,0
256,192,52627,1,8
256,192,52837,1,0
256,192,53048,1,8
256,192,53258,1,8
256,192,53468,1,0
256,192,53679,1,8
256,192,53890,1,0
256,192,54101,1,8
256,192,54311,1,0
256,192,54522,1,8
256,192,54733,1,0
256,192,54943,1,8
256,192,55153,1,0
256,192,55364,1,8
256,192,55575,1,0
256,192,55785,1,0
256,192,55864,1,0
256,192,55943,1,0
256,192,56101,1,8
256,192,56259,1,0
256,192,56338,1,0
256,192,56417,1,0
256,192,56575,1,8
256,192,56733,1,0
256,192,56812,1,0
256,192,56891,1,0
256,192,57049,1,8
256,192,57207,1,0
256,192,57286,1,0
256,192,57365,1,0
256,192,57523,1,8
256,192,57681,1,0
256,192,57760,1,0
256,192,57839,1,0
256,192,57997,1,8
256,192,58154,1,0
256,192,58312,1,8
256,192,58391,1,8
256,192,58470,1,8
256,192,58628,1,0
256,192,58786,1,8
256,192,58865,1,8
256,192,58944,1,8
256,192,59102,1,0
256,192,59260,1,8
256,192,59339,1,8
256,192,59418,1,8
256,192,59576,1,0
256,192,59734,1,8
256,192,59813,1,8
256,192,59892,1,8
256,192,60050,1,0
256,192,60208,1,8
256,192,60287,1,8
256,192,60366,1,8
256,192,60524,1,0
256,192,60681,1,8
256,192,60839,1,12
256,192,60997,1,4
256,192,61155,1,4
256,192,61313,1,12
256,192,61471,1,4
256,192,61629,1,4
256,192,61787,1,12
256,192,61945,1,4
256,192,62103,1,4
256,192,62261,1,12
256,192,62419,1,4
256,192,62577,1,4
256,192,62735,1,12
256,192,62893,1,12
256,192,63051,1,12
256,192,63208,1,12
256,192,63366,1,0
256,192,63682,1,8
256,192,63998,1,0
256,192,64077,1,0
256,192,64156,1,0
256,192,64314,1,8
256,192,64630,1,0
256,192,64788,1,0
256,192,64946,1,8
256,192,65104,1,0
256,192,65262,1,0
256,192,65341,1,0
256,192,65420,1,0
256,192,65578,1,8
256,192,65735,1,8
256,192,65814,1,8
256,192,65893,1,0
256,192,66209,1,8
256,192,66525,1,0
256,192,66683,1,0
256,192,66841,1,8
256,192,66999,1,0
256,192,67078,1,0
256,192,67157,1,0
256,192,67315,1,8
256,192,67473,1,0
256,192,67631,1,8
256,192,67947,1,8
256,192,68026,1,8
256,192,68105,1,8
256,192,68184,1,8
256,192,68263,1,8
256,192,68420,1,0
256,192,68894,1,0
256,192,69210,1,8
256,192,69368,1,0
256,192,69684,1,8
256,192,69842,1,0
256,192,70158,1,8
256,192,70316,1,0
256,192,70474,1,0
256,192,70553,1,0
256,192,70632,1,8
256,192,70948,1,8
256,192,71105,1,0
256,192,71263,1,8
256,192,71421,1,0
256,192,71500,1,0
256,192,71579,1,8
256,192,71737,1,0
256,192,71895,1,8
256,192,72053,1,0
256,192,72132,1,0
256,192,72211,1,8
256,192,72369,1,0
256,192,72527,1,8
256,192,72685,1,0
256,192,72764,1,0
256,192,72843,1,8
256,192,73001,1,0
256,192,73159,1,0
256,192,73317,1,0
264,192,73475,5,0
264,192,73554,1,0
264,192,73632,1,0
264,192,73711,1,0
264,192,73790,1,8
264,192,73869,1,8
264,192,73948,1,8
264,192,74027,1,8
264,192,74106,5,0
264,192,74185,1,0
264,192,74263,1,0
264,192,74342,1,0
264,192,74421,1,8
264,192,74500,1,8
264,192,74579,1,8
264,192,74658,1,8
264,192,74738,1,0
264,192,74817,1,8
264,192,74896,1,0
264,192,74975,1,8
264,192,75054,1,0
264,192,75133,1,8
264,192,75212,1,0
264,192,75291,1,8
264,192,75370,1,8
264,192,75449,1,0
264,192,75528,1,8
264,192,75607,1,0
264,192,75686,1,8
264,192,75765,1,0
264,192,75844,1,8
264,192,75923,1,0
264,192,76002,1,0
264,192,76160,1,0
264,192,76317,1,8
264,192,76633,1,8
264,192,76791,1,0
264,192,76949,1,8
264,192,77265,1,0
264,192,77423,1,0
264,192,77581,1,8
264,192,77739,1,0
264,192,77897,1,0
264,192,78055,1,8
264,192,78213,1,0
264,192,78371,1,8
264,192,78529,1,0
264,192,78844,1,8
264,192,79002,1,0
264,192,79318,1,0
264,192,79634,1,0
264,192,79713,1,0
264,192,79792,1,8
264,192,80108,1,0
264,192,80266,1,8
264,192,80582,1,0
264,192,80740,1,8
264,192,80898,1,8
264,192,81056,1,0
264,192,81372,1,0
264,192,81529,1,0
264,192,81845,1,0
264,192,82003,1,0
264,192,82319,1,8
264,192,82477,1,0
264,192,82556,1,0
264,192,82635,1,8
264,192,82793,1,0
264,192,82951,1,8
264,192,83109,1,0
264,192,83188,1,0
264,192,83267,1,8
264,192,83583,1,0
264,192,83741,1,0
264,192,84057,1,0
264,192,84214,1,0
264,192,84530,1,0
264,192,84688,1,0
264,192,84846,1,8
264,192,84925,1,8
264,192,85004,1,8
264,192,85083,1,8
264,192,85162,1,8
264,192,85320,1,8
264,192,85399,1,8
264,192,85478,1,8
264,192,85557,1,8
264,192,85636,1,8
264,192,85794,1,8
264,192,85873,1,8
264,192,85952,1,8
264,192,86110,1,0
264,192,86268,1,0
264,192,86426,1,0
264,192,86584,1,8
264,192,86899,1,8
264,192,86978,1,8
264,192,87057,1,0
264,192,87373,1,0
264,192,87452,1,0
264,192,87531,1,8
264,192,87689,1,0
264,192,87847,1,8
264,192,88005,1,0
264,192,88084,1,0
264,192,88163,1,8
264,192,88242,1,8
264,192,88321,1,0
264,192,88479,1,8
264,192,88637,1,0
264,192,88953,1,8
264,192,89111,1,0
264,192,89426,1,0
264,192,89584,1,8
264,192,89900,1,0
264,192,89979,1,0
264,192,90058,1,8
264,192,90216,1,0
264,192,90295,1,8
264,192,90374,1,8
264,192,90532,1,0
264,192,90611,1,0
264,192,90690,1,0
264,192,90848,1,0
264,192,91006,1,8
264,192,91164,1,4
264,192,91322,1,4
264,192,91638,1,4
264,192,91796,1,4
264,192,91953,1,4
264,192,92111,1,4
264,192,92427,1,8
264,192,92585,1,0
264,192,92664,1,0
264,192,92743,1,8
264,192,92901,1,0
264,192,92980,1,0
264,192,93059,1,8
264,192,93138,1,8
264,192,93217,1,8
264,192,93296,1,8
264,192,93375,1,8
264,192,93691,1,4
264,192,93849,1,4
264,192,94165,1,4
264,192,94481,1,4
264,192,94638,1,4
264,192,94954,1,8
264,192,95033,1,8
264,192,95112,1,8
264,192,95191,1,0
264,192,95270,1,8
264,192,95586,1,8
264,192,95665,1,8
264,192,95744,1,8
264,192,95823,1,0
264,192,95902,1,8
264,192,96218,1,4
264,192,96376,1,4
264,192,96692,1,4
264,192,97008,1,12
264,192,97165,1,12
264,192,97481,1,0
264,192,97560,1,0
264,192,97639,1,8
264,192,97718,1,0
264,192,97797,1,0
264,192,97955,1,8
264,192,98113,1,0
264,192,98192,1,0
264,192,98271,1,0
264,192,98350,1,0
264,192,98429,1,8
264,192,98587,1,0
264,192,98666,1,0
264,192,98745,1,0
264,192,98824,1,0
264,192,98903,1,0
264,192,98982,1,0
264,192,99061,1,0
264,192,99219,1,0
264,192,99298,1,0
264,192,99377,1,0
264,192,99456,1,0
264,192,99535,1,0
264,192,99693,1,8
264,192,99772,1,0
264,192,99850,1,0
264,192,100008,1,0
264,192,100166,1,8
264,192,100482,1,0
264,192,100640,1,8
264,192,100956,1,8
264,192,101114,1,8
264,192,101272,1,8
264,192,101483,1,0
264,192,101693,1,8
264,192,101904,1,0
264,192,102114,1,8
264,192,102325,1,0
264,192,102535,1,8
264,192,102746,1,0
264,192,102957,1,8
264,192,103167,1,0
264,192,103378,1,8
264,192,103588,1,0
264,192,103799,1,0
264,192,104010,1,8
264,192,104220,1,0
264,192,104431,1,8
264,192,104641,1,0
264,192,104852,1,8
264,192,105062,1,0
264,192,105273,1,8
264,192,105484,1,0
264,192,105694,1,8
264,192,105905,1,0
264,192,106115,1,8
264,192,106326,1,0
264,192,106405,1,0
264,192,106484,1,0
264,192,106563,1,0
264,192,106642,1,0
264,192,106800,1,0
264,192,106879,1,0
264,192,106958,1,0
264,192,107037,1,0
264,192,107116,1,0
264,192,107274,1,0
264,192,107353,1,0
264,192,107432,1,0
264,192,107511,1,0
264,192,107590,1,0
264,192,107748,1,0
264,192,107827,1,0
264,192,107906,1,0
264,192,107985,1,0
264,192,108064,1,0
264,192,108221,1,0
264,192,108300,1,0
264,192,108379,1,0
264,192,108537,1,8
264,192,108616,1,0
264,192,108695,1,0
264,192,108853,1,8
264,192,108932,1,8
264,192,109011,1,8
264,192,109090,1,8
264,192,109169,1,8
264,192,109327,1,8
264,192,109406,1,8
264,192,109485,1,8
264,192,109564,1,8
264,192,109643,1,8
264,192,109801,1,8
264,192,109880,1,8
264,192,109959,1,8
264,192,110038,1,8
264,192,110117,1,8
264,192,110275,1,8
264,192,110354,1,8
264,192,110433,1,8
264,192,110512,1,8
264,192,110591,1,8
264,192,110748,1,8
264,192,110827,1,8
264,192,110906,1,8
264,192,111064,1,8
264,192,111143,1,8
264,192,111222,1,8
264,192,111380,1,12
264,192,111538,1,0
264,192,111617,1,0
264,192,111696,1,0
264,192,111854,1,12
264,192,112012,1,0
264,192,112091,1,0
264,192,112170,1,0
264,192,112328,1,12
264,192,112486,1,0
264,192,112565,1,0
264,192,112644,1,0
264,192,112802,1,12
264,192,112960,1,0
264,192,113039,1,0
264,192,113118,1,0
264,192,113275,1,0
264,192,113354,1,8
264,192,113433,1,0
264,192,113512,1,0
264,192,113591,1,8
264,192,113670,1,8
264,192,113749,1,8
264,192,113828,1,8
264,192,113907,1,0
