osu file format v9

[General]
AudioFilename: YouTube - Pokemon Black and White Wild Battle Music [Best Quality].mp3
AudioLeadIn: 2504
PreviewTime: 12826
Countdown: 0
SampleSet: Normal
StackLeniency: 0.7
Mode: 0
LetterboxInBreaks: 1

[Editor]
DistanceSpacing: 1
BeatDivisor: 4
GridSize: 4

[Metadata]
Title:Wild Battle Theme
Artist:Junichi Masuda
Creator:Xemnas768
Version:vs. Reshiram
Source:Pokemon Black & White
Tags:nintendo

[Difficulty]
HPDrainRate:6
CircleSize:5
OverallDifficulty:6
ApproachRate:6
SliderMultiplier:1.4
SliderTickRate:0.5

[Events]
//Background and Video events
0,0,"bg.jpg"
//Break Periods
//Storyboard Layer 0 (Background)
//Storyboard Layer 1 (Fail)
//Storyboard Layer 2 (Pass)
//Storyboard Layer 3 (Foreground)
//Storyboard Sound Samples
//Background Colour Transformations
3,100,163,162,255

[TimingPoints]
191,315.87947368421,4,1,1,60,1,0
2718,-100,4,2,1,100,0,0
5245,-100,4,1,1,61,0,0
7614,-100,4,2,1,61,0,0
7772,-100,4,2,1,100,0,0
10299,-100,4,1,1,59,0,0
11562,-100,4,1,1,70,0,0
12036,-100,4,1,1,89,0,0
12826,-100,4,1,1,70,0,0
30515,-100,4,1,1,59,0,0
50731,-100,4,1,1,64,0,1
63366,-100,4,1,1,60,0,0
76002,-100,4,1,1,81,0,0
101272,-100,4,1,1,81,0,1
113907,-100,4,1,1,81,0,0

[Colours]
Combo1 : 172,172,172
Combo2 : 74,74,74

[HitObjects]
72,56,191,2,0,B|128:112,1,70,2|0
176,104,506,2,0,B|232:48,1,70,2|0
280,56,822,2,0,B|344:120,1,70,2|0
384,104,1138,2,0,B|448:40,1,70,2|0
440,328,1454,6,0,B|384:272,1,70,2|0
336,280,1770,2,0,B|280:336,1,70,2|0
232,328,2086,2,0,B|168:264,1,70,2|0
128,280,2402,2,0,B|64:344,1,70,2|0
32,272,2718,6,0,B|32:224|96:200,2,70
32,344,3191,2,0,B|104:344,1,70
240,344,3665,1,0
384,344,3981,1,2
480,160,4455,1,2
344,160,4771,2,4,B|248:160,1,70
184,48,5245,5,0
112,48,5403,1,0
40,48,5560,1,0
40,120,5718,1,0
40,192,5876,2,8,B|128:192,3,70
176,192,6508,5,0
224,240,6666,1,0
272,288,6824,1,0
320,336,6982,2,8,B|320:248,4,70,8|8|8|8|10
392,336,7772,6,0,B|384:288|400:280|448:272,2,70
464,336,8245,1,0
464,120,8719,1,0
352,32,9035,5,2
256,216,9509,1,2
256,356,9825,1,2
472,192,10299,6,8,B|472:120,3,70
472,122,10930,1,0
472,122,11088,1,2
472,122,11246,1,2
384,192,11562,6,8,B|224:192,1,140
240,120,12036,2,8,B|392:120,1,140
376,48,12510,1,2
304,48,12668,1,2
232,48,12826,6,0,B|176:24|128:24|104:72,1,140,4|0
40,96,13299,2,0,B|40:152|64:208|120:208,1,140
104,280,13773,2,0,B|208:280|248:232,1,140
280,304,14247,1,2
336,344,14405,1,2
336,272,14563,1,2
480,272,14879,2,0,B|408:272,2,70
410,272,15353,6,0,B|424:216|400:144|368:136,1,140,0|8
328,88,15827,1,8
184,88,16142,1,8
136,136,16300,2,0,B|104:144|72:224|96:272,1,140,8|0
88,328,16774,1,0
160,328,16932,1,0
232,328,17090,2,0,B|312:328,3,70
400,232,17880,6,8,B|456:200|472:160|448:96,1,140
392,152,18354,2,8,B|376:88|320:64|288:64,1,140
304,136,18827,1,8
176,200,19143,6,8,B|32:200,1,140
32,272,19617,2,8,B|184:272,1,140
176,344,20091,1,8
32,344,20407,5,4
32,64,21039,1,4
304,64,21670,2,8,B|368:48|432:64|448:72,1,140,8|0
488,120,22144,2,0,B|472:208|400:232,1,140
400,160,22618,2,0,B|336:136|280:160|256:184,1,140,8|0
256,192,23250,8,4,24198
232,192,25145,6,0,B|272:192,4,35,0|0|0|0|4
24,24,26093,1,4
24,304,26724,1,4
232,304,27198,1,0
440,304,27672,1,0
440,160,27988,1,4
264,192,29093,2,0,B|200:192,2,35
456,32,30515,5,0
384,32,30673,1,0
240,32,30989,2,0,B|192:32|128:72|120:112,1,140,2|8
104,168,31463,1,8
104,304,31778,2,0,B|320:304,1,210
314,304,32331,1,0
314,304,32410,1,0
456,64,33042,5,0
384,64,33200,1,0
456,184,33516,1,2
336,336,33990,1,8
240,240,34305,2,4,B|208:192|112:184|56:256,1,210
57,253,34858,1,0
57,253,34937,1,0
48,48,35569,6,0,B|128:48,1,70
256,80,36043,2,0,B|296:40|392:40|448:56|472:88,1,210
456,216,36833,2,8,B|312:216,1,140
264,168,37306,2,8,B|216:128|176:128|152:136|128:136,1,140
160,200,37780,2,8,B|192:240|216:264|288:272,1,140
256,192,38412,8,0,39360
216,32,40623,6,0,B|296:32,2,70,2|0|8
144,32,41097,2,0,B|88:32|32:72|32:112|32:176|64:184,1,210,0|8
192,176,41887,2,0,B|408:176,1,210,4|8
440,176,42439,1,8
472,176,42518,1,12
232,336,43150,5,2
160,336,43308,1,0
160,264,43466,1,8
232,264,43624,1,0
96,304,43940,1,0
24,304,44098,1,8
24,160,44414,2,4,B|32:104|88:56|144:48|184:56,1,210,4|8
216,64,44966,1,8
248,72,45045,1,12
464,40,45677,6,0,B|464:120,2,70
416,88,46151,2,0,B|416:160,3,70
296,88,46941,2,0,B|256:64|208:64|160:96,1,140
80,208,47572,2,0,B|136:184|184:184|240:216,1,140
216,344,48204,2,0,B|312:344,2,70
216,272,48678,2,0,B|288:272,2,70
216,200,49152,1,0
288,200,49310,1,0
288,200,49389,1,0
288,200,49468,1,4
256,192,49626,8,4,50731
192,128,51047,6,0,B|256:192,1,70,2|0
192,224,51363,1,0
144,272,51521,2,0,B|200:328,1,70,2|0
264,328,51837,1,0
334,328,51995,2,0,B|390:272,1,70,2|0
336,232,52311,1,0
288,184,52469,2,0,B|344:128,1,70,2|0
288,80,52784,1,0
217,80,52942,2,2,B|161:136,1,70,2|0
120,176,53258,6,4,B|64:232,1,70,0|0
24,176,53574,1,2
72,120,53732,2,0,B|128:64,1,70,0|0
72,16,54048,1,2
144,16,54206,2,0,B|216:16,1,70,0|0
264,64,54522,1,2
312,112,54680,2,0,B|376:176,1,70,0|0
360,232,54996,1,2
312,280,55154,2,0,B|224:280,1,70
168,280,55469,1,2
168,352,55627,2,0,B|264:352,1,70,2|4
256,192,55943,8,0,57365
224,256,57681,6,8,B|304:256,1,70
256,120,58154,6,4,B|256:40,1,70
256,192,58470,8,4,60839
256,48,61313,5,8
104,192,61787,1,8
256,336,62261,1,8
408,192,62735,2,4,B|408:24,1,140,4|4
256,56,63366,6,0,B|256:208,1,140
192,232,63840,2,0,B|224:272|296:272|336:216,1,140
376,192,64314,1,8
472,88,64630,2,8,B|328:88,1,140
336,16,65104,2,8,B|480:16,1,140
472,88,65578,1,8
472,232,65893,6,0,B|456:280|400:320|376:328,1,140
256,264,66525,2,0,B|176:264,2,70
256,120,67157,1,8
256,48,67315,1,8
256,192,67631,2,0,B|304:240|416:216|448:168,1,210,8|0
440,312,68420,6,0,B|416:336|360:360|304:360,1,140,0|2
256,312,68894,1,0
208,264,69052,2,0,B|144:256|72:216,1,140,2|0
64,80,69684,6,0,B|120:24,2,70,0|0|2
114,129,70158,1,0
168,176,70316,2,0,B|240:176,2,70,2|0|0
291,109,70948,6,0,B|219:109,3,70,4|0|0|0
216,40,71579,2,0,B|288:40,3,70,4|0|0|0
360,40,72211,2,0,B|440:48|472:112|472:144,1,140
464,192,72685,2,0,B|472:280|392:320,1,140
336,320,73159,1,0
264,320,73317,1,0
264,248,73475,2,4,B|264:96,1,140
256,192,73869,8,0,74738
192,192,75686,5,0
224,192,75765,1,0
256,192,75844,1,0
288,192,75923,1,0
320,192,76002,1,4
328,336,76317,5,0
256,336,76475,1,0
184,336,76633,1,4
72,256,76949,1,0
144,256,77107,1,0
216,256,77265,1,4
256,120,77581,5,0
328,120,77739,1,4
440,200,78055,1,0
368,200,78213,1,0
368,336,78529,1,4
288,184,79634,5,0
256,184,79713,1,0
224,184,79792,1,4
216,32,81056,6,0,B|304:32,1,70
424,32,81529,2,0,B|464:64|464:104|464:168|360:192,1,210
240,192,82319,2,0,B|16:192,1,210
32,224,82872,1,0
32,256,82951,1,0
304,336,83583,6,0,B|368:272,1,70
304,240,83899,1,0
304,168,84057,1,0
472,72,84530,1,0
336,64,84846,2,0,B|288:48|200:64|184:80|160:152|168:168,1,210
168,184,85399,1,0
168,216,85478,1,0
48,328,86110,5,0
120,328,86268,1,0
192,328,86426,1,0
264,328,86584,2,0,B|504:328,1,210
472,184,87373,2,2,B|448:128|352:96|280:104,2,210
328,184,88637,2,8,B|328:216|312:264|216:296|152:288,2,210
192,192,89900,5,0
120,192,90058,1,2
128,328,90374,1,0
200,328,90532,1,2
344,328,90848,1,2
488,328,91164,5,0
488,256,91322,1,0
488,112,91638,2,0,B|456:56|344:16|280:32,1,210,0|8
160,32,92427,2,0,B|160:88|192:120|256:112,1,140,0|8
248,184,92901,2,8,B|176:184,1,70,8|4
104,320,93691,5,8
176,320,93849,1,0
248,320,94007,1,8
320,320,94165,2,0,B|392:296|432:256|440:224,1,140,2|0
432,168,94638,2,0,B|344:168,1,70
360,96,94954,2,0,B|448:96,2,70,4|0|0
288,96,95428,1,8
256,96,95507,1,8
224,96,95586,1,8
32,32,96218,6,0,B|32:120,1,70,0|2
96,224,96692,2,0,B|184:224,1,70,2|0
256,328,97165,1,0
408,256,97481,5,0
408,104,97797,1,0
256,40,98113,1,0
256,192,98429,1,0
112,112,98745,2,0,B|88:168|136:216|192:208,1,140,2|8
112,272,99219,2,0,B|400:272,1,280,8|8
424,272,99929,1,8
456,272,100008,1,8
256,192,100166,8,4,101272
216,116,101588,6,2,B|360:116,1,140,2|8
352,188,102062,2,2,B|184:188,1,140,2|8
144,192,102535,1,0
104,244,102693,1,2
104,320,102851,1,0
176,320,103009,2,2,B|256:320,2,70
176,248,103483,1,2
248,248,103641,1,2
320,248,103799,5,12
320,320,103957,1,0
392,320,104115,2,0,B|432:296|408:232,2,70,0|10|0
464,320,104589,1,0
464,248,104747,1,10
464,176,104905,2,0,B|464:96,1,70,0|2
392,104,105220,2,0,B|352:64|272:72|240:120,1,140,8|8
192,96,105694,1,10
192,168,105852,2,0,B|264:168,3,70,2|2|2|6
256,192,106484,8,0,107590
224,160,108221,6,0,B|304:160|304:160,2,70,2|8|10
224,232,108695,2,4,B|304:232,1,70
256,192,109011,8,8,111065
200,64,111380,5,4
160,200,111696,5,0
232,200,111854,1,4
208,336,112170,5,0
280,336,112328,1,4
384,240,112644,5,0
456,240,112802,1,4
456,96,113117,5,0
384,96,113275,1,4
240,96,113591,5,4
96,96,113907,5,4
