osu file format v9

[General]
AudioFilename: YouTube - Pokemon Black and White Wild Battle Music [Best Quality].mp3
AudioLeadIn: 2504
PreviewTime: 12826
Countdown: 0
SampleSet: Normal
StackLeniency: 0.7
Mode: 0
LetterboxInBreaks: 1

[Editor]
DistanceSpacing: 1
BeatDivisor: 4
GridSize: 8

[Metadata]
Title:Wild Battle Theme
Artist:Junichi Masuda
Creator:Xemnas768
Version:vs. Minezumi
Source:Pokemon Black & White
Tags:nintendo

[Difficulty]
HPDrainRate:3
CircleSize:3
OverallDifficulty:1
ApproachRate:1
SliderMultiplier:0.400000005960464
SliderTickRate:1

[Events]
//Background and Video events
0,0,"bg.jpg"
//Break Periods
//Storyboard Layer 0 (Background)
//Storyboard Layer 1 (Fail)
//Storyboard Layer 2 (Pass)
//Storyboard Layer 3 (Foreground)
//Storyboard Sound Samples
//Background Colour Transformations
3,100,163,162,255

[TimingPoints]
191,315.87947368421,4,1,1,60,1,0
2718,-100,4,2,1,100,0,0
5245,-100,4,1,1,61,0,0
7772,-100,4,2,1,100,0,0
10299,-100,4,1,1,59,0,0
12036,-100,4,1,1,70,0,0
29251,-100,4,1,1,81,0,0
30515,-100,4,1,1,61,0,0
50731,-100,4,1,1,81,0,1
63366,-100,4,1,1,60,0,0
81056,-100,4,1,1,79,0,0
101272,-100,4,1,1,80,0,1
113907,-100,4,1,1,79,0,0

[Colours]
Combo1 : 166,166,166
Combo2 : 81,81,81

[HitObjects]
256,192,191,8,0,2718
208,192,3981,6,0,B|312:192,1,100.000001490116
352,232,5245,2,2,B|440:232,3,80.0000011920929,0|10|0|10
376,288,7772,6,0,B|312:288,1,60.0000008940696
256,288,8719,1,0
216,288,9035,2,2,B|112:288,1,100.000001490116
256,192,10299,8,4,12827
128,96,14089,6,0,B|160:56|248:72,1,120.000001788139,2|8
280,72,15353,2,0,B|400:72,1,120.000001788139,4|8
400,112,16616,2,0,B|400:192,1,80.0000011920928,8|0
400,232,17564,1,0
360,232,17880,6,0,B|296:232,2,60.0000008940696,8|2|10
360,192,19143,2,0,B|360:128,2,60.0000008940696,8|2|10
320,192,20407,2,4,B|272:192|248:232,2,80.0000011920928,4|4|0
232,280,22618,2,8,B|272:296,1,40.0000005960464
384,184,24197,1,0
264,80,25461,6,4,B|232:48|192:56|184:64,2,80.0000011920928
224,120,27198,1,8
176,160,27672,2,2,B|128:160,1,40.0000005960464
56,304,29251,1,4
216,304,30515,6,0,B|280:304,1,60.0000008940696,0|8
376,304,31778,2,0,B|376:216,1,80.0000011920928,8|0
320,168,33042,6,0,B|256:168,1,60.0000008940696,2|10
256,272,34305,2,0,B|256:352,1,80.0000011920928,8|0
176,352,35569,6,2,B|112:352,1,60.0000008940696
48,280,36833,2,0,B|32:256|56:224|56:224,2,60.0000008940696
88,280,38096,2,0,B|176:280,2,80.0000011920928,0|0|0
200,168,40623,5,0
264,168,41097,2,0,B|368:168,1,100.000001490116,0|2
368,248,42518,1,8
368,328,43150,5,0
424,328,43624,2,0,B|480:328|480:256,1,100.000001490116,0|2
480,176,45045,1,8
480,96,45677,6,0,B|416:96,1,60.0000008940696
360,96,46625,1,0
320,96,46941,2,0,B|280:96,4,40.0000005960464,0|0|0|8|4
160,104,49468,1,0
160,264,50731,6,4,B|176:296|192:312|232:320|288:320|304:312|328:296|336:288,1,200.000002980232,4|8
368,264,52626,2,0,B|400:232|400:200|400:192,1,80.0000011920928,8|4
392,72,54206,6,8,B|344:72,1,40.0000005960464
392,144,55154,2,8,B|440:144,2,40.0000005960464,8|8|4
304,64,56733,6,10,B|272:32|240:40|248:40,1,60.0000008940696,10|8
200,64,57681,2,0,B|152:64,2,40.0000005960464,0|0|4
80,80,59260,2,8,B|96:160,1,80.0000011920928
208,192,60839,6,0,B|272:192,3,60.0000008940696,2|8|2|8
336,192,62735,2,4,B|376:192,2,40.0000005960464,2|2|4
232,264,64314,5,0
200,296,64630,2,0,B|200:376,2,80.0000011920928
112,216,66841,1,0
80,192,67157,2,0,B|80:160|112:144,1,60.0000008940696
200,72,68420,6,0,B|264:72,2,60.0000008940696,2|8|8
200,112,69684,2,0,B|264:112,2,60.0000008940696,2|8|8
184,144,70948,2,4,B|208:184|256:168,2,80.0000011920928,4|4|0
184,208,72685,2,0,B|184:272,1,60.0000008940696
216,296,73475,1,0
336,192,74738,1,0
216,192,75686,6,0,B|176:192,1,40.0000005960464,0|4
200,264,76633,1,4
280,264,77265,2,0,B|344:264,2,60.0000008940696,10|10|8
280,224,78529,2,0,B|280:144,2,80.0000011920928,0|0|4
368,88,81056,5,0
312,88,81529,2,2,B|248:88,1,60.0000008940696,0|8
208,88,82319,2,0,B|208:176,1,80.0000011920928,2|8
288,168,83583,5,0
352,168,84057,2,2,B|352:232,1,60.0000008940696
352,272,84846,2,0,B|328:288|296:288|272:272,1,80.0000011920928
200,272,86110,6,0,B|136:272,1,60.0000008940696
80,272,87057,1,0
80,232,87373,2,2,B|80:168,2,60.0000008940696
120,216,88637,2,0,B|168:216,3,40.0000005960464
200,216,89900,2,0,B|240:216,3,40.0000005960464
280,216,91164,5,8
344,216,91638,1,2
344,120,92427,1,4
264,120,93059,1,4
184,120,93691,5,8
184,176,94165,1,2
184,272,94954,1,4
264,272,95586,1,4
344,272,96218,6,8,B|408:272,1,60.0000008940696
464,272,97165,1,0
464,232,97481,2,2,B|464:184,4,40.0000005960464
464,72,100008,1,4
296,112,101272,6,2,B|256:88|208:88|184:112,1,120.000001788139,6|10
184,152,102535,2,2,B|216:176|264:176|304:168,1,120.000001788139
336,168,103799,6,2,B|384:168|408:192|400:232|384:248,1,120.000001788139,6|10
352,264,105062,2,2,B|336:288|296:312|256:320|248:320,1,120.000001788139,2|10
208,320,106326,6,0,B|208:32,1,280.000004172325
248,40,108853,6,0,B|328:40|400:72|424:168|424:224,1,280.000004172325,0|8
256,192,111380,8,4,113907
