osu file format v9

[General]
AudioFilename: YouTube - Pokemon Black and White Wild Battle Music [Best Quality].mp3
AudioLeadIn: 2504
PreviewTime: 12826
Countdown: 0
SampleSet: Normal
StackLeniency: 0.7
Mode: 0
LetterboxInBreaks: 1

[Editor]
DistanceSpacing: 1
BeatDivisor: 4
GridSize: 8

[Metadata]
Title:Wild Battle Theme
Artist:Junichi Masuda
Creator:Xemnas768
Version:vs. Kojondo
Source:Pokemon Black & White
Tags:nintendo

[Difficulty]
HPDrainRate:4
CircleSize:4
OverallDifficulty:4
ApproachRate:5
SliderMultiplier:0.800000005960464
SliderTickRate:1

[Events]
//Background and Video events
0,0,"bg.jpg"
//Break Periods
//Storyboard Layer 0 (Background)
//Storyboard Layer 1 (Fail)
//Storyboard Layer 2 (Pass)
//Storyboard Layer 3 (Foreground)
//Storyboard Sound Samples
//Background Colour Transformations
3,100,163,162,255

[TimingPoints]
191,315.87947368421,4,1,1,41,1,0
2718,-100,4,2,1,70,0,0
5245,-100,4,1,1,61,0,0
7772,-100,4,2,1,71,0,0
10299,-100,4,1,1,59,0,0
12036,-100,4,1,1,71,0,0
30515,-100,4,1,1,60,0,0
50731,-100,4,1,1,81,0,1
63366,-100,4,1,1,61,0,0
81056,-100,4,1,1,71,0,0
87373,-100,4,1,1,59,0,0
90058,-100,4,1,1,66,0,0
101272,-100,4,1,1,71,0,1
113907,-100,4,1,1,80,0,0

[Colours]
Combo1 : 177,177,177
Combo2 : 69,69,69

[HitObjects]
24,48,191,6,0,B|120:48,1,80.0000005960464,2|0
160,104,822,2,0,B|224:168,1,80.0000005960464,2|0
296,160,1454,6,0,B|360:96,1,80.0000005960464,2|0
408,48,2086,2,0,B|504:48,1,80.0000005960464,2|2
488,128,2718,5,0
488,248,3191,1,0
368,248,3665,1,0
288,248,3981,1,4
168,248,4455,1,2
88,248,4771,1,2
40,136,5245,6,2,B|72:88|144:88|192:120,1,160.000001192093
344,112,6508,2,2,B|352:152|432:176|488:120,1,160.000001192093
256,80,7772,5,0
168,168,8245,1,0
168,296,8719,1,0
248,296,9035,1,4
368,296,9509,1,2
448,296,9825,2,2,B|480:280|496:248|488:176,1,120.00000089407,2|0
384,72,10930,2,2,B|352:88|320:144|368:216,1,160.000001192093,2|0
256,192,11720,8,4,12826
432,304,13299,6,0,B|392:232|336:232,1,120.00000089407
336,312,14089,2,2,B|208:312,1,120.00000089407
136,312,14879,2,8,B|80:312,1,40.0000002980232
16,312,15353,2,0,B|16:224,2,80.0000005960464
80,264,16300,1,0
128,200,16616,2,8,B|176:200,1,40.0000002980232
248,200,17090,2,0,B|368:200,1,120.00000089407,2|0
416,136,17880,6,0,B|400:104|336:104,1,80.0000005960464,2|0
304,104,18354,2,0,B|216:104,1,80.0000005960464,2|0
184,104,18827,1,2
128,160,19143,2,0,B|112:208|176:240|200:232,2,120.00000089407,2|0|2
136,80,20407,2,4,B|216:32|296:88,1,160.000001192093
448,80,21670,2,0,B|448:200,1,120.00000089407,8|8
448,320,22618,1,0
368,320,22934,2,0,B|208:320,2,160.000001192093
168,192,25145,6,0,B|208:192,2,40.0000002980232,0|0|4
168,112,25777,1,8
168,32,26093,2,0,B|224:16|256:32,1,80.0000005960464,6|0
328,48,26724,2,2,B|376:56|392:104|368:144,2,120.00000089407
272,104,27988,2,0,B|200:104|160:152,2,120.00000089407
312,104,29093,2,0,B|360:104,1,40.0000002980232
256,192,29409,8,0,30515
416,64,30989,6,0,B|344:40|280:56,1,120.00000089407,0|8
216,56,31778,2,0,B|120:56,1,80.0000005960464
96,128,32410,2,8,B|152:128,2,40.0000002980232
96,208,33042,5,8
96,248,33200,1,8
96,328,33516,2,0,B|152:352|216:320,1,120.00000089407
216,240,34305,2,2,B|232:200|288:184,2,80.0000005960464,2|2|2
328,352,35569,5,8
368,352,35727,1,8
448,352,36043,2,0,B|512:320|488:232,1,120.00000089407
440,192,36833,2,2,B|392:144|328:176,2,120.00000089407
256,192,38096,8,0,40623
144,192,41097,6,0,B|264:192,1,120.00000089407,0|8
320,128,41887,2,2,B|368:152|392:216|312:256,1,160.000001192093
176,320,43150,2,0,B|232:320,2,40.0000002980232,0|0|8
136,320,43624,2,0,B|72:320|48:248,1,120.00000089407,8|0
48,168,44414,2,2,B|88:120|184:144|208:176,1,160.000001192093
312,48,45677,6,0,B|376:32|432:56,1,120.00000089407
432,176,46625,1,0
376,232,46941,2,4,B|288:232,3,80.0000005960464
216,232,48204,2,4,B|112:224|104:136,1,160.000001192093,4|0
192,56,49310,2,0,B|224:56,2,20.0000001490116
256,192,49626,8,0,50732
104,96,51363,5,0
144,96,51521,1,0
184,96,51679,1,2
264,96,51995,1,0
344,96,52311,1,2
424,96,52626,1,0
424,136,52784,1,0
424,176,52942,1,2
424,256,53258,6,8,B|368:312|264:296,1,160.000001192093
192,296,54206,1,8
152,296,54364,1,8
112,296,54522,1,8
112,216,54838,1,2
112,136,55154,1,8
152,136,55311,1,8
192,136,55469,1,8
192,56,55785,6,2,B|240:24|320:32,1,120.00000089407,2|10
424,56,56733,1,2
424,96,56891,1,2
424,176,57207,1,8
384,176,57365,1,2
344,176,57523,1,0
344,216,57681,1,2
344,256,57839,1,0
384,256,57996,1,2
384,336,58312,6,8,B|328:336,1,40.0000002980232
264,336,58786,2,8,B|208:336,1,40.0000002980232
144,336,59260,2,8,B|104:336,1,40.0000002980232
32,296,59734,2,8,B|32:240,1,40.0000002980232
104,224,60208,2,8,B|136:200,2,40.0000002980232
160,280,60839,6,2,B|192:336|280:320,1,120.00000089407
384,320,61787,2,2,B|456:312|480:256,1,120.00000089407
392,176,62735,2,0,B|312:176,1,80.0000005960464
256,232,63366,5,4
176,144,63840,1,0
256,56,64314,1,0
336,56,64630,2,0,B|400:48|424:64,1,80.0000005960464,0|2
440,88,65104,1,2
440,168,65420,1,10
440,208,65578,1,10
440,288,65893,6,0,B|384:336|272:328,1,160.000001192093
208,328,66841,1,0
128,312,67157,2,8,B|104:296|88:272,1,40.0000002980232
64,216,67631,2,0,B|40:144|112:96,1,120.00000089407,4|0
168,64,68420,6,0,B|232:40|264:64|280:88,1,120.00000089407,0|8
192,168,69368,1,8
248,224,69684,2,0,B|320:272|368:224,1,120.00000089407,0|8
448,144,70632,1,0
392,88,70948,5,4
232,88,71579,1,4
72,88,72211,1,0
112,200,72685,1,2
216,264,73159,1,8
256,192,73475,8,4,76003
256,128,76633,5,4
400,192,77265,2,0,B|304:192,1,80.0000005960464,4|0
320,232,77739,1,6
200,232,78213,1,2
120,232,78529,1,2
120,152,78844,2,8,B|120:96,1,40.0000002980232
248,24,79634,2,0,B|280:24,2,20.0000001490116
256,192,79950,8,0,81055
56,192,81529,6,0,B|96:224|144:224,1,80.0000005960464,2|8
168,232,82003,1,8
224,176,82319,2,0,B|248:152|312:144|360:160|384:184,1,160.000001192093,4|0
296,320,83583,6,8,B|336:320,3,40.0000002980232
416,320,84372,1,0
456,320,84530,1,2
456,240,84846,2,4,B|464:176|448:152|416:120,1,120.00000089407
400,104,85478,1,4
248,32,86110,5,8
208,40,86268,1,8
128,72,86584,2,4,B|56:112|56:176,1,120.00000089407,4|8
80,240,87373,5,4
256,240,87847,1,4
440,240,88321,1,4
440,320,88637,2,0,B|416:352|280:360,1,160.000001192093
168,360,89742,2,0,B|136:360,2,20.0000001490116
256,192,90058,8,0,91164
256,32,91638,6,0,B|232:40|240:88|280:136|232:152,1,120.00000089407,0|8
176,192,92427,2,2,B|208:224|248:232|304:216|336:184,1,160.000001192093
440,304,93691,6,8,B|392:304,1,40.0000002980232
320,304,94165,1,0
240,304,94481,1,8
200,304,94638,1,8
120,304,94954,2,2,B|56:296|24:248|40:184|48:176,1,160.000001192093
176,96,96218,6,0,B|216:96,3,40.0000002980232,8|0|0|8
336,96,97165,1,0
256,96,97481,2,2,B|256:184,1,80.0000005960464,2|10
200,232,98113,2,2,B|296:232,1,80.0000005960464,2|10
256,192,98745,8,4,101273
128,64,101746,5,2
208,64,102062,1,8
248,64,102220,1,8
328,64,102535,1,2
408,64,102851,1,2
488,64,103167,1,8
488,104,103325,1,8
488,144,103483,1,8
432,200,103799,5,4
344,280,104273,1,8
264,280,104589,1,8
224,280,104747,1,0
144,280,105062,1,8
64,280,105378,1,0
64,200,105694,1,8
96,184,105852,1,0
136,168,106010,1,8
216,168,106326,6,4,B|304:168,1,80.0000005960464,0|8
328,200,106800,2,0,B|408:200,1,80.0000005960464,0|8
432,168,107274,2,0,B|376:112,1,80.0000005960464,0|8
400,80,107747,2,0,B|304:80,1,80.0000005960464,0|8
280,80,108221,2,8,B|280:128,3,40.0000002980232
280,160,108853,6,0,B|192:160,2,80.0000005960464,2|8|2
360,160,109801,2,0,B|360:208,1,40.0000002980232,2|10
360,240,110117,2,0,B|264:240,1,80.0000005960464,10|8
280,320,110748,2,8,B|224:320,4,40.0000002980232,10|8|10|8|4
416,248,111854,5,8
256,248,112328,1,6
96,248,112802,1,8
104,96,113275,1,6
200,96,113591,2,4,B|232:64,2,40.0000002980232,6|0|4
