osu file format v5

[General]
AudioFilename: Pokemon Heart Gold Soul Silver OST Lance and Red Theme! with Sprites!.mp3
AudioLeadIn: 0
PreviewTime: -1
Countdown: 1
SampleSet: Soft
StackLeniency: 0.7
Mode: 0
LetterboxInBreaks: 1

[Editor]
DistanceSpacing: 0.800000011920929
BeatDivisor: 4
GridSize: 32

[Metadata]
Title:Pokemon HG/SS Red Battle
Artist:Junichi Masuda
Creator:Aserdun
Version:Gym Leader
Source:Pokemon
Tags:Pokemon Hearth Gold

[Difficulty]
HPDrainRate:6
CircleSize:5
OverallDifficulty:6
SliderMultiplier:1.4
SliderTickRate:1

[Events]
//Background and Video events
0,0,"wallpaper_01_1280x1024.jpg"
//Break Periods
2,25717,29426
//Storyboard Layer 0 (Background)
//Storyboard Layer 1 (Fail)
//Storyboard Layer 2 (Pass)
//Storyboard Layer 3 (Foreground)
//Storyboard Sound Samples
//Background Colour Transformations
3,100,163,162,255

[TimingPoints]
12323.6482350648,326.086956521739,4,2,0,100,1,0

[Colours]
Combo1 : 255,255,255
Combo2 : 128,128,0
Combo3 : 192,192,192
Combo4 : 255,0,0

[HitObjects]
96,96,12325,1,0
96,96,12649,1,0
192,96,12975,1,0
192,96,13301,1,0
288,96,13627,1,0
288,96,13954,1,0
384,96,14280,1,0
384,96,14606,1,0
384,192,14932,5,0
384,192,15258,1,0
352,288,15584,1,0
352,288,15910,1,0
224,288,16236,1,0
224,288,16562,1,0
96,288,16888,1,0
96,288,17214,1,0
64,160,17541,5,0
64,160,17867,1,0
160,96,18193,1,0
160,96,18519,1,0
288,96,18845,1,0
288,96,19171,1,0
384,160,19497,1,0
384,160,19823,1,0
384,256,20149,5,0
384,256,20475,1,0
288,320,20801,1,0
288,320,21127,1,0
192,320,21454,1,0
192,320,21780,1,0
256,192,22106,1,0
256,192,22432,1,0
256,192,22513,12,0,25367
100,107,30584,5,0
100,107,31073,1,0
288,96,32541,1,0
288,96,32867,1,0
288,96,33193,1,0
101,181,33845,1,0
219,95,34497,1,0
228,226,35149,1,0
361,130,35720,5,0
361,130,35910,1,0
361,130,36236,1,0
361,130,36562,1,0
361,130,36888,1,0
361,130,37214,1,0
361,130,37541,1,0
361,130,37758,1,0
55,126,38329,5,0
55,126,38519,1,0
55,126,38845,1,0
55,126,39171,1,0
55,126,39497,1,0
55,126,39823,1,0
55,126,40149,1,0
55,126,40367,1,0
229,313,41019,5,0
371,308,41671,1,0
250,213,42323,1,0
242,125,42975,1,0
256,192,43627,12,0,46073
256,192,46399,12,0,47595
256,192,47649,12,0,48845
49,85,50149,5,0
49,85,50258,1,0
114,82,50475,1,0
114,82,50584,1,0
189,87,50801,1,0
189,87,51127,1,0
288,288,52730,5,0
288,288,52839,1,0
353,285,53056,1,0
353,285,53165,1,0
428,290,53382,1,0
428,290,53708,1,0
256,192,54062,12,0,57975
69,102,59280,5,0
69,102,59606,5,0
160,94,59932,1,0
160,94,60258,1,0
246,92,60584,1,0
246,92,60910,1,0
343,94,61236,1,0
343,94,61562,1,0
352,192,61888,5,0
352,192,62214,1,0
352,288,62541,1,0
352,288,62867,1,0
256,288,63193,1,0
256,288,63519,1,0
153,286,63845,1,0
153,286,64171,1,0
256,192,64497,12,0,68193
256,189,68981,5,4
