osu file format v5

[General]
AudioFilename: Pokemon Heart Gold Soul Silver OST Lance and Red Theme! with Sprites!.mp3
AudioLeadIn: 0
PreviewTime: -1
Countdown: 1
SampleSet: Soft
StackLeniency: 0.7
Mode: 0
LetterboxInBreaks: 1

[Editor]
DistanceSpacing: 0.800000011920929
BeatDivisor: 4
GridSize: 32

[Metadata]
Title:Pokemon HG/SS Red Battle
Artist:Junichi Masuda
Creator:Aserdun
Version:Elite 4
Source:Pokemon
Tags:Pokemon Hearth Gold

[Difficulty]
HPDrainRate:7
CircleSize:6
OverallDifficulty:8
SliderMultiplier:1.5
SliderTickRate:2

[Events]
//Background and Video events
0,0,"wallpaper_01_1280x1024.jpg"
//Break Periods
2,19956,21791
2,30391,32335
2,53978,58422
//Storyboard Layer 0 (Background)
//Storyboard Layer 1 (Fail)
//Storyboard Layer 2 (Pass)
//Storyboard Layer 3 (Foreground)
//Storyboard Sound Samples
//Background Colour Transformations
3,100,163,162,255

[TimingPoints]
12323.6482350648,326.086956521739,4,2,0,100,1,0

[Colours]
Combo1 : 255,255,255
Combo2 : 128,128,0
Combo3 : 192,192,192
Combo4 : 255,0,0

[HitObjects]
96,96,3887,1,0
96,96,4213,1,0
160,96,4539,1,0
160,96,4648,1,0
224,96,5191,1,0
224,96,5300,1,0
288,96,5843,1,0
288,96,5952,1,0
352,96,6496,1,0
352,96,6604,1,0
352,96,6740,1,0
384,288,8452,5,0
384,288,8561,1,0
320,288,9078,1,0
320,288,9186,1,0
320,288,9322,1,0
288,288,9756,1,0
288,288,9838,1,0
224,288,10409,1,0
224,288,10517,1,0
160,288,11061,1,0
160,288,11169,1,0
96,288,11713,1,0
96,288,11822,1,0
96,192,11997,1,0
96,96,12323,6,0,B|256:96,7,150
384,192,14932,6,0,B|224:192,7,150
64,96,17541,5,0
64,96,17867,1,0
128,96,18193,1,0
128,96,18519,1,0
224,96,18845,1,0
224,96,19171,1,0
320,96,19497,1,0
320,96,19823,1,0
416,64,22676,6,0,B|288:160,5,150
64,96,25258,5,0
64,96,25801,1,0
160,96,26236,1,0
160,96,26454,1,0
224,96,26671,1,0
224,96,26997,1,0
320,96,27323,1,0
320,96,27649,1,0
416,96,27975,1,0
416,192,28519,1,0
288,192,29171,5,0
288,192,29388,1,0
288,192,29497,1,0
224,192,29823,1,0
224,192,30041,1,0
224,192,30149,1,0
96,96,33193,5,0
160,96,33845,1,0
224,96,34497,1,0
320,96,35149,1,0
384,288,35693,1,0
384,288,35910,1,0
384,288,36236,1,0
384,288,36562,1,0
384,288,36888,1,0
384,288,37214,1,0
384,288,37541,1,0
384,288,37758,1,0
64,288,38329,5,0
64,288,38546,1,0
64,288,38872,1,0
64,288,39198,1,0
64,288,39524,1,0
64,288,39850,1,0
64,288,40177,1,0
64,288,40394,1,0
96,160,41019,5,0
192,160,41671,1,0
288,160,42323,1,0
384,160,42975,1,0
256,192,43627,12,0,45475
256,192,45910,12,0,46997
256,192,47432,12,0,48845
128,96,50203,5,0
128,96,50312,1,0
128,96,50529,1,0
128,96,50638,1,0
128,96,50855,1,0
128,96,51181,1,0
416,96,52758,5,0
416,96,52867,1,0
416,96,53084,1,0
416,96,53193,1,0
416,96,53410,1,0
416,96,53736,1,0
96,64,59280,5,0
96,64,59606,1,0
192,64,59932,1,0
192,64,60258,1,0
288,64,60584,1,0
288,64,60910,1,0
352,64,61236,1,0
352,64,61562,1,0
416,288,61888,5,0
416,288,62214,1,0
352,288,62541,1,0
352,288,62867,1,0
256,288,63193,1,0
256,288,63519,1,0
192,288,63845,1,0
192,288,64171,1,0
96,192,64497,5,0
192,160,65149,5,0
288,160,65801,5,0
352,160,66454,5,0
448,256,67106,5,0
352,256,67758,5,0
256,256,68410,5,0
256,192,69062,5,4
