osu file format v13

[General]
AudioFilename: Pokemon Heart Gold_Soul Silver - Johto Gym_Elite Four Battle Music.mp3
AudioLeadIn: 3000
PreviewTime: 51009
Countdown: 1
SampleSet: Soft
StackLeniency: 0.7
Mode: 0
LetterboxInBreaks: 1
CountdownOffset: 3
WidescreenStoryboard: 0

[Editor]
DistanceSpacing: 1.6
BeatDivisor: 4
GridSize: 16
TimelineZoom: 1

[Metadata]
Title:Pokemon HG & SS - Gym Leader Battle
TitleUnicode:Pokemon HG & SS - Gym Leader Battle
Artist:Junichi Masuda
ArtistUnicode:Junichi Masuda
Creator:Simotorre
Version:Insane - Celebi
Source:Pokemon HG&SS
Tags:Pokemon Heart Gold Soul Silver Gym Leader Battle
BeatmapID:251191
BeatmapSetID:93021

[Difficulty]
HPDrainRate:10
CircleSize:6
OverallDifficulty:9
ApproachRate:9
SliderMultiplier:2.6
SliderTickRate:1

[Events]
//Background and Video events
0,0,"celebi_for_draw_me_a_pokemon_by_crimsonwingedkitten-d3g58ap.jpg",0,0
//Break Periods
2,40846,45327
//Storyboard Layer 0 (Background)
//Storyboard Layer 1 (Fail)
//Storyboard Layer 2 (Pass)
//Storyboard Layer 3 (Foreground)
//Storyboard Sound Samples
//Background Colour Transformations
3,100,163,162,255

[TimingPoints]
194,635.189498200297,4,2,0,80,1,0
51009,-100,4,2,0,80,0,1
66253,-100,4,2,0,80,0,0

[Colours]
Combo1 : 0,255,0
Combo2 : 0,64,0
Combo3 : 0,128,0

[HitObjects]
0,48,194,6,0,B|64:48,1,65,10|0,0:0|0:0,0:0:0:0:
48,144,511,2,0,B|112:144,1,65,10|0,0:0|0:0,0:0:0:0:
96,240,829,2,0,B|160:240,1,65,10|0,0:0|0:0,0:0:0:0:
176,336,1146,2,0,B|240:336,1,65,10|0,0:0|0:0,0:0:0:0:
336,336,1464,6,0,B|272:336,1,65,8|0,0:0|0:0,0:0:0:0:
320,240,1781,2,0,B|384:240,1,65,8|0,0:0|0:0,0:0:0:0:
432,144,2099,2,0,B|368:144,1,65,8|0,0:0|0:0,0:0:0:0:
432,64,2417,2,0,B|496:64,1,65,8|0,0:0|0:0,0:0:0:0:
400,64,2734,5,2,0:0:0:0:
96,64,3211,1,0,0:0:0:0:
256,336,3687,1,2,0:0:0:0:
352,320,3846,1,0,0:0:0:0:
432,256,4005,2,0,B|432:160|432:160|432:48,1,195
256,336,4957,1,2,0:0:0:0:
160,320,5116,1,0,0:0:0:0:
80,256,5275,2,0,B|80:144|80:48,1,195
256,336,6228,2,0,B|256:272,4,65,2|0|2|0|2,0:0|0:0|0:0|0:0|0:0,0:0:0:0:
256,336,7022,1,4,0:0:0:0:
256,32,7498,1,0,0:0:0:0:
400,192,7816,5,0,0:0:0:0:
96,192,8292,1,2,0:0:0:0:
368,48,8769,2,0,B|432:48,2,65
256,336,9563,1,2,0:0:0:0:
128,48,10039,2,0,B|48:48,2,65
256,336,10833,1,2,0:0:0:0:
256,32,11309,2,0,B|256:128,2,65
96,304,12103,1,2,0:0:0:0:
416,304,12580,1,8,0:0:0:0:
288,128,12897,6,0,B|224:128,3,65,8|0|0|0,0:0|0:0|0:0|0:0,0:0:0:0:
144,208,13532,1,2,0:0:0:0:
64,128,13691,1,0,0:0:0:0:
144,48,13850,1,2,0:0:0:0:
224,128,14009,1,0,0:0:0:0:
224,240,14168,6,0,B|288:240,3,65,8|0|0|0,0:0|0:0|0:0|0:0,0:0:0:0:
368,160,14803,1,2,0:0:0:0:
448,240,14962,1,0,0:0:0:0:
368,320,15120,1,2,0:0:0:0:
288,240,15279,1,0,0:0:0:0:
256,144,15438,6,0,B|256:64,5,65,4|0|0|0|0|0,0:0|0:0|0:0|0:0|0:0|0:0,0:0:0:0:
208,176,16391,2,0,B|208:208|240:224|272:224|304:208|304:160,1,130,8|4,0:0|0:0,0:0:0:0:
400,112,17661,1,2,0:0:0:0:
448,192,17979,6,0,B|448:320|320:320,1,195,8|0,0:0|0:0,0:0:0:0:
288,224,18614,2,0,B|224:224,3,65,2|0|2|0,0:0|0:0|0:0|0:0,0:0:0:0:
192,320,19249,2,0,B|64:320|64:192,1,195,8|0,0:0|0:0,0:0:0:0:
64,96,19884,2,0,B|128:96,4,65,2|0|2|0|2,0:0|0:0|0:0|0:0|0:0,0:0:0:0:
432,304,21155,1,0,0:0:0:0:
80,80,21790,1,0,0:0:0:0:
432,304,22425,1,0,0:0:0:0:
16,304,23060,6,0,B|80:336|144:304,1,130,4|0,0:0|0:0,0:0:0:0:
80,224,23537,2,0,B|144:192|224:224,1,130,4|0,0:0|0:0,0:0:0:0:
256,304,24013,2,0,B|320:336|384:304,1,130,4|0,0:0|0:0,0:0:0:0:
112,144,24807,1,0,0:0:0:0:
400,48,25283,1,0,0:0:0:0:
224,160,25601,2,0,B|224:288|352:288,2,195,4|4|4,0:0|0:0|0:0,0:0:0:0:
416,224,26871,2,0,B|416:96|288:96,2,195,4|4|4,0:0|0:0|0:0,0:0:0:0:
224,288,28142,5,2,0:0:0:0:
128,240,28301,1,0,0:0:0:0:
128,144,28459,1,0,0:0:0:0:
224,96,28618,1,0,0:0:0:0:
320,144,28777,1,0,0:0:0:0:
320,240,28936,1,0,0:0:0:0:
224,288,29095,1,0,0:0:0:0:
128,240,29253,1,0,0:0:0:0:
128,144,29412,6,0,L|192:96,1,65,2|0,0:0|0:0,0:0:0:0:
272,144,29730,2,0,L|224:96,1,65
208,192,30047,2,0,L|208:256,1,65
320,256,30365,2,0,L|320:176,1,65
400,256,30683,6,0,B|400:208|400:112,3,130,4|0|0|0,0:0|0:0|0:0|0:0,0:0:0:0:
192,128,31953,2,0,B|192:192|192:272,3,130,4|0|4|0,0:0|0:0|0:0|0:0,0:0:0:0:
288,304,33065,2,0,B|208:304,1,65,8|2,0:0|0:0,0:0:0:0:
288,224,33382,2,0,B|368:224,1,65
288,144,33700,2,0,B|176:144,1,65
288,64,34017,2,0,B|368:64,1,65
416,144,34335,5,0,0:0:0:0:
336,224,34494,1,2,0:0:0:0:
256,288,34653,1,0,0:0:0:0:
176,224,34811,1,0,0:0:0:0:
96,144,34970,1,0,0:0:0:0:
208,144,35129,1,0,0:0:0:0:
320,144,35288,1,0,0:0:0:0:
256,224,35447,1,0,0:0:0:0:
256,224,35605,1,0,0:0:0:0:
256,192,35764,12,0,39575,0:0:0:0:
336,320,45927,6,0,B|416:336|464:320,2,130,8|0|0,0:0|0:0|0:0,0:0:0:0:
256,256,46721,1,0,0:0:0:0:
176,192,46880,1,2,0:0:0:0:
256,128,47039,1,0,0:0:0:0:
336,64,47198,2,0,B|400:48|464:64,2,130,8|0|0,0:0|0:0|0:0,0:0:0:0:
304,160,47992,1,0,0:0:0:0:
256,256,48150,1,2,0:0:0:0:
208,160,48309,1,0,0:0:0:0:
176,64,48468,2,0,B|112:48|48:64,2,130,8|0|0,0:0|0:0|0:0,0:0:0:0:
256,128,49262,1,0,0:0:0:0:
336,192,49421,1,2,0:0:0:0:
256,256,49579,1,0,0:0:0:0:
176,320,49738,2,0,B|112:336|48:320,2,130,8|0|0,0:0|0:0|0:0,0:0:0:0:
208,224,50532,1,0,0:0:0:0:
256,128,50691,1,2,0:0:0:0:
304,224,50850,1,0,0:0:0:0:
256,320,51009,5,8,0:0:0:0:
48,96,51644,2,0,B|112:64,1,65,2|0,0:0|0:0,0:0:0:0:
208,48,51961,1,0,0:0:0:0:
304,80,52120,2,0,B|384:128,1,65,2|0,0:0|0:0,0:0:0:0:
208,256,52597,1,0,0:0:0:0:
416,256,52914,2,0,B|304:256,3,65
256,288,53549,2,0,B|256:208,1,65,2|0,0:0|0:0,0:0:0:0:
144,224,53867,2,0,B|144:304,1,65,2|0,0:0|0:0,0:0:0:0:
144,192,54185,2,0,B|144:128,1,65,2|0,0:0|0:0,0:0:0:0:
256,128,54502,2,0,B|256:208,1,65,2|0,0:0|0:0,0:0:0:0:
352,160,54820,5,0,0:0:0:0:
336,64,54979,2,0,L|224:64,1,65
368,64,55296,2,0,L|448:64,1,65
352,128,55614,1,0,0:0:0:0:
352,240,55773,1,0,0:0:0:0:
352,240,55931,2,0,L|352:304,1,65
48,16,56725,6,0,B|48:96,1,65
144,96,57043,2,0,B|144:176,1,65
80,240,57361,1,2,0:0:0:0:
80,240,57678,1,0,0:0:0:0:
288,240,57996,1,0,0:0:0:0:
288,240,58313,1,2,0:0:0:0:
96,320,58631,6,0,B|240:320,1,130,4|2,0:0|0:0,0:0:0:0:
432,320,59266,2,0,B|432:176,1,130,4|2,0:0|0:0,0:0:0:0:
288,48,59901,2,0,B|352:48,8,65
48,352,61807,1,0,0:0:0:0:
464,352,62442,1,0,0:0:0:0:
256,0,63077,1,0,0:0:0:0:
48,256,63712,6,0,B|64:320|160:320,1,130,8|4,0:0|0:0,0:0:0:0:
352,320,64348,2,0,B|432:320|464:256,1,130,8|4,0:0|0:0,0:0:0:0:
256,240,64983,1,0,0:0:0:0:
352,224,65142,1,0,0:0:0:0:
256,208,65300,1,0,0:0:0:0:
160,192,65459,1,0,0:0:0:0:
256,176,65618,1,0,0:0:0:0:
352,160,65777,1,0,0:0:0:0:
256,144,65936,1,0,0:0:0:0:
160,128,66094,1,0,0:0:0:0:
256,112,66253,1,0,0:0:0:0:
64,80,67524,6,0,B|160:16|256:80,1,195,2|0,0:0|0:0,0:0:0:0:
336,128,68159,1,0,0:0:0:0:
464,304,68476,1,0,0:0:0:0:
256,304,68794,2,0,B|160:368|64:304,1,195,2|0,0:0|0:0,0:0:0:0:
160,256,69429,1,0,0:0:0:0:
336,144,69747,1,0,0:0:0:0:
144,80,70064,2,0,B|240:0|352:80,1,195,2|0,0:0|0:0,0:0:0:0:
416,112,70700,1,0,0:0:0:0:
416,320,71017,1,0,0:0:0:0:
208,320,71335,2,0,B|112:368|16:304,1,195,2|0,0:0|0:0,0:0:0:0:
48,208,71970,1,0,0:0:0:0:
256,192,72288,1,0,0:0:0:0:
256,192,72605,12,0,75781,0:0:0:0:
