osu file format v14

[General]
AudioFilename: 104-oak_research_lab.mp3
AudioLeadIn: 1000
PreviewTime: 1067
Countdown: 0
SampleSet: Soft
StackLeniency: 0.7
Mode: 0
LetterboxInBreaks: 0
WidescreenStoryboard: 0

[Editor]
DistanceSpacing: 1
BeatDivisor: 2
GridSize: 4
TimelineZoom: 1.7

[Metadata]
Title:Okido Laboratory
TitleUnicode:オーキド研究所
Artist:Junichi Masuda
ArtistUnicode:増田順一
Creator:P o M u T a
Version:Normal
Source:Pokémon
Tags:Pokemon red blue green yellow edition nintendo game freak gameboy pomuta kyshiro Irreversible pocket monster Professor Samuel Oak yukinari 오용호 오박사 Carvalho 大木博士 ポケモン ポケットモンスター bgm 포켓몬 포켓몬스터
BeatmapID:471539
BeatmapSetID:198655

[Difficulty]
HPDrainRate:4
CircleSize:3
OverallDifficulty:4
ApproachRate:5
SliderMultiplier:1.2
SliderTickRate:2

[Events]
//Background and Video events
0,0,"f5a0e00b.jpg",0,0
//Break Periods
//Storyboard Layer 0 (Background)
//Storyboard Layer 1 (Fail)
//Storyboard Layer 2 (Pass)
//Storyboard Layer 3 (Foreground)
//Storyboard Sound Samples

[TimingPoints]
1067,439.56043956044,4,2,0,60,1,0
1930,439.56043956044,4,2,0,60,1,0
33578,-100,4,2,0,50,0,0
34457,-100,4,2,0,40,0,0
35336,-100,4,2,0,30,0,0
36215,-100,4,2,0,20,0,0
37094,-100,4,2,0,10,0,0

[Colours]
Combo1 : 4,251,165
Combo2 : 172,240,15
Combo3 : 251,224,174
Combo4 : 192,192,192

[HitObjects]
245,109,1067,6,0,P|246:79|252:49,2,60,2|2|0,0:0|0:0|0:0,0:0:0:0:
266,165,1726,1,2,0:0:0:0:
306,204,1930,6,0,P|369:218|421:198,1,120,4|0,0:0|0:0,0:0:0:0:
454,150,2589,1,0,0:0:0:0:
482,97,2809,2,0,L|468:32,2,60,2|0|0,0:0|0:0|0:0,0:0:0:0:
499,215,3688,2,0,L|485:288,1,60,2|0,0:0|0:0,0:0:0:0:
462,328,4127,2,0,P|436:340|402:345,1,60,0|2,0:0|0:0,0:0:0:0:
285,351,4787,2,0,L|221:362,2,60,0|2|0,0:0|0:0|0:0,0:0:0:0:
314,298,5446,6,0,P|318:237|291:183,1,120,4|0,0:0|0:0,0:0:0:0:
243,151,6105,1,0,0:0:0:0:
185,132,6325,2,0,L|55:131,1,120,2|0,0:0|0:0,0:0:0:0:
14,240,7204,2,0,L|118:240,1,60,2|0,0:0|0:0,0:0:0:0:
114,285,7644,2,0,L|218:285,1,60,0|2,0:0|0:0,0:0:0:0:
281,231,8303,2,0,L|263:172,2,60,0|2|0,0:0|0:0|0:0,0:0:0:0:
325,270,8962,6,0,P|380:281|440:258,1,120,4|0,0:0|0:0,0:0:0:0:
471,208,9622,1,2,0:0:0:0:
497,91,10061,2,0,L|508:23,2,60,0|0|0,0:0|0:0|0:0,0:0:0:0:
443,118,10721,2,0,P|416:122|375:122,1,60,4|0,0:0|0:0,0:0:0:0:
277,66,11380,1,2,0:0:0:0:
171,123,11820,2,0,L|112:119,2,60,0|0|0,0:0|0:0|0:0,0:0:0:0:
221,155,12479,6,0,P|243:210|241:271,1,120,4|2,0:0|0:0,0:0:0:0:
191,303,13138,1,0,0:0:0:0:
136,327,13358,2,0,P|114:272|116:211,1,120,4|2,0:0|0:0,0:0:0:0:
141,157,14017,1,0,0:0:0:0:
116,102,14237,1,6,0:0:0:0:
200,16,14677,1,2,0:0:0:0:
256,121,15116,1,2,0:0:0:0:
312,16,15556,1,2,0:0:0:0:
396,102,15995,6,0,L|415:225,1,120,4|0,0:0|0:0,0:0:0:0:
389,275,16655,1,0,0:0:0:0:
343,314,16875,2,0,P|289:343|231:337,1,120,2|0,0:0|0:0,0:0:0:0:
178,311,17534,1,0,0:0:0:0:
122,287,17754,2,0,L|59:298,2,60,2|0|4,0:0|0:0|0:0,0:0:0:0:
202,197,18633,2,0,L|265:186,2,60,0|0|2,0:0|0:0|0:0,0:0:0:0:
86,162,19512,6,0,P|114:114|172:84,1,120,4|0,0:0|0:0,0:0:0:0:
227,101,20171,1,0,0:0:0:0:
282,123,20391,2,0,L|342:114,1,60,2|0,0:0|0:0,0:0:0:0:
385,155,20831,2,0,L|445:146,1,60,0|0,0:0|0:0,0:0:0:0:
494,179,21270,1,2,0:0:0:0:
456,293,21710,2,0,P|388:312|337:303,1,120,4|0,0:0|0:0,0:0:0:0:
224,335,22589,1,2,0:0:0:0:
193,219,23028,6,0,P|204:160|238:111,1,120,4|0,0:0|0:0,0:0:0:0:
277,65,23688,2,0,L|256:8,2,60,2|4|0,0:0|0:0|0:0,0:0:0:0:
327,98,24347,2,0,P|354:105|392:106,1,60,0|0,0:0|0:0,0:0:0:0:
419,56,24787,2,0,L|437:179,1,120,4|0,0:0|0:0,0:0:0:0:
459,291,25666,2,0,L|508:351,2,60,4|0|0,0:0|0:0|0:0,0:0:0:0:
404,266,26325,1,0,0:0:0:0:
347,245,26545,6,0,P|286:237|231:253,1,120,4|2,0:0|0:0,0:0:0:0:
184,291,27204,1,0,0:0:0:0:
140,332,27424,2,0,L|110:209,2,120,4|2|6,0:0|0:0|0:0,0:0:0:0:
258,348,28743,1,2,0:0:0:0:
376,332,29182,1,2,0:0:0:0:
456,242,29622,1,2,0:0:0:0:
435,123,30061,6,0,P|388:94|323:82,1,120,4|0,0:0|0:0,0:0:0:0:
268,103,30721,1,0,0:0:0:0:
209,117,30940,2,0,L|145:110,2,60,2|0|0,0:0|0:0|0:0,0:0:0:0:
239,169,31600,1,0,0:0:0:0:
210,221,31820,1,2,0:0:0:0:
252,333,32259,2,0,P|308:355|369:349,1,120,4|0,0:0|0:0,0:0:0:0:
412,310,32919,2,0,L|404:238,2,60,0|2|0,0:0|0:0|0:0,0:0:0:0:
256,192,33578,12,0,37094,0:0:0:0:
