osu file format v11

[General]
AudioFilename: Pokemon Red & blue - lavender town theme (music).mp3
AudioLeadIn: 1000
PreviewTime: 1158
Countdown: 0
SampleSet: Soft
StackLeniency: 0.7
Mode: 0
LetterboxInBreaks: 0

[Editor]
DistanceSpacing: 1
BeatDivisor: 2
GridSize: 4

[Metadata]
Title:Lavender Town Theme
TitleUnicode:Lavender Town Theme
Artist:Junichi Masuda
ArtistUnicode:増田順一
Creator:bomber34
Version:Normal
Source:Pokemon: Red/Blue
Tags:yellow green edition ctb catch the beat cup TheVileOne TVO nintendo game freak _Gezo_ Taiko gameboy boy
BeatmapID:163892
BeatmapSetID:53810

[Difficulty]
HPDrainRate:4
CircleSize:4
OverallDifficulty:4
ApproachRate:5
SliderMultiplier:1.4
SliderTickRate:1

[Events]
//Background and Video events
0,0,"lavender no color.png"
//Break Periods
//Storyboard Layer 0 (Background)
//Storyboard Layer 1 (Fail)
//Storyboard Layer 2 (Pass)
//Storyboard Layer 3 (Foreground)
Sprite,Foreground,Centre,"xfrtae.png",320,240 F,0,46983,47221,0,0.7267155 F,0,48891,49130,0.7267155,0
Sprite,Foreground,Centre,"xfrtae.png",320,240 F,0,46983,47398,1,0 S,0,46983,47398,1,2
//Storyboard Sound Samples
//Background Colour Transformations
3,100,163,162,255

[TimingPoints]
1178,477.13717693837,4,2,1,30,1,0
8812,-100,4,2,1,45,0,0
31714,-100,4,2,1,35,0,0
33623,-100,4,2,1,40,0,0
37440,-100,4,2,1,45,0,0
43404,-100,4,2,1,30,0,0
46983,-100,4,2,1,45,0,0

[Colours]
Combo1 : 129,121,142
Combo2 : 147,47,168

[HitObjects]
68,192,1178,1,0,0:0:0
180,108,1655,1,0,0:0:0
319,108,2132,1,2,0:0:0
432,192,2609,1,0,0:0:0
319,276,3086,5,0,0:0:0
180,276,3564,1,0,0:0:0
180,136,4041,1,2,0:0:0
319,136,4518,1,0,0:0:0
396,252,4995,5,0,0:0:0
256,252,5472,1,0,0:0:0
180,136,5950,1,2,0:0:0
100,252,6427,1,0,0:0:0
176,368,6904,5,0,0:0:0
256,252,7381,1,0,0:0:0
336,368,7858,1,2,0:0:0
412,252,8336,1,0,0:0:0
336,132,8813,6,0,B|204:52|72:132,1,280,4|2,0:0|0:0,0:0:0
172,228,10243,1,0,0:0:0
72,324,10720,6,0,B|204:404|336:324,1,280,4|2,0:0|0:0,0:0:0
236,228,12152,1,0,0:0:0
256,88,12629,5,2,0:0:0
348,192,13106,1,0,0:0:0
256,300,13583,1,2,0:0:0
168,192,14060,1,0,0:0:0
256,88,14537,5,4,0:0:0
256,88,15492,1,4,0:0:0
400,320,16446,6,0,B|336:352|260:340,2,140,4|0|2,0:0|0:0|0:0,0:0:0
456,192,17877,1,0,0:0:0
400,64,18354,6,0,B|336:32|260:44,2,140,4|0|2,0:0|0:0|0:0,0:0:0
456,192,19786,1,0,0:0:0
396,320,20263,5,2,0:0:0
256,340,20740,1,0,0:0:0
116,320,21217,1,2,0:0:0
56,192,21694,1,0,0:0:0
116,64,22172,5,4,0:0:0
116,64,23126,1,4,0:0:0
402,125,24080,6,0,B|464:160|472:240,1,140,4|0,0:0|0:0,0:0:0
412,364,25034,2,0,B|350:329|342:249,1,140,2|0,0:0|0:0,0:0:0
256,140,25989,6,0,B|176:148|152:224,1,140,4|0,0:0|0:0,0:0:0
204,352,26943,2,0,B|284:344|308:268,1,140,2|0,0:0|0:0,0:0:0
256,140,27897,5,2,0:0:0
136,64,28374,1,0,0:0:0
136,203,28851,1,2,0:0:0
16,272,29329,1,0,0:0:0
136,344,29806,5,4,0:0:0
136,344,30760,1,4,0:0:0
136,64,31714,5,2,0:0:0
232,164,32191,1,0,0:0:0
136,264,32669,1,2,0:0:0
36,164,33146,1,0,0:0:0
172,124,33623,5,2,0:0:0
267,223,34100,1,0,0:0:0
172,323,34577,1,2,0:0:0
72,223,35054,1,0,0:0:0
208,184,35531,5,2,0:0:0
303,284,36009,1,2,0:0:0
208,384,36486,1,2,0:0:0
108,284,36963,1,2,0:0:0
184,188,37440,6,0,B|252:220|276:292,1,140,4|2,0:0|0:0,0:0:0
366,188,38394,2,0,B|298:220|274:292,1,140,4|2,0:0|0:0,0:0:0
184,188,39348,6,0,B|228:144|236:60|148:0|76:16|20:68|-8:148|56:200|104:240|104:240|140:276|135:332,2,560,2|2|2,0:0|0:0|0:0,0:0:0
256,192,43404,12,4,46983,0:0:0
