osu file format v11

[General]
AudioFilename: Pokemon Red & blue - lavender town theme (music).mp3
AudioLeadIn: 1000
PreviewTime: 1158
Countdown: 0
SampleSet: Normal
StackLeniency: 0.7
Mode: 1
LetterboxInBreaks: 0

[Editor]
DistanceSpacing: 1.4
BeatDivisor: 4
GridSize: 4

[Metadata]
Title:Lavender Town Theme
TitleUnicode:Lavender Town Theme
Artist:Junichi Masuda
ArtistUnicode:増田順一
Creator:bomber34
Version:MuzuZoda
Source:Pokemon: Red/Blue
Tags:yellow green edition ctb catch the beat cup TheVileOne TVO nintendo game freak _Gezo_ Taiko gameboy boy
BeatmapID:173558
BeatmapSetID:53810

[Difficulty]
HPDrainRate:6
CircleSize:5
OverallDifficulty:4
ApproachRate:5
SliderMultiplier:0.7
SliderTickRate:1

[Events]
//Background and Video events
0,0,"lavender no color.png"
//Break Periods
//Storyboard Layer 0 (Background)
//Storyboard Layer 1 (Fail)
//Storyboard Layer 2 (Pass)
//Storyboard Layer 3 (Foreground)
//Storyboard Sound Samples
//Background Colour Transformations
3,100,163,162,255

[TimingPoints]
1178,477.13717693837,4,1,0,37,1,0

[Colours]
Combo1 : 74,69,82
Combo2 : 147,47,168

[HitObjects]
232,176,1178,1,0,0:0:0
232,176,1655,1,8,0:0:0
232,176,2132,1,0,0:0:0
232,176,2609,1,8,0:0:0
232,176,3086,1,0,0:0:0
232,176,3563,1,8,0:0:0
232,176,4040,1,0,0:0:0
232,176,4517,1,8,0:0:0
232,176,4995,1,0,0:0:0
232,176,5472,1,8,0:0:0
232,176,5949,1,0,0:0:0
232,176,6187,1,0,0:0:0
232,176,6426,1,8,0:0:0
232,176,6903,1,0,0:0:0
232,176,7380,1,8,0:0:0
232,176,7857,1,0,0:0:0
232,176,8335,1,8,0:0:0
232,176,8812,1,4,0:0:0
232,176,9289,1,8,0:0:0
232,176,9766,1,0,0:0:0
232,176,10720,1,0,0:0:0
232,176,11197,1,8,0:0:0
232,176,11675,1,0,0:0:0
232,176,12152,1,8,0:0:0
232,176,12629,1,0,0:0:0
232,176,12867,1,0,0:0:0
232,176,13106,1,8,0:0:0
232,176,13583,1,0,0:0:0
232,176,14060,1,8,0:0:0
232,176,14537,1,0,0:0:0
232,176,15492,1,0,0:0:0
232,176,16446,1,4,0:0:0
232,176,16923,1,8,0:0:0
232,176,17400,1,0,0:0:0
232,176,18354,1,0,0:0:0
232,176,19309,1,0,0:0:0
232,176,20263,1,4,0:0:0
232,176,20740,1,8,0:0:0
232,176,21217,1,0,0:0:0
232,176,21694,1,8,0:0:0
232,176,22172,1,0,0:0:0
232,176,23126,1,0,0:0:0
232,176,24080,1,4,0:0:0
232,176,24557,1,0,0:0:0
232,176,25034,1,8,0:0:0
232,176,25989,1,0,0:0:0
232,176,26466,1,0,0:0:0
232,176,26943,1,8,0:0:0
232,176,27897,1,0,0:0:0
232,176,28374,1,0,0:0:0
232,176,28851,1,8,0:0:0
232,176,29329,1,8,0:0:0
232,176,29806,1,0,0:0:0
232,176,30760,1,0,0:0:0
232,176,31714,1,0,0:0:0
232,176,31953,1,0,0:0:0
232,176,32191,1,0,0:0:0
232,176,32669,1,8,0:0:0
232,176,33623,1,0,0:0:0
232,176,33861,1,0,0:0:0
232,176,34100,1,0,0:0:0
232,176,34577,1,8,0:0:0
232,176,35531,1,4,0:0:0
232,176,36009,1,8,0:0:0
232,176,36486,1,0,0:0:0
232,176,36963,1,8,0:0:0
232,176,37440,1,4,0:0:0
232,176,38394,1,4,0:0:0
232,176,39348,1,4,0:0:0
232,176,39826,1,8,0:0:0
232,176,40303,1,0,0:0:0
232,176,41257,1,0,0:0:0
232,176,41734,1,8,0:0:0
232,176,42211,1,0,0:0:0
232,176,43166,1,0,0:0:0
232,176,43643,1,8,0:0:0
232,176,44120,1,0,0:0:0
256,192,45074,12,0,46983,0:0:0
