osu file format v12

[General]
AudioFilename: Pokemon Black and White - Final N Battle.mp3
AudioLeadIn: 0
PreviewTime: 13889
Countdown: 0
SampleSet: Normal
StackLeniency: 0.6
Mode: 0
LetterboxInBreaks: 1
WidescreenStoryboard: 1

[Editor]
Bookmarks: 33468,59363,65086,94731,136415
DistanceSpacing: 1
BeatDivisor: 4
GridSize: 8

[Metadata]
Title:Decisive Battle! N
TitleUnicode:決戦!N
Artist:Junichi Masuda
ArtistUnicode:増田順
Creator:snlrocks
Version:Level Zoroark
Source:Pokemon: Black/White
Tags:Pokemon N Black White Totoro le Pacha
BeatmapID:287700
BeatmapSetID:106069

[Difficulty]
HPDrainRate:2
CircleSize:3
OverallDifficulty:2
ApproachRate:2
SliderMultiplier:1.20000000596046
SliderTickRate:1

[Events]
//Background and Video events
0,0,"Black-and-White-pokemon-black-and-white-20582383.jpg",0,0
//Break Periods
2,49546,57803
2,100167,102329
//Storyboard Layer 0 (Background)
//Storyboard Layer 1 (Fail)
//Storyboard Layer 2 (Pass)
//Storyboard Layer 3 (Foreground)
//Storyboard Sound Samples
//Background Colour Transformations
3,100,163,162,255

[TimingPoints]
2521,315.789473684211,4,1,0,65,1,0
17678,-133.333333333333,4,1,0,65,0,0
23994,-133.333333333333,4,1,0,65,0,0
25257,-133.333333333333,4,1,0,65,0,0
29047,-133.333333333333,4,1,0,65,0,0
30310,-133.333333333333,4,1,0,65,0,0
36626,-133.333333333333,4,1,0,65,0,0
37889,-133.333333333333,4,1,0,65,0,0
41678,-133.333333333333,4,1,0,65,0,0
49178,-100,4,1,0,65,0,1
49336,-100,4,1,0,65,0,0
49415,-100,4,2,0,65,0,0
59363,-100,4,2,0,65,0,0
69468,-100,4,1,0,65,0,0
89678,-100,4,1,0,65,0,0
89757,-100,4,1,0,65,0,0
89864,-100,4,1,0,65,0,1
99784,-100,4,1,0,65,0,1
99942,-100,4,1,0,65,0,0
104875,-133.333333333333,4,1,0,65,0,0
111152,-133.333333333333,4,1,0,65,0,0
117468,-133.333333333333,4,1,0,65,0,0
123784,-133.333333333333,4,1,0,65,0,0
128836,-133.333333333333,4,1,0,65,0,0
136454,-100,4,2,0,65,0,0

[HitObjects]
83,40,2520,2,0,L|211:40,1,120.000000596046
288,125,3152,2,0,L|168:125,1,120.000000596046
82,210,3784,2,0,L|210:210,1,120.000000596046
287,295,4415,2,0,L|151:295,1,120.000000596046
46,295,5047,6,0,L|46:157,1,120.000000596046
131,260,5678,2,0,L|131:129,1,120.000000596046
216,225,6310,2,0,L|216:105,1,120.000000596046
301,190,6942,2,0,L|301:62,1,120.000000596046
419,91,7573,6,0,P|377:22|329:-10,1,120.000000596046
261,84,8205,2,0,P|276:132|348:180,1,120.000000596046
208,174,8836,2,0,P|300:132|332:124,1,120.000000596046
438,127,9468,2,0,L|308:124,1,120.000000596046
232,39,10099,6,0,P|133:45|93:61,1,120.000000596046
114,171,10731,2,0,P|85:245|101:285,1,120.000000596046
217,279,11363,2,0,L|96:224,1,120.000000596046
282,254,11994,2,0,P|324:164|228:68,1,240.000001192092
154,154,12942,6,0,B|80:264|176:312|176:312|248:280,1,240.000001192092
463,291,14205,2,0,B|432:192|400:152|400:152|312:136,1,240.000001192092
144,306,15468,2,0,B|70:290|42:242|42:242|67:125,1,240.000001192092
307,128,16731,2,4,B|368:112|418:145|418:145|464:215,1,180.000000894069
256,192,17678,12,4,23994,0:0:0:0:
88,64,24310,6,4,L|208:152,1,135.000005820393
101,239,25257,2,0,P|193:216|194:137,1,180.000007760524,0|4,0:0|0:0,0:0:0:0:
170,116,26521,2,0,P|261:59|321:95,1,180.000007760524,0|4,0:0|0:0,0:0:0:0:
384,48,27784,2,0,P|389:125|310:185,1,180.000007760524,0|4,0:0|0:0,0:0:0:0:
44,184,29363,6,0,B|28:296|124:288|124:288,1,135.000005820393,4|12,0:0|0:0,0:0:0:0:
239,286,30310,6,0,B|168:312|144:320|144:320,3,90.0000038802622,4|8|4|8,0:0|0:0|0:0|0:0,0:0:0:0:
90,252,31573,2,0,L|64:160,3,90.0000038802622,4|8|4|8,0:0|0:0|0:0|0:0,0:0:0:0:
129,101,32836,2,0,L|206:56,3,90.0000038802622,4|8|4|8,0:0|0:0|0:0|0:0,0:0:0:0:
270,119,34099,2,0,L|241:226,3,90.0000038802622,4|8|4|8,0:0|0:0|0:0|0:0,0:0:0:0:
176,208,35363,2,0,P|204:259|252:275,3,90.0000038802622,4|8|4|8,0:0|0:0|0:0|0:0,0:0:0:0:
320,193,36942,2,0,P|288:257|224:273,1,135.000005820393,4|12,0:0|0:0,0:0:0:0:
135,178,37889,5,4,0:0:0:0:
71,114,38205,1,4,0:0:0:0:
134,50,38521,1,8,0:0:0:0:
197,113,38836,1,4,0:0:0:0:
197,113,39152,5,4,0:0:0:0:
260,49,39468,1,4,0:0:0:0:
323,112,39784,1,8,0:0:0:0:
259,175,40099,1,4,0:0:0:0:
259,175,40415,5,4,0:0:0:0:
349,175,40731,1,4,0:0:0:0:
412,238,41047,1,8,0:0:0:0:
348,301,41363,1,4,0:0:0:0:
167,301,41994,6,0,B|112:320|56:296|56:296|56:184|56:184|32:144,1,270.000011640787,0|4,0:0|0:0,0:0:0:0:
160,18,43415,1,4,0:0:0:0:
340,18,43889,1,4,0:0:0:0:
255,102,44205,6,0,B|184:104|184:104|144:144|144:144|72:144,1,180.000007760524,4|8,0:0|0:0,0:0:0:0:
257,102,45468,6,0,B|328:104|328:104|368:144|368:144|440:144,1,180.000007760524,4|8,0:0|0:0,0:0:0:0:
256,104,46731,6,0,B|221:161|221:161|253:225|253:225|248:280|248:280,1,180.000007760524,4|8,0:0|0:0,0:0:0:0:
422,156,47994,6,0,L|400:200,3,45.0000019401311,4|8|4|8,0:0|0:0|0:0|0:0,0:0:0:0:
360,184,48626,2,0,P|328:219|320:216,3,45.0000019401311,4|8|4|8,0:0|0:0|0:0|0:0,0:0:0:0:
312,168,49257,1,14,3:0:0:0:
224,224,59363,6,0,P|192:192|224:128,1,120.000000596046
293,130,60626,2,0,P|320:192|288:224,1,120.000000596046,0|0,0:0|0:0,0:0:0:0:
208,128,61889,2,0,P|264:96|293:133,1,120.000000596046,0|0,0:0|0:0,0:0:0:0:
296,224,63152,2,0,P|240:256|211:221,1,120.000000596046,0|0,0:0|0:0,0:0:0:0:
208,224,64415,6,0,L|296:136,1,120.000000596046
208,144,65678,2,0,L|296:232,1,120.000000596046
263,118,66942,2,0,L|263:238,1,120.000000596046
376,184,68205,6,0,L|130:184,1,240.000001192092
305,353,69468,6,0,L|232:352,2,60.000000298023
184,353,70099,2,0,L|120:304|120:304,2,60.000000298023
98,267,70731,2,0,L|144:208,2,60.000000298023
183,181,71363,2,0,L|248:176,2,60.000000298023
97,95,71994,6,0,L|144:152,2,60.000000298023
182,180,72626,2,0,L|224:136,2,60.000000298023
182,59,73257,2,0,L|248:96,2,60.000000298023
267,144,73889,2,0,L|344:120,2,60.000000298023
352,58,74521,6,4,P|408:56|416:72,2,60.000000298023,8|8|4,0:0|0:0|0:0,0:0:0:0:
437,143,75152,2,0,P|432:184|416:200,2,60.000000298023,8|8|4,0:0|0:0|0:0,0:0:0:0:
351,228,75784,2,0,P|352:272|376:272,2,60.000000298023,8|8|4,0:0|0:0|0:0,0:0:0:0:
440,312,76415,2,0,P|416:344|384:336,2,60.000000298023,8|8|4,0:0|0:0|0:0,0:0:0:0:
319,312,77047,6,4,B|288:280|288:280|256:280,2,60.000000298023
198,312,77678,2,4,B|160:312|160:312|144:288,2,60.000000298023
77,312,78310,2,4,B|64:272|64:272|88:256,2,60.000000298023
162,226,78942,2,4,B|88:248|88:248|56:200|56:200|48:144|88:104,1,240.000001192092
208,104,79889,6,0,L|344:56,1,120.000000596046,4|8,0:0|0:0,0:0:0:0:
406,149,80521,2,0,L|288:216,1,120.000000596046,4|8,0:0|0:0,0:0:0:0:
216,293,81152,2,0,L|256:160,1,120.000000596046,4|8,0:0|0:0,0:0:0:0:
335,92,81784,2,0,L|392:216,1,120.000000596046,4|0,0:0|0:0,0:0:0:0:
299,286,82415,5,0,0:0:0:0:
178,286,82731,1,0,0:0:0:0:
93,201,83047,1,0,0:0:0:0:
93,80,83363,1,0,0:0:0:0:
177,0,83678,1,0,0:0:0:0:
297,0,83994,1,0,0:0:0:0:
381,80,84310,1,0,0:0:0:0:
296,164,84626,6,0,L|152:160,1,120.000000596046,0|4,0:0|0:0,0:0:0:0:
90,245,85257,1,4,0:0:0:0:
174,329,85573,1,0,0:0:0:0:
294,329,85889,1,4,0:0:0:0:
378,244,86205,1,0,0:0:0:0:
257,244,86521,1,4,0:0:0:0:
172,159,86836,1,0,0:0:0:0:
256,74,87152,6,0,B|320:24|320:24|368:64,1,120.000000596046,4|0,0:0|0:0,0:0:0:0:
470,48,87784,1,4,0:0:0:0:
470,168,88099,1,4,0:0:0:0:
349,168,88415,1,4,0:0:0:0:
228,168,88731,1,4,0:0:0:0:
228,288,89047,1,4,0:0:0:0:
348,288,89363,1,4,0:0:0:0:
468,286,89678,6,0,P|463:334|391:358,2,120.000000596046,4|8|4,0:0|0:0|0:0,0:0:0:0:
385,132,90626,1,4,0:0:0:0:
300,47,90942,2,0,P|220:31|204:63,3,120.000000596046,4|8|4|4,0:0|0:0|0:0|0:0,0:0:0:0:
121,136,92205,6,4,P|88:176|96:208,3,60.000000298023,8|4|8|0,0:0|0:0|0:0|0:0,0:0:0:0:
128,224,92836,2,8,P|102:273|110:289,3,60.000000298023,8|4|8|4,0:0|0:0|0:0|0:0,0:0:0:0:
144,312,93468,2,8,P|126:350|142:366,3,60.000000298023
176,317,94099,2,4,L|205:299,6,30.0000001490115,4|8|4|8|4|8|4,0:0|0:0|0:0|0:0|0:0|0:0|0:0,0:0:0:0:
218,274,94731,5,8,0:0:0:0:
48,272,95521,2,0,P|51:226|146:135,1,180.000000894069,8|4,0:0|0:0,0:0:0:0:
320,138,96468,5,4,0:0:0:0:
139,138,96942,1,4,0:0:0:0:
75,249,97257,6,8,P|64:320|96:352,1,120.000000596046,8|4,0:0|0:0,0:0:0:0:
214,350,97889,2,0,L|288:344,2,60.000000298023
334,350,98521,1,4,0:0:0:0:
376,304,98678,1,4,0:0:0:0:
456,216,98994,2,2,B|414:192|414:192|454:168|454:168|414:144|414:144|454:120|454:120|406:88|406:88|454:64|454:64,1,300.000001490115
89,63,103889,6,8,L|76:144,2,60.000000298023
89,183,104521,1,8,0:0:0:0:
89,273,104836,5,4,0:0:0:0:
152,209,105152,1,4,0:0:0:0:
215,272,105468,1,4,0:0:0:0:
278,208,105784,1,4,0:0:0:0:
341,271,106099,6,0,P|404:240|428:216,3,90.0000038802622,4|8|4|4,0:0|0:0|0:0|0:0,0:0:0:0:
418,136,107363,6,0,B|356:96|324:96|324:96,1,90.0000038802622,4|8,0:0|0:0,0:0:0:0:
273,34,107994,1,4,0:0:0:0:
209,97,108310,1,4,0:0:0:0:
145,33,108626,6,0,P|84:48|68:80,2,90.0000038802622,4|8|4,0:0|0:0|0:0,0:0:0:0:
145,123,109573,1,4,0:0:0:0:
81,186,109889,6,0,L|52:272,1,90.0000038802622,4|8,0:0|0:0,0:0:0:0:
142,271,110521,1,4,0:0:0:0:
205,207,110836,1,4,0:0:0:0:
268,270,111152,1,4,0:0:0:0:
204,333,111468,6,0,B|260:352|260:352|340:317,1,135.000005820393
460,324,112415,6,4,L|409:237,2,90.0000038802622
369,324,113363,2,4,L|417:240,2,90.0000038802622
324,245,114310,2,4,L|421:245,2,90.0000038802622
387,181,115257,2,4,P|451:189|474:222,2,90.0000038802622
450,117,116205,1,4,0:0:0:0:
386,53,116521,6,0,B|346:77|346:77|312:48|312:48|274:77,1,135.000005820393,4|8,0:0|0:0,0:0:0:0:
145,74,117468,6,4,P|76:88|60:112,2,90.0000038802622
81,137,118415,2,4,P|56:158|73:222,2,90.0000038802622
144,200,119363,2,4,P|108:232|132:272,2,90.0000038802622
207,263,120310,2,4,L|300:288,2,90.0000038802622
372,312,121257,6,4,P|441:298|457:274,2,90.0000038802622
436,248,122205,2,4,P|460:226|443:162,2,90.0000038802622
373,186,123152,2,4,P|409:154|385:114,2,90.0000038802622
312,120,124099,6,0,B|267:86|231:68|231:68|184:96,1,135.000005820393,4|8,0:0|0:0,0:0:0:0:
102,183,125047,6,4,P|124:257|217:238,1,180.000007760524
168,198,126310,2,4,L|288:54,1,180.000007760524
410,183,127573,6,4,P|388:257|295:238,1,180.000007760524
344,198,128836,2,4,L|224:54,1,180.000007760524
409,59,130099,5,8,0:0:0:0:
273,59,130573,1,8,0:0:0:0:
408,59,131047,1,8,0:0:0:0:
408,149,131363,6,0,B|464:192|464:192|464:272|432:296,1,180.000007760524,0|8,0:0|0:0,0:0:0:0:
344,312,132626,2,0,B|304:352|256:312|256:312|208:352|168:312,1,180.000007760524,0|8,0:0|0:0,0:0:0:0:
54,195,133889,2,0,B|56:80|56:80|104:40|120:48,1,180.000007760524,4|8,0:0|0:0,0:0:0:0:
201,46,135152,6,8,B|208:104|208:104|240:96,2,90.0000038802622,8|4|8,0:0|0:0|0:0,0:0:0:0:
291,46,136099,1,4,0:0:0:0:
291,166,136415,1,14,0:0:0:0:
