osu file format v12

[General]
AudioFilename: Pokemon Black and White - Final N Battle.mp3
AudioLeadIn: 0
PreviewTime: 13889
Countdown: 0
SampleSet: Soft
StackLeniency: 0.6
Mode: 0
LetterboxInBreaks: 1
WidescreenStoryboard: 0

[Editor]
Bookmarks: 33468,59363,94731,136415
DistanceSpacing: 1
BeatDivisor: 4
GridSize: 8

[Metadata]
Title:Decisive Battle! N
TitleUnicode:決戦!N
Artist:Junichi Masuda
ArtistUnicode:増田順
Creator:snlrocks
Version:Level Zekram
Source:Pokemon: Black/White
Tags:Pokemon N Black White Totoro le Pacha
BeatmapID:278142
BeatmapSetID:106069

[Difficulty]
HPDrainRate:4
CircleSize:3
OverallDifficulty:3
ApproachRate:3
SliderMultiplier:1.20000000596046
SliderTickRate:1

[Events]
//Background and Video events
0,0,"Black-and-White-pokemon-black-and-white-20582383.jpg",0,0
//Break Periods
2,49472,57923
//Storyboard Layer 0 (Background)
//Storyboard Layer 1 (Fail)
//Storyboard Layer 2 (Pass)
//Storyboard Layer 3 (Foreground)
//Storyboard Sound Samples
//Background Colour Transformations
3,100,163,162,255

[TimingPoints]
2521,315.789473684211,4,1,0,65,1,0
17678,-133.333333333333,4,1,0,65,0,0
24001,-133.333333333333,4,1,0,65,0,0
25257,-133.333333333333,4,1,0,65,0,0
29047,-133.333333333333,4,1,0,65,0,0
30310,-133.333333333333,4,1,0,65,0,0
36626,-133.333333333333,4,1,0,65,0,0
37889,-133.333333333333,4,1,0,65,0,0
41678,-133.333333333333,4,1,0,65,0,0
49178,-100,4,1,0,65,0,1
49336,-100,4,1,0,65,0,1
49415,-100,4,2,0,65,0,0
69468,-100,4,1,0,65,0,0
89757,-100,4,1,0,65,0,0
89864,-100,4,1,0,65,0,1
99784,-100,4,1,0,65,0,1
99942,-100,4,1,0,65,0,0
104875,-133.333333333333,4,1,0,65,0,0
111152,-133.333333333333,4,1,0,65,0,0
117468,-133.333333333333,4,1,0,65,0,0
123784,-133.333333333333,4,1,0,65,0,0
128836,-133.333333333333,4,1,0,65,0,0
136454,-100,4,2,0,65,0,0

[HitObjects]
104,112,2520,1,0,0:0:0:0:
224,112,2836,1,0,0:0:0:0:
344,116,3152,2,8,B|388:116|388:116|388:196,1,120.000000596046
324,296,3784,5,0,0:0:0:0:
204,296,4099,1,0,0:0:0:0:
84,288,4415,2,8,L|24:288,2,60.0000002980232
180,216,5047,5,0,0:0:0:0:
268,136,5363,1,0,0:0:0:0:
368,72,5678,2,8,L|368:216,1,120.000000596046
368,244,6310,5,0,0:0:0:0:
308,184,6626,1,0,0:0:0:0:
240,84,6942,2,0,L|192:32,1,60.0000002980232
140,40,7257,1,8,0:0:0:0:
196,148,7573,6,0,L|196:284,1,120.000000596046
200,308,8205,2,8,L|284:208,1,120.000000596046
308,332,8836,2,2,L|232:232,1,120.000000596046
320,152,9468,2,8,L|320:28,1,120.000000596046
216,84,10099,6,2,L|176:136,2,60.0000002980232
148,180,10731,2,8,L|188:224,2,60.0000002980232
224,272,11363,2,2,L|172:312,2,60.0000002980232
348,264,11994,6,8,L|269:272,2,60.000000298023
468,264,12626,1,0,0:0:0:0:
380,188,12942,6,10,P|316:116|276:220,1,240.000001192093
320,176,13889,1,0,0:0:0:0:
272,288,14205,6,10,P|232:364|144:276,1,240.000001192093
208,304,15152,1,0,0:0:0:0:
212,176,15468,6,8,B|212:88|212:88|52:88,1,240.000001192093
64,200,16415,1,0,0:0:0:0:
192,200,16731,6,0,B|192:336|192:336,1,120.000000596046,0|0,0:0|0:0,0:0:0:0:
256,320,17205,1,8,0:0:0:0:
256,192,17678,12,4,23994,0:0:0:0:
372,168,24310,5,0,0:0:0:0:
308,104,24626,1,0,0:0:0:0:
276,135,24784,1,8,0:0:0:0:
144,104,25257,6,0,P|140:180|236:212,1,180.000007760524,0|4,0:0|0:0,0:0:0:0:
368,104,26205,2,0,P|372:180|276:212,1,180.000007760524,0|4,0:0|0:0,0:0:0:0:
350,279,27152,2,0,L|168:280,1,180.000007760524,0|4,0:0|0:0,0:0:0:0:
233,343,28099,2,0,L|304:216,2,135.000005820393,0|4|4,0:0|0:0|0:0,0:0:0:0:
169,279,29363,5,0,0:0:0:0:
120,200,29678,1,0,0:0:0:0:
152,168,29836,1,0,0:0:0:0:
152,32,30310,6,0,L|256:32,1,90.0000038802622,0|4,0:0|0:0,0:0:0:0:
332,32,30942,1,0,0:0:0:0:
395,95,31257,2,0,L|456:176,1,90.0000038802622,0|4,0:0|0:0,0:0:0:0:
449,257,31889,1,0,0:0:0:0:
385,320,32205,2,0,L|288:336,1,90.0000038802622,0|4,0:0|0:0,0:0:0:0:
206,334,32836,1,0,0:0:0:0:
142,270,33152,5,0,0:0:0:0:
110,238,33310,1,0,0:0:0:0:
46,174,33626,2,0,P|64:107|120:80,1,135.000005820393,4|0,0:0|0:0,0:0:0:0:
209,80,34415,1,0,0:0:0:0:
240,48,34573,1,0,0:0:0:0:
330,48,34889,2,0,P|407:64|447:120,1,135.000005820393,4|0,0:0|0:0,0:0:0:0:
441,195,35678,1,0,0:0:0:0:
395,195,35836,1,0,0:0:0:0:
331,258,36152,2,0,P|292:311|220:295,1,135.000005820393,4|0,0:0|0:0,0:0:0:0:
139,303,36942,6,0,P|88:304|72:256,1,90.0000038802622,0|4,0:0|0:0,0:0:0:0:
113,260,37415,1,0,0:0:0:0:
216,136,37889,6,0,L|121:140,2,90.0000038802622
296,136,38836,2,0,L|391:140,2,90.0000038802622
216,208,39784,2,0,L|126:212,2,90.0000038802622
296,208,40731,2,0,L|385:212,3,90.0000038802622
330,246,41994,5,0,0:0:0:0:
330,336,42310,1,0,0:0:0:0:
298,304,42468,1,0,0:0:0:0:
232,240,42784,1,0,0:0:0:0:
173,240,42942,1,0,0:0:0:0:
88,155,43257,1,0,0:0:0:0:
45,112,43415,1,0,0:0:0:0:
129,27,43731,1,0,0:0:0:0:
189,27,43889,1,0,0:0:0:0:
309,27,44205,6,0,L|352:64,1,45.0000019401311
311,88,44521,1,0,0:0:0:0:
401,88,44836,1,0,0:0:0:0:
432,208,45152,2,0,L|384:240,1,45.0000019401311
362,201,45468,1,0,0:0:0:0:
298,264,45784,1,0,0:0:0:0:
234,200,46099,2,0,L|193:244,1,45.0000019401311
171,264,46415,1,0,0:0:0:0:
84,192,46731,5,8,0:0:0:0:
168,107,47047,1,8,0:0:0:0:
252,191,47363,1,8,0:0:0:0:
336,106,47678,1,8,0:0:0:0:
416,208,47994,6,8,L|420:258,8,45.0000019401311,8|8|8|8|8|8|8|8|12,0:0|0:0|0:0|0:0|0:0|0:0|0:0|0:0|0:0,0:0:0:0:
256,192,59363,5,0,1:0:0:0:
256,192,59678,1,0,2:0:0:0:
256,192,59994,1,8,2:0:0:0:
256,192,61889,5,0,1:0:0:0:
256,192,62205,1,0,2:0:0:0:
256,192,62521,1,8,2:0:0:0:
256,192,64415,5,0,1:0:0:0:
256,192,64731,1,0,2:0:0:0:
256,192,65047,1,8,2:0:0:0:
256,192,66942,5,0,1:0:0:0:
256,192,67257,1,0,2:0:0:0:
256,192,67573,1,8,2:0:0:0:
213,149,68205,6,0,L|265:201,1,60.000000298023,0|0,0:0|0:0,1:0:0:0:
298,148,68521,1,0,1:0:0:0:
213,235,68836,2,0,L|255:192,1,60.000000298023,0|0,0:0|0:0,1:0:0:0:
298,236,69152,1,0,1:0:0:0:
382,320,69468,5,0,0:0:0:0:
384,256,69626,1,0,0:0:0:0:
384,200,69784,2,8,P|440:208|456:144,1,120.000000596046
418,114,70257,1,0,0:0:0:0:
375,71,70415,2,8,P|335:39|279:71,1,120.000000596046
219,68,70889,1,0,0:0:0:0:
176,25,71047,2,8,P|104:41|104:89,1,120.000000596046
99,137,71521,1,0,0:0:0:0:
56,179,71678,2,2,P|32:240|80:272,1,120.000000596046
127,270,72152,5,0,0:0:0:0:
127,209,72310,1,8,0:0:0:0:
211,124,72626,1,0,0:0:0:0:
211,184,72784,1,0,0:0:0:0:
253,226,72942,2,8,P|309:170|309:133,1,120.000000596046,0|0,0:0|0:0,0:0:0:0:
368,128,73415,1,0,0:0:0:0:
369,72,73573,2,2,P|436:29|483:51,1,120.000000596046
469,99,74047,1,8,0:0:0:0:
464,160,74205,2,8,P|467:265|451:289,1,120.000000596046
424,315,74678,5,8,0:0:0:0:
363,315,74836,2,4,L|240:352,1,120.000000596046,0|4,0:0|0:0,0:0:0:0:
187,349,75310,1,8,0:0:0:0:
126,349,75468,2,4,P|48:352|40:304,1,120.000000596046,0|4,0:0|0:0,0:0:0:0:
32,264,75942,1,8,0:0:0:0:
37,204,76099,2,0,L|56:72,1,120.000000596046,0|4,0:0|0:0,0:0:0:0:
96,42,76573,1,8,0:0:0:0:
138,84,76731,2,4,P|120:144|152:200,1,120.000000596046,0|4,0:0|0:0,0:0:0:0:
143,253,77205,1,8,0:0:0:0:
143,313,77363,6,4,P|216:336|264:296,1,120.000000596046
248,256,77836,1,8,0:0:0:0:
249,195,77994,2,4,L|288:72,1,120.000000596046
328,32,78468,1,8,0:0:0:0:
369,79,78626,2,4,B|416:136|432:192|440:192,1,120.000000596046
389,223,79099,1,8,0:0:0:0:
346,265,79257,2,4,P|280:304|224:288,1,120.000000596046
325,212,79889,6,0,L|238:123,1,120.000000596046,0|4,0:0|0:0,0:0:0:0:
155,211,80521,2,0,L|248:118,1,120.000000596046,0|4,0:0|0:0,0:0:0:0:
119,126,81152,2,0,L|251:127,1,120.000000596046,0|4,0:0|0:0,0:0:0:0:
360,128,81784,2,0,L|225:128,1,120.000000596046,0|4,0:0|0:0,0:0:0:0:
119,128,82415,6,0,L|72:200,2,60.000000298023
119,248,83047,1,0,0:0:0:0:
203,332,83363,2,0,L|328:312,1,120.000000596046
236,228,83994,1,0,0:0:0:0:
236,228,84152,1,0,0:0:0:0:
236,228,84310,1,0,0:0:0:0:
356,228,84626,6,0,L|448:144,1,120.000000596046
359,62,85257,2,0,L|304:112,2,60.000000298023
272,144,85889,2,0,L|272:280,1,120.000000596046
151,264,86521,1,0,0:0:0:0:
108,221,86678,1,0,0:0:0:0:
65,263,86836,1,0,0:0:0:0:
65,142,87152,6,0,L|160:48,1,120.000000596046,4|8,0:0|0:0,0:0:0:0:
235,142,87784,2,4,L|304:120,2,60.000000298023,4|8|4,0:0|0:0|0:0,0:0:0:0:
235,262,88415,2,0,P|304:312|360:304,1,120.000000596046,4|8,0:0|0:0,0:0:0:0:
335,191,89047,1,4,0:0:0:0:
377,233,89205,1,8,0:0:0:0:
377,293,89363,1,4,0:0:0:0:
257,293,89678,6,0,P|192:344|152:336,1,120.000000596046,0|8,0:0|0:0,0:0:0:0:
39,339,90310,2,0,L|96:280,1,60.000000298023,4|8,0:0|0:0,0:0:0:0:
37,253,90626,1,4,0:0:0:0:
157,253,90942,1,4,0:0:0:0:
199,210,91099,1,8,0:0:0:0:
241,252,91257,1,4,0:0:0:0:
241,131,91573,1,4,0:0:0:0:
284,173,91731,1,8,0:0:0:0:
327,130,91889,1,4,0:0:0:0:
411,214,92205,6,0,P|445:146|441:93,1,120.000000596046,12|4,0:0|0:0,0:0:0:0:
358,18,92836,2,0,P|288:64|264:120,1,120.000000596046,12|4,0:0|0:0,0:0:0:0:
356,179,93468,2,0,L|328:232,3,60.000000298023,4|8|4|8,0:0|0:0|0:0|0:0,0:0:0:0:
283,187,94099,2,8,L|231:187|232:187,6,30.0000001490115
344,184,94731,6,0,L|305:117,1,60.000000298023,4|8,0:0|0:0,0:0:0:0:
253,132,95047,1,4,0:0:0:0:
160,56,95521,2,12,L|88:72,1,60.000000298023
58,111,95836,1,4,0:0:0:0:
100,153,95994,1,4,0:0:0:0:
96,272,96310,6,0,L|124:343,1,60.000000298023,4|2,0:0|0:0,0:0:0:0:
216,344,96784,2,0,L|295:333,1,60.000000298023,4|2,0:0|0:0,0:0:0:0:
395,335,97257,2,0,L|424:272,1,60.000000298023,4|8,0:0|0:0,0:0:0:0:
420,220,97573,1,4,0:0:0:0:
239,220,98047,6,0,P|196:193|198:127,1,120.000000596046,8|2,0:0|0:0,0:0:0:0:
155,171,98521,1,4,0:0:0:0:
112,128,98678,1,4,0:0:0:0:
196,43,98994,6,2,P|289:48|389:237,1,300.000001490115,8|4,0:0|0:0,0:0:0:0:
256,216,103889,5,4,0:0:0:0:
135,216,104205,1,4,0:0:0:0:
177,258,104363,1,4,0:0:0:0:
272,353,104836,6,0,L|329:351,1,45.0000019401311,4|8,0:0|0:0,0:0:0:0:
362,351,105152,1,0,0:0:0:0:
425,287,105468,1,0,0:0:0:0:
361,223,105784,2,0,L|306:234,1,45.0000019401311,4|8,0:0|0:0,0:0:0:0:
284,264,106099,1,0,0:0:0:0:
220,200,106415,1,0,0:0:0:0:
156,263,106731,2,0,L|128:320,1,45.0000019401311,4|8,0:0|0:0,0:0:0:0:
104,335,107047,1,0,0:0:0:0:
40,271,107363,1,0,0:0:0:0:
103,207,107678,6,0,L|72:152,1,45.0000019401311,4|8,0:0|0:0,0:0:0:0:
48,135,107994,1,0,0:0:0:0:
138,135,108310,1,0,0:0:0:0:
201,71,108626,2,0,L|256:56,1,45.0000019401311,4|8,0:0|0:0,0:0:0:0:
289,59,108942,1,0,0:0:0:0:
289,149,109257,1,0,0:0:0:0:
376,152,109573,6,0,L|437:147,1,45.0000019401311,4|8,0:0|0:0,0:0:0:0:
455,177,109889,1,0,0:0:0:0:
391,240,110205,1,0,0:0:0:0:
300,240,110521,2,0,L|264:288,1,45.0000019401311,4|8,0:0|0:0,0:0:0:0:
240,308,110836,1,0,0:0:0:0:
149,308,111152,1,0,0:0:0:0:
149,217,111468,5,0,0:0:0:0:
150,217,111784,2,0,L|107:171,1,45.0000019401311
85,153,112415,6,0,P|48:112|56:72,2,90.0000038802622,4|8|4,0:0|0:0|0:0,0:0:0:0:
125,72,113363,2,0,P|175:53|215:58,2,90.0000038802622,4|8|4,0:0|0:0|0:0,0:0:0:0:
188,135,114310,2,0,P|240:160|280:160,2,90.0000038802622,4|8|4,0:0|0:0|0:0,0:0:0:0:
266,90,115257,2,0,B|302:51|367:71,2,90.0000038802622,4|8|4,0:0|0:0|0:0,0:0:0:0:
329,153,116205,2,0,P|336:216|368:224,1,90.0000038802622,4|4,0:0|0:0,0:0:0:0:
448,127,116994,5,4,0:0:0:0:
448,262,117468,5,4,0:0:0:0:
400,264,117626,1,8,0:0:0:0:
400,309,117784,1,4,0:0:0:0:
311,307,118099,1,0,0:0:0:0:
220,307,118415,2,0,L|168:336,2,45.0000019401311,4|8|4,0:0|0:0|0:0,0:0:0:0:
129,307,119047,1,0,0:0:0:0:
65,243,119363,1,4,0:0:0:0:
33,211,119521,1,8,0:0:0:0:
64,179,119678,1,4,0:0:0:0:
64,88,119994,1,0,0:0:0:0:
154,88,120310,6,0,P|182:71|199:87,2,45.0000019401311,4|8|4,0:0|0:0|0:0,0:0:0:0:
217,24,120942,1,0,0:0:0:0:
280,87,121257,1,4,0:0:0:0:
311,55,121415,1,8,0:0:0:0:
356,55,121573,1,4,0:0:0:0:
419,118,121889,1,0,0:0:0:0:
482,181,122205,2,0,P|504:208|504:224,2,45.0000019401311,4|8|4,0:0|0:0|0:0,0:0:0:0:
391,181,122836,1,0,0:0:0:0:
327,117,123152,1,4,0:0:0:0:
295,148,123310,1,8,0:0:0:0:
296,192,123468,1,4,0:0:0:0:
232,128,123784,1,0,0:0:0:0:
168,64,124099,6,0,B|80:48|80:48|48:80|64:104,1,135.000005820393,0|4,0:0|0:0,0:0:0:0:
154,182,125047,6,0,L|152:280,1,90.0000038802622,4|0,0:0|0:0,0:0:0:0:
216,208,125678,2,0,L|144:280,1,90.0000038802622,4|0,0:0|0:0,0:0:0:0:
242,271,126310,2,0,L|144:272,1,90.0000038802622,4|0,0:0|0:0,0:0:0:0:
152,184,126942,6,0,L|153:273,1,90.0000038802622,4|0,0:0|0:0,0:0:0:0:
88,208,127573,2,0,L|151:271,1,90.0000038802622,4|0,0:0|0:0,0:0:0:0:
64,272,128205,2,0,L|153:272,1,90.0000038802622,4|0,0:0|0:0,0:0:0:0:
244,272,128836,1,0,0:0:0:0:
244,362,129152,6,0,P|292:354|328:272,1,135.000005820393,4|8,0:0|0:0,0:0:0:0:
464,282,130099,2,0,P|480:224|448:200,1,90.0000038802622,4|8,0:0|0:0,0:0:0:0:
431,174,130573,2,0,P|399:156|408:105,1,90.0000038802622,4|8,0:0|0:0,0:0:0:0:
372,76,131047,1,4,0:0:0:0:
281,76,131363,5,4,0:0:0:0:
217,12,131678,1,8,0:0:0:0:
153,75,131994,1,4,0:0:0:0:
89,11,132310,1,8,0:0:0:0:
25,74,132626,1,4,0:0:0:0:
25,164,132942,1,8,0:0:0:0:
88,227,133257,1,4,0:0:0:0:
151,163,133573,1,4,0:0:0:0:
151,253,133889,6,0,L|184:288,1,45.0000019401311,12|8,0:0|0:0,0:0:0:0:
213,317,134205,2,0,L|256:304,1,45.0000019401311,12|8,0:0|0:0,0:0:0:0:
256,258,134521,2,0,L|296:232,1,45.0000019401311,12|8,0:0|0:0,0:0:0:0:
325,265,134836,2,0,L|352:304,1,45.0000019401311,12|8,0:0|0:0,0:0:0:0:
395,301,135152,2,0,L|448:280,1,45.0000019401311,12|8,0:0|0:0,0:0:0:0:
404,252,135468,2,0,L|368:208,1,45.0000019401311,12|8,0:0|0:0,0:0:0:0:
343,185,135784,2,0,L|352:136,1,45.0000019401311,12|8,0:0|0:0,0:0:0:0:
352,96,136099,2,0,P|321:73|273:81,1,90.0000038802622,12|14,0:0|0:0,0:0:0:0:
