osu file format v12

[General]
AudioFilename: Pokemon Black and White - Final N Battle.mp3
AudioLeadIn: 0
PreviewTime: 13889
Countdown: 0
SampleSet: Normal
StackLeniency: 0.7
Mode: 0
LetterboxInBreaks: 1
WidescreenStoryboard: 0

[Editor]
Bookmarks: 18947,33468,59363,96024,96498,96971,129192,130140,131088,136415
DistanceSpacing: 1
BeatDivisor: 2
GridSize: 16

[Metadata]
Title:Decisive Battle! N
TitleUnicode:決戦!N
Artist:Junichi Masuda
ArtistUnicode:増田順
Creator:snlrocks
Version:Level Vanilluxe
Source:Pokemon: Black/White
Tags:Pokemon N Black White Totoro le Pacha
BeatmapID:278113
BeatmapSetID:106069

[Difficulty]
HPDrainRate:4
CircleSize:3
OverallDifficulty:3
ApproachRate:5
SliderMultiplier:0.75
SliderTickRate:1

[Events]
//Background and Video events
0,0,"Black-and-White-pokemon-black-and-white-20582383.jpg",0,0
//Break Periods
2,49141,58163
2,99983,102689
//Storyboard Layer 0 (Background)
//Storyboard Layer 1 (Fail)
//Storyboard Layer 2 (Pass)
//Storyboard Layer 3 (Foreground)
//Storyboard Sound Samples
//Background Colour Transformations
3,100,163,162,255

[TimingPoints]
2521,315.789473684211,4,1,0,65,1,0
17678,-66.6666666666667,4,1,0,65,0,0
24152,-80,4,1,0,65,0,0
25257,-80,4,1,0,65,0,0
29047,-79.9999999999999,4,1,0,65,0,0
30310,-80,4,1,0,65,0,0
36626,-133.333333333333,4,1,0,65,0,0
37889,-133.333333333333,4,1,0,65,0,0
41678,-133.333333333333,4,1,0,65,0,0
42942,-100,4,1,0,65,0,0
44205,-100,4,1,0,65,0,1
48863,-100,4,3,0,65,0,1
49021,-100,4,1,0,65,0,0
49099,-100,4,2,0,65,0,0
69468,-100,4,1,0,65,0,0
89678,-100,4,1,0,65,0,0
89864,-100,4,1,0,65,0,1
99784,-100,4,1,0,65,0,1
99942,-83.3333333333333,4,1,0,65,0,0
104875,-100,4,1,0,65,0,0
111152,-133.333333333333,4,1,0,65,0,0
112415,-80,4,1,0,65,0,0
117468,-80,4,1,0,65,0,0
123784,-133.333333333333,4,1,0,65,0,0
128836,-133.333333333333,4,1,0,65,0,0
136454,-100,4,2,0,65,0,0

[HitObjects]
96,80,2520,5,0,0:0:0:0:
246,80,3152,1,0,0:0:0:0:
139,186,3784,2,0,L|300:186,1,150
395,79,5047,5,0,0:0:0:0:
395,228,5678,1,0,0:0:0:0:
244,228,6310,1,0,0:0:0:0:
244,77,6942,1,0,0:0:0:0:
244,227,7573,6,0,L|88:227|88:227,1,150
244,227,8836,2,0,L|413:229,1,150
287,335,10099,1,0,0:0:0:0:
136,335,10731,1,0,0:0:0:0:
136,185,11363,6,0,P|152:229|128:245,3,75
188,189,12626,5,0,0:0:0:0:
338,189,13257,1,0,0:0:0:0:
187,189,13889,1,0,0:0:0:0:
81,83,14521,1,0,0:0:0:0:
231,83,15152,6,0,L|316:134,2,75
390,242,16731,6,0,L|496:242,2,75,0|4|4,0:0|0:0|0:0,0:0:0:0:
390,129,17678,6,4,B|358:161|358:161|358:129|358:129|326:161|326:161|326:129|326:129|294:161|294:161|294:129|294:129|262:161|262:161|262:129|262:129|230:161|230:161|230:129|230:129|198:161|198:161|198:129,5,450.000017166138
480,288,24310,6,0,L|335:286,1,140.625
480,288,25257,6,0,B|448:192|448:192|336:192|336:192|256:128|256:128|192:192|192:192|32:192|32:192,2,562.5,8|4|4,0:0|0:0|0:0,0:0:0:0:
276,296,29363,6,8,B|112:296,1,140.625,8|4,0:0|0:0,0:0:0:0:
144,160,30310,2,0,P|160:48|272:176,4,375,4|4|4|4|4,0:0|0:0|0:0|0:0|0:0,0:0:0:0:
208,112,35994,2,0,L|208:304,1,187.5
263,291,36942,6,4,L|263:391,1,84.3750032186509
336,352,37889,2,0,B|176:336|176:336|80:304|302:159|144:176,1,393.750015020371,0|4,0:0|0:0,0:0:0:0:
119,158,41047,2,4,B|235:126|235:126,1,112.500004291535
225,318,41994,6,0,L|320:320,1,84.3750032186509
225,242,42942,1,0,0:0:0:0:
337,242,43415,1,0,0:0:0:0:
337,129,43889,1,0,0:0:0:0:
261,129,44205,6,0,L|93:129,1,150,8|0,0:0|0:0,0:0:0:0:
111,279,45468,2,0,L|267:279|259:279,1,150,8|4,0:0|0:0,0:0:0:0:
152,352,46731,2,0,L|216:192,1,150,8|4,0:0|0:0,0:0:0:0:
160,160,47994,2,4,L|384:160,1,225
256,192,59363,5,0,2:0:0:0:
256,192,61889,5,0,2:0:0:0:
256,192,64415,5,0,2:0:0:0:
256,192,66942,5,0,2:0:0:0:
288,208,68205,6,0,L|288:144,2,37.5,0|0|0,0:0|0:0|0:0,0:0:0:0:
212,208,68836,2,0,L|212:260,2,37.5
212,132,69468,6,0,L|116:132,2,75
362,132,70731,6,0,L|362:220,2,75,0|0|0,0:0|0:0|0:0,0:0:0:0:
255,238,71994,6,0,B|207:238|207:238|207:194,2,75
255,88,73257,6,0,B|299:88|299:88|299:128,2,75,0|0|0,0:0|0:0|0:0,0:0:0:0:
148,194,74521,6,8,L|220:254,2,75
351,197,75784,6,12,L|283:249,2,75
200,197,77047,2,4,L|381:197,3,150
199,197,79573,6,0,L|199:111,1,75
124,121,80205,2,0,B|208:122|207:122,1,75
274,121,80836,2,0,L|380:123,1,75
349,47,81468,2,0,L|349:140,1,75
333,143,82099,6,12,P|361:107|441:163,1,150,12|8,0:0|0:0,0:0:0:0:
277,211,83363,2,8,P|229:259|177:195,1,150,12|8,0:0|0:0,0:0:0:0:
176,160,84626,2,12,P|136:120|68:168,1,150,12|4,0:0|0:0,0:0:0:0:
68,14,85889,6,4,L|224:14,1,150
111,120,87152,2,4,L|263:120|259:120,1,150
155,225,88415,2,4,L|307:225,1,150
198,331,89678,5,8,0:0:0:0:
348,331,90310,1,8,0:0:0:0:
348,180,90942,2,0,P|256:160|224:224,1,150,8|4,0:0|0:0,0:0:0:0:
330,303,92205,6,4,P|395:353|474:335,1,150
410,284,93468,6,12,L|437:257,6,37.5
410,208,94731,5,0,0:0:0:0:
222,208,95521,2,0,P|223:332|224:333,1,112.5,4|8,0:0|0:0,0:0:0:0:
319,311,96468,2,4,L|440:242,1,112.5,4|0,0:0|0:0,0:0:0:0:
416,180,97257,1,12,0:0:0:0:
228,180,98047,5,0,0:0:0:0:
307,100,98521,2,0,L|259:100,1,37.5,4|12,0:0|0:0,0:0:0:0:
194,100,98994,2,14,B|98:100|98:100|98:200,1,187.5
124,77,103889,5,4,0:0:0:0:
259,77,104363,1,4,0:0:0:0:
371,77,104836,2,4,B|377:133|320:128|320:128|317:197|259:193|259:193|260:278|232:280|232:280,4,269.999991760254
349,270,109257,5,0,0:0:0:0:
499,270,109889,1,0,0:0:0:0:
499,119,110521,1,0,0:0:0:0:
386,119,111152,1,0,0:0:0:0:
296,80,111468,6,0,L|192:80,1,84.3750032186509
110,80,112415,6,4,L|202:248,2,187.5
201,243,114310,2,4,B|253:139|253:139|344:120,2,187.5
112,336,116521,5,8,0:0:0:0:
256,336,116994,1,8,0:0:0:0:
126,281,117468,2,0,B|126:5|126:5|330:301|330:301|330:-7,2,937.5,0|4|0,0:0|0:0|0:0,0:0:0:0:
172,249,124099,2,4,P|208:192|240:176,1,84.3750032186509
344,252,125047,6,4,L|292:300,2,56.2500021457673,4|4|4,0:0|0:0|0:0,0:0:0:0:
304,212,125994,2,0,L|263:169,2,56.2500021457673,4|4|4,0:0|0:0|0:0,0:0:0:0:
247,212,126942,2,0,L|200:264,2,56.2500021457673,4|4|4,0:0|0:0|0:0,0:0:0:0:
247,268,127889,2,4,L|295:316,3,56.2500021457673
343,307,129152,5,0,0:0:0:0:
402,247,129626,2,4,L|434:215,1,28.1250010728836
461,187,130099,1,0,0:0:0:0:
461,102,130573,2,4,L|461:54,1,28.1250010728836
404,73,131047,1,0,0:0:0:0:
347,73,131363,6,4,L|315:89,14,28.1250010728836
347,129,133889,2,0,L|315:161,16,28.1250010728836,4|12|4|12|4|12|4|12|4|12|4|12|4|12|4|12|4,0:0|0:0|0:0|0:0|0:0|0:0|0:0|0:0|0:0|0:0|0:0|0:0|0:0|0:0|0:0|0:0|0:0,0:0:0:0:
