osu file format v9

[General]
AudioFilename: Battle! Gym Leader.mp3
AudioLeadIn: 3000
PreviewTime: 50964
Countdown: 1
SampleSet: Normal
StackLeniency: 0.3
Mode: 1
LetterboxInBreaks: 1

[Editor]
DistanceSpacing: 1
BeatDivisor: 4
GridSize: 8

[Metadata]
Title:Battle! Gym Leader
Artist:Junichi Masuda
Creator:Kissflying
Version:Taiko Level 90
Source:Pokemon Golden heart & Silver soul
Tags:

[Difficulty]
HPDrainRate:7
CircleSize:4
OverallDifficulty:5
ApproachRate:8
SliderMultiplier:1.6
SliderTickRate:1

[Events]
//Background and Video events
0,0,"wp4.jpg"
//Break Periods
//Storyboard Layer 0 (Background)
//Storyboard Layer 1 (Fail)
//Storyboard Layer 2 (Pass)
//Storyboard Layer 3 (Foreground)
//Storyboard Sound Samples
//Background Colour Transformations
3,100,163,162,255

[TimingPoints]
171,317.376355461518,4,1,0,100,1,0
12866,-66.6666666666667,4,1,0,100,0,0
50951,-66.6666666666667,4,1,0,100,0,1
66820,-66.6666666666667,4,1,0,100,0,0

[Colours]
Combo1 : 128,128,128
Combo2 : 230,230,0
Combo3 : 123,123,164
Combo4 : 255,128,0

[HitObjects]
23,37,171,2,0,B|505:24|505:24|504:357|504:357|181:326,1,1120
32,32,2710,1,4
32,32,3186,1,8
32,32,3662,1,0
272,32,3979,1,8
32,64,4455,1,0
32,64,4614,1,0
32,64,4772,1,0
32,64,4931,1,8
32,64,5249,1,4
32,64,5725,1,8
32,64,6201,1,0
32,64,6518,1,8
32,64,6994,1,6
32,64,7470,1,0
32,64,7788,1,4
32,64,7946,1,0
32,64,8264,1,8
32,64,8740,1,0
32,64,9057,1,12
32,64,9533,1,0
32,64,9692,1,0
32,64,9850,1,0
32,64,10009,1,8
32,64,10327,1,4
32,64,10644,1,0
32,64,10803,1,0
32,64,11279,1,0
32,64,11596,2,0,B|448:48|392:280,1,480
396,259,12866,5,4
396,259,13500,1,8
396,259,13659,1,8
396,259,13818,1,0
396,259,13976,1,0
396,259,14135,1,8
396,259,14770,1,8
396,259,14929,1,8
396,259,15087,1,0
396,259,15246,1,0
396,259,15405,1,8
396,259,15722,1,4
396,259,16039,1,4
396,259,16357,1,4
396,259,16674,1,0
396,259,16833,1,0
396,259,16991,1,0
396,259,17150,1,0
396,259,17309,1,0
396,259,17468,1,0
396,259,17626,1,0
423,122,17944,1,4
423,122,18578,1,8
423,122,18737,1,8
423,122,18896,1,0
423,122,19054,1,8
423,122,19213,1,0
423,122,19848,1,8
423,122,20007,1,8
423,122,20165,1,0
423,122,20324,1,0
423,122,20483,1,8
423,122,20800,1,4
423,122,21117,1,4
423,122,21435,1,4
423,122,21752,2,0,B|200:80|56:176|56:288|232:336|416:328|472:312|512:224,1,719.999978542328
423,122,23022,5,4
423,122,23498,1,0
423,122,23974,1,8
423,122,24291,1,12
423,122,24767,1,8
423,122,25243,1,0
423,122,25561,1,4
423,122,26037,1,0
423,122,26513,1,8
423,122,26830,1,12
423,122,27306,1,8
423,122,27782,1,0
423,122,28100,1,0
423,122,28258,1,0
423,122,28417,1,0
423,122,28576,1,0
423,122,28734,1,0
423,122,28893,1,0
423,122,29052,1,0
423,122,29210,1,0
423,122,29369,1,8
423,122,29528,1,0
423,122,29687,1,8
423,122,29845,1,0
423,122,30004,1,8
423,122,30163,1,0
423,122,30321,1,8
423,122,30480,1,0
423,122,30639,1,4
423,122,31908,1,0
423,122,32543,1,8
423,122,33019,1,12
423,122,33178,1,0
423,122,33257,1,0
423,122,33336,1,0
423,122,33495,1,0
423,122,33574,1,0
423,122,33654,1,0
423,122,33812,1,0
423,122,33892,1,0
423,122,33971,1,0
423,122,34130,1,0
423,122,34209,1,0
423,122,34288,1,0
423,122,34447,2,0,B|160:80|64:248|400:320|344:88|128:40|0:208|408:296|456:208|512:120|216:48|48:120,1,719.999978542328
423,122,35717,1,8
423,122,35875,1,8
423,122,36034,1,8
423,122,36193,1,8
423,122,36351,1,8
423,122,36510,1,8
423,122,36669,1,12
423,122,36986,1,0
423,122,37621,1,8
423,122,38097,1,12
423,122,38256,1,0
423,122,38335,1,0
423,122,38414,1,0
423,122,38573,1,0
423,122,38652,1,0
423,122,38732,1,0
423,122,38890,1,0
423,122,38970,1,0
423,122,39049,1,0
423,122,39208,1,0
423,122,39287,1,0
423,122,39366,1,0
423,122,39525,1,8
423,122,39605,1,8
423,122,39684,1,8
423,122,39763,1,8
423,122,39843,1,8
423,122,39922,1,8
423,122,40001,1,8
423,122,40081,1,8
423,122,40160,1,8
423,122,40239,1,8
423,122,40319,1,8
423,122,40398,1,8
423,122,40477,1,8
423,122,40795,5,4
423,122,41271,1,0
423,122,41747,1,8
423,122,42064,1,12
423,122,42540,1,8
423,122,43016,1,0
423,122,43334,1,4
423,122,43810,1,0
423,122,44286,1,8
423,122,44603,1,12
423,122,45079,1,8
423,122,45555,1,0
423,122,45873,1,4
423,122,46507,1,4
423,122,47142,1,12
423,122,47777,1,12
423,122,48412,1,0
423,122,48729,1,0
423,122,49046,1,0
423,122,49364,1,0
423,122,49681,1,8
423,122,49999,1,0
423,122,50157,1,0
423,122,50316,1,0
423,122,50475,1,0
423,122,50633,1,0
423,122,50792,1,0
423,122,50951,5,12
423,122,51585,1,0
423,122,51744,1,0
423,122,51903,1,0
423,122,52062,1,0
423,122,52220,1,0
423,122,52538,1,8
423,122,52855,1,0
423,122,53172,1,4
423,122,53490,1,10
423,122,53807,1,0
423,122,54124,1,10
423,122,54442,1,0
423,122,54759,1,8
423,122,54918,1,8
423,122,55077,1,0
423,122,55235,1,8
423,122,55394,2,0,B|124:93|16:134|97:149,1,359.999989271164
71,138,56029,1,4
71,138,56663,1,0
71,138,56822,1,0
71,138,56981,1,0
71,138,57140,1,8
71,138,57298,1,0
71,138,57616,1,8
71,138,57933,1,0
71,138,58250,1,4
71,138,58568,1,8
71,138,58885,1,4
71,138,59203,1,8
71,138,59520,1,4
71,138,59837,1,8
71,138,59996,1,8
71,138,60155,1,0
71,138,60313,1,8
71,138,60472,1,0
71,138,60551,1,0
71,138,60631,1,0
71,138,60710,1,0
71,138,60789,1,0
71,138,60869,1,0
71,138,60948,1,0
71,138,61107,1,8
71,138,61265,1,8
71,138,61424,1,8
71,138,61583,1,8
71,138,61742,1,0
128,24,62376,1,4
440,80,63011,1,4
440,80,63646,1,0
440,80,63963,1,12
440,80,64281,1,0
440,80,64598,1,12
440,80,64915,2,0,B|-2:136|355:296|490:205|90:16|64:230|421:282|463:118|424:348|204:370|57:297|33:186|-12:15|224:32|316:21|408:16|500:23,1,959.999971389771
40,40,67454,5,4
40,40,67772,1,0
40,40,68089,1,0
40,40,68406,1,0
40,40,68724,1,8
40,40,69041,1,0
40,40,69200,1,0
40,40,69359,1,0
40,40,69676,1,12
40,40,69993,1,0
40,40,70152,1,0
40,40,70311,1,0
40,40,70469,1,0
40,40,70628,1,0
40,40,70787,1,0
40,40,70945,1,0
40,40,71104,1,0
40,40,71263,2,0,B|338:96|72:266|375:301|465:32|467:263|299:376|120:323|79:308,1,719.999978542328
81,309,72532,1,4
81,309,73167,1,8
81,309,73326,1,8
81,309,73484,1,0
81,309,73643,1,8
81,309,73802,1,4
81,309,74437,1,12
81,309,74595,1,12
81,309,74754,1,0
81,309,74913,1,12
256,192,75071,12,4,77610
